osu file format v14

[General]
AudioFilename: mp3.mp3
AudioLeadIn: 0
PreviewTime: 46003
Countdown: 0
SampleSet: None
StackLeniency: 0.3
Mode: 0
LetterboxInBreaks: 0
WidescreenStoryboard: 1

[Editor]
Bookmarks: 10833,22287
DistanceSpacing: 0.7
BeatDivisor: 4
GridSize: 4
TimelineZoom: 3.5

[Metadata]
Title:TRICKL4SH 220
TitleUnicode:TRICKL4SH 220
Artist:Lite Show Magic
ArtistUnicode:Lite Show Magic
Creator:Regou
Version:toybot's 4NOTHER
Source:SOUND VOLTEX IV HEAVENLY HAVEN
Tags:sdvx konami bemani ep m3-36 m3 lsm c.h.s chs comiket chsep-0003 hardcore tano*c happy don't waste me! e.p. c85 t+pazolite c-show [ Drop ] toybot LowComboFC Neoskylove Gloria Guard Priti Avena IntellectualBoy tricklash
BeatmapID:1308411
BeatmapSetID:616696

[Difficulty]
HPDrainRate:5.5
CircleSize:4.2
OverallDifficulty:7
ApproachRate:9.2
SliderMultiplier:1.62
SliderTickRate:1

[Events]
//Background and Video events
0,0,"BG1.jpg",0,0
//Break Periods
//Storyboard Layer 0 (Background)
//Storyboard Layer 1 (Fail)
//Storyboard Layer 2 (Pass)
//Storyboard Layer 3 (Foreground)
//Storyboard Sound Samples

[TimingPoints]
185,272.727272727273,4,3,1,70,1,0
185,-133.333333333333,4,3,1,70,0,0
4139,-100,4,3,1,70,0,0
4548,-133.333333333333,4,3,1,70,0,0
8503,-80,4,3,1,70,0,0
8912,-100,4,2,1,80,0,0
10003,-133.333333333333,4,3,1,80,0,0
10616,-133.333333333333,4,3,1,55,0,0
11094,-100,4,2,1,80,0,0
14366,-133.333333333333,4,3,1,80,0,0
14980,-133.333333333333,4,3,1,55,0,0
15457,-100,4,2,1,80,0,0
17366,-151.515151515152,4,3,1,100,0,0
17571,-151.515151515152,4,3,1,40,0,0
17639,-100,4,3,1,80,0,0
21730,-80,4,3,1,80,0,0
22003,-100,4,3,1,80,0,0
25685,-100,4,3,1,5,0,0
25821,-100,4,3,1,80,0,0
26230,-100,4,3,1,5,0,0
26366,-100,4,3,1,80,0,0
27457,-80,4,3,1,100,0,0
28003,-80,4,3,1,60,0,0
28275,-80,4,3,1,100,0,0
28548,-100,4,3,1,80,0,0
29639,-80,4,3,1,100,0,0
30730,-100,4,3,1,80,0,0
32912,-100,4,2,1,100,0,0
34003,-100,4,3,1,80,0,0
35025,-100,4,3,1,20,0,0
35094,-200,4,2,1,60,0,0
39457,-200,4,3,1,60,0,0
43821,-200,4,2,1,40,0,0
45048,-200,4,2,1,20,0,0
45185,-200,4,2,1,40,0,0
45457,-100,4,2,1,60,0,0
46003,-100,4,3,1,90,0,1
48185,-100,4,1,1,70,0,1
50366,-100,4,3,1,90,0,1
52548,-80,4,2,1,70,0,1
54185,-133.333333333333,4,2,1,70,0,0
54730,-100,4,3,1,90,0,1
56912,-100,4,1,1,70,0,1
59094,-100,4,3,1,90,0,1
61275,-80,4,2,1,70,0,1
63457,-100,4,3,1,70,0,0
71503,-100,4,3,1,5,0,0
71639,-133.333333333333,4,3,1,70,0,0
72048,-133.333333333333,4,3,1,5,0,0
72185,-100,4,3,1,80,0,0
80366,-66.6666666666667,4,3,1,80,0,0
80912,-100,4,3,1,80,0,0
82003,-133.333333333333,4,3,1,80,0,0
83094,-100,4,3,1,80,0,0
84185,-68.9655172413793,4,3,1,80,0,0
84219,-68.9655172413793,4,2,1,35,0,0
85003,-68.9655172413793,4,2,1,70,0,0
85139,-68.9655172413793,4,2,1,20,0,0
85275,-100,4,3,1,90,0,1
87457,-100,4,1,1,70,0,1
89639,-100,4,3,1,90,0,1
91821,-80,4,2,1,70,0,1
93457,-133.333333333333,4,2,1,70,0,0
94003,-100,4,2,1,90,0,1
96185,-80,4,2,1,90,0,1
97412,-100,4,2,1,90,0,1
98094,-80,4,2,1,90,0,1
98366,-100,4,2,1,90,0,1
100275,-80,4,2,1,90,0,1
102730,-100,4,2,1,80,0,0
110503,-100,4,2,1,10,0,0
110639,-200,4,2,1,80,0,0
110776,-200,4,2,1,10,0,0
110912,-200,4,2,1,80,0,0

[Colours]
Combo1 : 128,0,255
Combo2 : 252,226,48
Combo3 : 255,99,23
Combo4 : 255,58,130

[HitObjects]
40,124,185,6,0,P|92:120|152:160,1,121.500004634857,4|0,1:0|0:0,0:0:0:0:
232,120,594,2,0,L|240:196,1,60.7500023174287
205,253,866,1,0,0:0:0:0:
384,320,1139,1,0,0:0:0:0:
452,276,1275,6,0,P|464:232|444:144,1,121.500004634857,0|0,0:0|0:0,0:0:0:0:
372,128,1685,2,0,L|312:136,1,60.7500023174287,0|0,0:0|0:0,0:0:0:0:
232,116,1957,1,0,0:0:0:0:
328,332,2230,1,0,0:0:0:0:
341,253,2366,6,0,L|220:264,1,121.500004634857,0|0,0:0|0:0,0:0:0:0:
124,188,2775,1,0,0:0:0:0:
124,188,2844,1,0,0:0:0:0:
124,188,2912,2,0,P|112:156|116:120,1,60.7500023174287,0|0,0:0|0:0,0:0:0:0:
276,104,3185,2,0,P|288:136|284:172,1,60.7500023174287,0|0,0:0|0:0,0:0:0:0:
191,92,3457,6,0,L|183:28,2,60.7500023174287,0|0|0,0:0|0:0|0:0,0:0:0:0:
204,176,3866,1,0,0:0:0:0:
192,192,4139,6,0,P|244:176|332:264,1,162,4|0,1:0|1:0,0:0:0:0:
404,272,4480,1,0,1:0:0:0:
404,272,4548,6,0,L|484:264,2,60.7500023174287,4|0|0,1:0|0:0|0:0,0:0:0:0:
336,320,4957,1,0,0:0:0:0:
268,368,5094,2,0,L|188:376,2,60.7500023174287
336,320,5503,6,0,L|324:192,1,121.500004634857,0|0,0:0|0:0,0:0:0:0:
360,132,5844,1,0,0:0:0:0:
359,132,5912,2,0,P|389:135|419:136,1,60.7500023174287,0|0,0:0|0:0,0:0:0:0:
408,240,6185,1,0,0:0:0:0:
248,176,6321,2,0,P|196:168|100:180,1,121.500004634857
16,256,6730,6,0,L|24:336,1,60.7500023174287,4|0,1:0|0:0,0:0:0:0:
108,264,7003,1,4,1:0:0:0:
16,160,7139,1,0,0:0:0:0:
116,272,7275,2,0,L|122:332,1,60.7500023174287,4|0,1:0|0:0,0:0:0:0:
80,100,7548,2,0,L|86:39,1,60.7500023174287,4|0,1:0|0:0,0:0:0:0:
264,16,7821,5,0,0:0:0:0:
180,84,7958,1,0,0:0:0:0:
188,8,8094,1,0,0:0:0:0:
256,92,8230,1,0,0:0:0:0:
264,104,8503,6,0,L|327:97,1,50.625,0|0,1:0|1:0,0:0:0:0:
369,40,8640,1,4,1:0:0:0:
400,61,8708,1,4,1:0:0:0:
437,66,8776,1,4,1:0:0:0:
473,54,8844,1,4,1:0:0:0:
500,28,8912,6,0,L|476:216,1,162,4|0,1:0|2:0,0:0:0:0:
303,244,9321,2,0,P|382:235|442:286,1,162,4|0,1:0|0:0,0:0:0:0:
356,320,9730,1,4,1:0:0:0:
288,156,10003,6,0,L|280:92,1,60.7500023174287,4|4,0:0|0:0,0:0:0:0:
368,132,10275,2,0,L|360:68,1,60.7500023174287,8|4,0:2|0:0,0:0:0:0:
200,140,10548,2,0,L|76:128,1,121.500004634857,12|10,0:2|0:2,0:0:0:0:
73,148,10889,1,0,2:0:0:0:
72,169,10957,1,10,0:2:0:0:
77,189,11025,1,0,2:0:0:0:
86,208,11094,6,0,L|67:42,1,162,4|0,1:0|0:0,0:0:0:0:
248,256,11503,2,0,B|164:240|164:240|140:292|76:292,1,162,4|0,1:0|0:0,0:0:0:0:
264,172,11912,6,0,B|384:148|384:148|360:196,1,162,4|0,1:0|0:0,0:0:0:0:
180,116,12321,2,0,B|60:92|60:92|84:140,1,162,4|0,1:0|0:0,0:0:0:0:
264,64,12730,6,0,L|352:44,1,81,4|0,1:0|0:0,0:0:0:0:
216,208,13003,2,0,L|204:308,1,81,4|0,1:0|0:0,0:0:0:0:
284,340,13275,6,0,L|304:172,1,162,4|0,1:0|0:0,0:0:0:0:
496,216,13685,2,0,P|468:272|360:268,1,162,4|0,1:0|0:0,0:0:0:0:
312,96,14094,1,4,1:0:0:0:
312,96,14366,6,0,L|384:88,1,60.7500023174287,4|4,0:0|0:0,0:0:0:0:
192,172,14639,2,0,L|131:165,1,60.7500023174287,8|4,0:2|0:0,0:0:0:0:
312,248,14912,1,12,0:2:0:0:
312,248,15048,2,0,L|396:240,2,60.7500023174287,10|10|10,0:2|0:2|0:2,0:0:0:0:
208,316,15457,6,0,B|84:300|84:300|124:352,1,162,4|0,1:0|0:0,0:0:0:0:
252,180,15866,2,0,B|240:268|312:236|296:332,1,162,4|0,1:0|0:0,0:0:0:0:
160,220,16275,6,0,L|180:36,1,162,4|0,1:0|0:0,0:0:0:0:
96,76,16685,2,0,P|124:124|233:119,1,162,4|0,1:0|0:0,0:0:0:0:
336,16,17094,2,0,P|296:25|256:26,1,81,4|0,1:0|0:0,0:0:0:0:
284,216,17366,6,0,P|323:206|363:205,1,81,2|0,3:1|0:0,0:0:0:0:
363,205,17639,6,0,P|416:160|388:68,1,162,4|12,1:0|1:0,0:0:0:0:
399,77,18185,1,4,1:0:0:0:
284,216,18321,1,0,0:0:0:0:
400,292,18457,2,0,P|444:284|484:280,1,81,12|0,1:0|0:0,0:0:0:0:
304,124,18730,6,0,P|263:119|223:112,1,81,4|0,1:0|0:0,0:0:0:0:
153,69,18935,1,0,0:0:0:0:
153,69,19003,1,12,1:0:0:0:
151,192,19139,1,0,0:0:0:0:
0,132,19275,2,0,P|40:136|80:143,1,81,4|0,1:0|0:0,0:0:0:0:
4,224,19548,2,0,P|44:228|84:235,1,81,12|0,1:0|0:0,0:0:0:0:
280,264,19821,5,2,1:0:0:0:
112,324,19957,1,2,0:1:0:0:
112,324,20025,1,0,0:0:0:0:
276,376,20162,1,2,0:1:0:0:
276,376,20230,1,0,0:0:0:0:
192,284,20366,6,0,L|184:212,3,40.5,6|2|2|2,1:0|0:2|0:2|0:2,0:0:0:0:
180,216,20639,1,12,1:0:0:0:
280,264,20775,1,0,0:0:0:0:
424,96,20912,6,0,L|328:104,1,81,4|0,1:0|0:0,0:0:0:0:
328,96,21116,2,0,P|320:144|336:188,1,81,0|0,0:0|0:0,0:0:0:0:
336,188,21321,1,0,0:0:0:0:
512,169,21457,1,4,1:0:0:0:
416,16,21594,1,2,0:2:0:0:
432,208,21730,6,0,L|444:368,1,151.875,12|0,1:0|0:1,0:0:0:0:
456,372,22003,6,0,P|404:320|312:344,1,162,4|12,1:0|1:0,0:0:0:0:
322,333,22548,1,4,1:0:0:0:
224,224,22685,1,0,0:0:0:0:
329,107,22821,2,0,P|338:146|335:187,1,81,12|0,1:0|0:0,0:0:0:0:
141,269,23094,6,0,P|131:229|135:189,1,81,4|0,1:0|0:0,0:0:0:0:
166,117,23298,1,0,0:0:0:0:
166,117,23366,2,0,L|63:106,1,81,12|0,1:0|0:0,0:0:0:0:
242,288,23639,1,4,1:0:0:0:
298,131,23775,1,0,0:0:0:0:
135,189,23912,2,0,L|32:178,1,81,12|0,1:0|0:0,0:0:0:0:
234,58,24185,5,6,1:0:0:0:
330,216,24321,1,2,0:1:0:0:
330,216,24389,1,0,0:0:0:0:
364,36,24525,1,2,0:1:0:0:
364,36,24594,1,0,0:0:0:0:
252,154,24730,6,0,L|195:150,3,40.5,6|2|2|2,1:0|0:2|0:2|0:2,0:0:0:0:
192,142,25003,2,0,L|202:231,1,81,12|2,1:0|3:0,0:0:0:0:
103,275,25275,6,0,P|173:41|312:242,1,607.5,2|0,0:0|0:0,0:0:0:0:
312,242,26366,6,0,P|356:235|419:239,1,81,4|0,1:0|0:0,0:0:0:0:
469,253,26571,1,0,0:0:0:0:
469,253,26639,2,0,L|480:349,1,81,12|0,1:0|0:0,0:0:0:0:
360,316,26912,1,4,1:0:0:0:
468,164,27048,1,0,0:0:0:0:
392,84,27185,2,0,P|333:78|288:117,1,121.5,12|0,1:0|0:0,0:0:0:0:
283,135,27457,6,0,L|180:128,1,101.25,6|0,1:0|2:0,0:0:0:0:
167,117,27662,2,0,P|143:161|151:210,1,101.25,6|0,1:0|2:0,0:0:0:0:
208,265,27866,2,0,L|219:338,1,50.625,6|0,1:0|2:0,0:0:0:0:
287,349,28003,5,2,0:0:0:0:
368,283,28139,1,4,0:0:0:0:
464,335,28275,2,0,P|502:286|457:185,1,151.875,4|0,0:2|2:0,0:0:0:0:
482,203,28548,6,0,L|391:209,1,81,4|0,1:0|0:0,0:0:0:0:
335,168,28753,1,0,0:0:0:0:
335,168,28821,2,0,L|346:111,3,40.5,12|0|2|0,1:0|0:0|0:0|0:0,0:0:0:0:
275,88,29094,2,0,L|195:93,1,81,4|0,1:0|0:0,0:0:0:0:
52,190,29366,2,0,P|103:239|160:228,1,121.5,12|0,1:0|0:0,0:0:0:0:
169,227,29639,6,0,L|159:333,1,101.25,6|6,1:0|1:0,0:0:0:0:
252,164,29912,1,0,0:0:0:0:
252,164,29980,2,0,L|238:347,1,151.875,6|0,1:0|0:0,0:0:0:0:
290,381,30253,5,4,1:0:0:0:
290,381,30321,1,6,1:0:0:0:
452,360,30457,1,4,1:0:0:0:
336,252,30594,1,6,1:0:0:0:
413,207,30730,6,0,P|420:247|416:288,1,81,4|0,1:0|0:0,0:0:0:0:
206,200,31003,2,0,P|199:160|204:120,1,81,12|0,1:0|0:0,0:0:0:0:
296,152,31275,1,4,1:0:0:0:
120,72,31412,1,0,0:0:0:0:
300,16,31548,2,0,L|396:8,1,81,12|0,1:0|0:0,0:0:0:0:
512,160,31821,6,0,P|508:204|512:252,1,81,4|0,1:0|0:0,0:0:0:0:
272,232,32094,2,0,P|276:188|272:140,1,81,12|0,1:0|0:0,0:0:0:0:
392,96,32366,1,4,1:0:0:0:
388,288,32503,1,0,0:0:0:0:
432,184,32639,2,0,L|340:196,1,81,12|0,1:0|0:0,0:0:0:0:
148,272,32912,5,4,1:0:0:0:
228,152,33048,1,4,1:0:0:0:
128,172,33185,1,4,1:0:0:0:
248,252,33321,1,4,1:0:0:0:
60,240,33457,5,4,1:0:0:0:
316,184,33594,1,4,1:0:0:0:
164,92,33730,1,4,1:0:0:0:
212,332,33866,1,4,1:0:0:0:
256,192,34003,12,2,35094,0:0:0:0:
416,316,35912,5,0,0:0:0:0:
404,292,36048,1,0,0:0:0:0:
412,264,36185,2,0,P|415:226|416:184,1,81,2|0,0:0|0:0,0:0:0:0:
376,116,36730,1,2,0:0:0:0:
221,168,37275,6,0,P|210:106|214:40,2,121.5,2|0|0,0:0|0:0|0:0,0:0:0:0:
284,224,38366,2,0,P|236:215|168:263,1,121.5,2|0,0:0|0:0,0:0:0:0:
173,260,38844,1,0,0:0:0:0:
172,270,38912,2,0,L|181:351,1,81,0|2,0:0|0:0,0:0:0:0:
104,373,39321,1,2,3:0:0:0:
43,317,39457,5,0,1:0:0:0:
266,357,39730,2,0,L|341:348,1,60.75,2|0,0:1|0:0,0:0:0:0:
340,336,40003,2,0,L|346:286,1,40.5,8|0,1:0|0:0,0:0:0:0:
172,270,40275,2,0,L|166:220,1,40.5,4|0,0:0|0:0,0:0:0:0:
371,216,40548,6,0,P|371:179|363:125,1,81,8|2,0:0|0:1,0:0:0:0:
248,121,40957,1,0,0:0:0:0:
167,148,41094,2,0,P|166:111|175:57,1,81,8|4,1:0|0:0,0:0:0:0:
330,28,41639,6,0,L|419:19,1,81,8|2,0:0|0:1,0:0:0:0:
482,56,42048,2,0,L|474:114,1,40.5,0|8,0:0|1:0,0:0:0:0:
328,177,42457,1,4,0:0:0:0:
418,201,42730,6,0,L|412:160,1,40.5,8|0,0:0|0:0,0:0:0:0:
361,90,43003,2,0,P|316:95|304:95,1,40.5,2|0,0:1|0:0,0:0:0:0:
232,86,43275,2,0,P|237:126|241:166,1,81,8|4,1:0|0:0,0:0:0:0:
57,236,43821,6,0,B|191:196|150:316|298:271,1,243,0|0,0:1|0:0,0:0:0:0:
362,220,44912,1,0,0:0:0:0:
362,220,45457,6,0,P|359:181|373:114,1,81,4|0,1:2|0:0,0:0:0:0:
151,130,45730,2,0,P|154:169|140:236,1,81,4|0,1:2|0:0,0:0:0:0:
255,243,46003,5,6,1:0:0:0:
261,88,46139,1,0,0:0:0:0:
255,256,46275,1,12,1:0:0:0:
261,74,46412,2,0,P|218:34|108:61,1,162,2|0,0:1|0:0,0:0:0:0:
67,105,46753,1,0,0:0:0:0:
67,105,46821,6,0,L|78:205,1,81,12|2,1:0|0:1,0:0:0:0:
240,298,47094,2,0,L|229:198,1,81,4|0,1:0|0:0,0:0:0:0:
7,303,47366,2,0,B|96:284|69:356|173:338,1,162,14|4,1:1|1:0,0:0:0:0:
155,177,47775,1,0,0:0:0:0:
155,177,47844,1,0,2:0:0:0:
155,177,47912,2,0,P|112:186|60:183,1,81,14|0,1:0|0:0,0:0:0:0:
250,50,48185,5,4,1:0:0:0:
332,89,48321,2,0,L|352:179,1,81,2|12,0:2|1:0,0:0:0:0:
220,156,48594,5,2,0:2:0:0:
166,222,48730,2,0,L|146:312,1,81,4|2,1:0|0:2,0:0:0:0:
242,344,49003,5,12,1:0:0:0:
323,316,49139,1,2,0:2:0:0:
406,348,49275,2,0,P|409:305|396:252,1,81,4|2,1:0|0:2,0:0:0:0:
245,263,49548,2,0,P|237:302|241:343,1,81,12|2,1:0|0:2,0:0:0:0:
323,316,49821,5,4,1:0:0:0:
327,140,49957,1,2,0:2:0:0:
327,140,50025,1,0,0:0:0:0:
327,140,50094,2,0,L|326:223,1,81,12|2,1:0|0:2,0:0:0:0:
323,316,50366,5,6,1:0:0:0:
236,172,50503,1,0,0:0:0:0:
412,178,50639,1,12,1:0:0:0:
323,329,50775,2,0,L|130:339,1,162,2|0,0:1|0:0,0:0:0:0:
96,293,51116,1,0,0:0:0:0:
96,293,51185,6,0,P|83:250|104:194,1,81,12|2,1:1|0:1,0:0:0:0:
230,94,51457,2,0,P|243:137|222:193,1,81,4|0,1:0|0:0,0:0:0:0:
2,111,51730,2,0,L|136:127,1,121.5,14|0,1:1|2:1,0:0:0:0:
143,130,52003,6,0,L|132:43,1,81,4|0,1:0|0:0,0:0:0:0:
321,147,52275,2,0,L|310:60,1,81,14|0,1:0|0:1,0:0:0:0:
499,164,52548,6,0,B|429:171|429:171|397:229|397:229|313:242,1,202.5,6|0,1:0|0:0,0:0:0:0:
169,162,52957,2,0,B|213:142|213:142|277:150,1,101.25,6|0,1:0|0:0,0:0:0:0:
295,351,53230,2,0,B|251:371|251:371|187:363,1,101.25,6|0,1:0|0:0,0:0:0:0:
118,268,53503,5,6,1:0:0:0:
125,257,53775,1,4,1:0:0:0:
210,224,53912,1,4,1:0:0:0:
304,241,54048,1,0,3:0:0:0:
372,307,54185,2,0,L|502:295,1,121.500004634857,4|4,1:2|1:2,0:0:0:0:
492,295,54730,6,0,P|500:258|490:204,1,81,6|0,1:0|0:0,0:0:0:0:
383,126,55003,1,12,1:0:0:0:
460,81,55139,2,0,L|286:93,1,162,2|0,0:1|0:0,0:0:0:0:
224,72,55480,1,0,0:0:0:0:
224,72,55548,6,0,P|215:108|226:163,1,81,12|2,1:0|0:1,0:0:0:0:
26,146,55821,2,0,P|34:109|24:55,1,81,4|0,1:0|0:0,0:0:0:0:
129,34,56094,2,0,L|120:216,1,162,14|4,1:1|1:0,0:0:0:0:
53,350,56503,1,0,0:0:0:0:
53,350,56571,1,0,0:0:0:0:
53,350,56639,2,0,L|40:264,1,81,14|0,1:0|0:0,0:0:0:0:
220,200,56912,5,4,1:0:0:0:
302,242,57048,2,0,P|343:241|393:233,1,81,2|12,0:2|1:0,0:0:0:0:
288,132,57321,5,2,0:2:0:0:
370,90,57457,2,0,P|411:91|461:99,1,81,4|2,1:0|0:2,0:0:0:0:
504,168,57730,5,12,1:0:0:0:
468,252,57866,1,2,0:2:0:0:
512,328,58003,2,0,P|471:333|431:334,1,81,4|2,1:0|0:2,0:0:0:0:
296,224,58275,2,0,P|336:218|376:217,1,81,12|2,1:0|0:2,0:0:0:0:
468,252,58548,5,4,1:0:0:0:
348,368,58685,1,2,0:2:0:0:
348,368,58753,1,0,0:0:0:0:
348,368,58821,2,0,L|216:356,1,121.5,12|0,1:0|2:0,0:0:0:0:
164,312,59094,6,0,L|148:224,1,81,6|0,1:0|0:0,0:0:0:0:
296,164,59366,1,12,1:0:0:0:
264,32,59503,2,0,B|256:88|256:88|220:120|220:120|208:204,1,162,2|0,0:1|0:0,0:0:0:0:
380,196,59912,6,0,L|376:115,1,81,12|2,1:0|0:1,0:0:0:0:
296,164,60185,2,0,L|300:260,1,81,4|0,1:0|0:0,0:0:0:0:
384,328,60457,2,0,P|336:316|248:392,1,162,14|4,1:1|1:0,0:0:0:0:
116,296,60866,1,0,0:0:0:0:
116,296,60935,1,0,0:0:0:0:
116,296,61003,2,0,L|212:304,1,81,14|0,1:0|0:0,0:0:0:0:
348,128,61275,6,0,P|280:112|208:228,1,202.5,6|0,1:0|0:0,0:0:0:0:
302,300,61685,2,0,L|292:200,1,101.25,6|0,1:0|0:0,0:0:0:0:
124,28,61957,2,0,L|134:128,1,101.25,6|0,1:0|0:0,0:0:0:0:
24,308,62230,6,0,B|140:276|96:368|228:332,1,202.5,6|4,1:0|1:0,0:0:0:0:
288,288,62639,1,0,0:0:0:0:
372,304,62775,1,0,0:0:0:0:
428,368,62912,1,4,1:2:0:0:
308,200,63185,1,4,1:2:0:0:
484,88,63457,6,0,P|492:136|488:176,1,81,0|0,1:0|0:0,0:0:0:0:
404,128,63730,2,0,P|364:88|260:92,1,162,8|0,1:0|1:0,0:0:0:0:
112,188,64139,1,0,0:0:0:0:
192,232,64275,2,0,P|200:184|196:144,1,81,8|0,1:0|0:0,0:0:0:0:
32,144,64548,6,0,P|24:192|28:232,1,81,0|0,1:0|0:0,0:0:0:0:
112,188,64821,1,8,1:0:0:0:
56,56,64957,1,0,0:0:0:0:
222,59,65094,2,0,L|144:80,1,81,0|0,1:0|0:0,0:0:0:0:
308,36,65366,1,8,1:0:0:0:
308,36,65639,5,0,1:0:0:0:
392,84,65775,1,0,0:0:0:0:
392,84,65844,1,0,0:0:0:0:
392,84,65912,2,0,L|464:124,1,81,8|2,1:0|0:0,0:0:0:0:
436,204,66185,2,0,P|388:220|296:160,1,162,2|8,1:1|1:0,0:0:0:0:
272,84,66594,1,2,0:1:0:0:
144,223,66730,6,0,P|184:227|223:216,1,81,0|2,1:0|0:0,0:0:0:0:
238,335,67003,2,0,P|198:331|160:344,1,81,8|2,1:0|0:1,0:0:0:0:
84,292,67275,5,2,1:2:0:0:
299,268,67548,1,2,1:2:0:0:
80,160,67821,6,0,P|68:112|72:64,1,81,0|0,1:0|0:0,0:0:0:0:
156,104,68094,2,0,P|184:60|304:76,1,162,8|0,1:0|1:0,0:0:0:0:
364,200,68503,1,0,0:0:0:0:
440,92,68639,2,0,L|360:108,1,81,8|0,1:0|0:0,0:0:0:0:
200,208,68912,6,0,L|279:224,1,81,0|0,1:0|0:0,0:0:0:0:
340,288,69185,2,0,P|348:336|332:380,1,81,8|0,1:0|0:0,0:0:0:0:
260,328,69457,1,0,1:0:0:0:
364,200,69594,1,0,0:0:0:0:
472,312,69730,1,8,1:0:0:0:
472,312,70003,5,0,1:0:0:0:
452,224,70139,1,0,0:0:0:0:
451,213,70207,1,0,0:0:0:0:
450,203,70275,2,0,P|448:157|450:116,1,81,8|0,1:0|1:0,0:0:0:0:
271,42,70548,1,2,1:0:0:0:
271,42,70685,1,2,0:1:0:0:
361,2,70821,2,0,P|362:42|360:82,1,81,8|2,1:0|0:1,0:0:0:0:
246,166,71094,6,0,P|187:139|101:278,1,243,2|0,0:0|2:0,0:0:0:0:
161,312,71639,2,0,L|233:307,1,60.7500023174287,4|0,0:0|0:0,0:0:0:0:
156,331,71912,2,0,L|228:326,1,60.7500023174287,0|0,0:0|2:0,0:0:0:0:
336,280,72185,6,0,L|347:111,2,162,0|8|0,1:0|1:2|1:0,0:0:0:0:
410,328,72866,1,0,0:0:0:0:
480,280,73003,2,0,L|473:195,1,81,8|0,1:2|0:0,0:0:0:0:
247,146,73275,6,0,L|254:231,2,81,0|0|8,1:0|0:0|1:2,0:0:0:0:
304,70,73685,1,0,0:0:0:0:
222,15,73821,2,0,P|183:10|146:26,1,81,0|0,1:0|0:0,0:0:0:0:
96,105,74094,2,0,P|89:169|143:223,1,121.5,8|0,1:2|0:0,0:0:0:0:
142,225,74366,5,2,1:0:0:0:
247,146,74503,1,2,0:2:0:0:
247,146,74571,2,0,L|352:156,1,81,2|2,0:1|0:2,0:0:0:0:
341,173,74775,2,0,L|421:165,1,81,2|2,0:1|1:1,0:0:0:0:
512,172,75048,1,0,2:2:0:0:
512,172,75116,1,0,2:2:0:0:
512,172,75185,1,8,1:2:0:0:
472,84,75321,1,0,0:0:0:0:
458,247,75457,6,0,L|326:258,2,121.5,0|0|0,1:0|0:0|0:0,0:0:0:0:
405,330,76003,1,2,1:0:0:0:
277,200,76139,1,2,0:1:0:0:
178,352,76275,1,14,1:2:0:0:
178,352,76548,6,0,P|130:320|139:200,2,162,4|8|0,1:0|1:2|1:0,0:0:0:0:
262,352,77230,1,0,0:0:0:0:
311,281,77366,2,0,L|299:186,1,81,8|0,1:2|0:0,0:0:0:0:
365,82,77639,6,0,L|377:177,1,81,0|0,1:0|0:0,0:0:0:0:
212,233,77912,2,0,L|222:152,1,81,8|0,1:2|0:0,0:0:0:0:
462,195,78185,2,0,L|451:275,1,81,0|0,1:0|0:0,0:0:0:0:
353,254,78457,2,0,P|329:233|332:137,1,121.5,8|0,1:2|0:0,0:0:0:0:
341,127,78730,6,0,L|438:118,1,81,4|4,1:0|1:0,0:0:0:0:
187,203,79003,2,0,L|90:194,1,81,4|4,1:0|1:0,0:0:0:0:
353,254,79275,2,0,L|450:245,1,81,4|4,1:0|1:0,0:0:0:0:
181,320,79548,2,0,L|74:311,1,81,4|4,1:0|1:0,0:0:0:0:
27,287,79821,6,0,L|188:301,1,162,0|0,1:0|1:0,0:0:0:0:
256,248,80230,1,0,1:0:0:0:
311,87,80366,6,0,P|354:192|467:182,1,243.000009269715,6|2,1:2|1:1,0:0:0:0:
467,182,80912,6,0,L|372:188,1,81,4|0,1:0|0:0,0:0:0:0:
306,195,81185,1,0,0:0:0:0:
225,202,81321,2,0,L|53:212,1,162,0|0,0:0|0:0,0:0:0:0:
64,211,81662,1,0,0:0:0:0:
64,211,81730,1,2,0:1:0:0:
8,133,81866,1,2,0:2:0:0:
83,49,82003,6,0,L|91:120,1,60.7500023174287,0|2,0:0|0:2,0:0:0:0:
171,59,82275,2,0,L|179:130,1,60.7500023174287,2|0,0:2|0:0,0:0:0:0:
259,69,82548,1,0,0:0:0:0:
259,69,82616,1,2,0:2:0:0:
259,69,82685,2,0,L|267:140,1,60.7500023174287,2|2,0:2|0:2,0:0:0:0:
346,158,82957,1,0,0:3:0:0:
429,121,83094,6,0,P|437:75|419:26,1,81,6|0,1:0|0:0,0:0:0:0:
346,158,83366,1,0,0:0:0:0:
447,295,83503,2,0,P|501:236|512:157,1,162,6|6,1:0|1:0,0:0:0:0:
378,247,83912,1,0,0:0:0:0:
498,367,84048,1,4,1:0:0:0:
383,132,84185,6,0,B|312:139|267:79|267:79|274:113|274:113|218:97|151:118|101:235|200:290|269:312|335:215|245:188|245:188|208:374,1,704.700021505738,6|12,1:1|1:3,0:0:0:0:
214,343,85275,6,0,P|252:336|316:344,1,81,6|0,1:0|0:0,0:0:0:0:
376,352,85548,1,12,1:0:0:0:
136,308,85685,2,0,P|112:260|120:132,1,162,2|0,0:1|0:0,0:0:0:0:
156,88,86025,1,0,0:0:0:0:
156,88,86094,6,0,L|240:80,1,81,12|2,1:0|0:1,0:0:0:0:
368,180,86366,2,0,L|284:172,1,81,4|0,1:0|0:0,0:0:0:0:
284,8,86639,2,0,B|340:2|340:2|383:29|383:29|459:20,1,162,14|4,1:1|1:0,0:0:0:0:
504,88,87048,1,0,0:1:0:0:
504,88,87116,1,0,0:0:0:0:
504,88,87185,1,14,1:1:0:0:
464,164,87321,1,0,0:0:0:0:
504,316,87457,5,4,1:0:0:0:
504,316,87594,2,0,L|508:236,1,81,2|8,0:2|0:0,0:0:0:0:
320,336,87866,5,2,0:2:0:0:
320,336,88003,2,0,L|302:257,1,81,4|0,1:0|0:0,0:0:0:0:
404,276,88275,5,12,1:0:0:0:
372,192,88412,1,2,0:2:0:0:
388,104,88548,2,0,P|388:67|380:20,1,81,4|2,1:0|0:2,0:0:0:0:
204,108,88821,2,0,P|203:144|212:192,1,81,12|2,1:0|0:2,0:0:0:0:
296,132,89094,5,4,1:0:0:0:
204,16,89230,1,2,0:2:0:0:
204,16,89298,1,0,0:0:0:0:
204,16,89366,2,0,L|56:32,1,121.5,12|0,1:0|0:0,0:0:0:0:
83,29,89639,6,0,P|72:88|88:136,1,81,6|0,1:0|0:0,0:0:0:0:
128,184,89912,1,12,1:0:0:0:
4,272,90048,2,0,P|68:256|140:340,1,162,2|0,0:1|0:0,0:0:0:0:
208,356,90389,1,0,0:0:0:0:
208,356,90457,6,0,L|312:348,1,81,12|2,1:0|0:1,0:0:0:0:
272,144,90730,2,0,L|168:152,1,81,4|0,1:0|0:0,0:0:0:0:
200,256,91003,2,0,L|389:242,1,162,14|4,1:1|1:0,0:0:0:0:
472,184,91412,1,0,0:1:0:0:
472,184,91480,1,0,0:0:0:0:
472,184,91548,1,12,1:0:0:0:
323,66,91685,1,2,0:1:0:0:
488,92,91821,6,0,B|415:102|415:102|380:145|380:145|290:159,1,202.5,6|0,1:0|0:0,0:0:0:0:
220,94,92230,2,0,L|211:194,1,101.25,6|0,1:0|0:0,0:0:0:0:
396,340,92503,2,0,L|405:240,1,101.25,6|0,1:0|0:0,0:0:0:0:
323,66,92775,5,6,1:0:0:0:
317,74,93048,1,0,0:0:0:0:
236,113,93185,1,0,0:0:0:0:
147,98,93321,1,0,0:0:0:0:
86,34,93457,1,6,1:2:0:0:
90,22,93730,2,0,L|100:94,1,60.7500023174287,14|0,1:3|0:0,0:0:0:0:
38,249,94003,6,0,P|22:209|25:170,1,81,4|4,1:0|1:0,0:0:0:0:
128,292,94275,2,0,P|101:325|66:342,1,81,12|4,1:0|1:0,0:0:0:0:
121,193,94548,2,0,P|163:199|195:221,1,81,4|4,1:0|1:0,0:0:0:0:
264,304,94821,1,12,1:0:0:0:
228,116,94957,1,4,1:0:0:0:
368,200,95094,6,0,L|264:212,1,81,4|4,1:0|1:0,0:0:0:0:
304,40,95366,2,0,L|381:63,1,81,12|4,1:0|1:0,0:0:0:0:
460,84,95571,1,4,1:0:0:0:
460,84,95639,2,0,P|472:136|452:184,1,81,4|4,1:0|1:0,0:0:0:0:
334,288,95912,1,12,1:0:0:0:
228,116,96048,1,4,1:0:0:0:
353,180,96185,6,0,B|309:188|309:188|285:176|285:176|253:208|205:196,2,151.875,4|12|4,1:0|1:0|1:0,0:0:0:0:
276,376,96730,2,0,P|263:316|163:300,2,151.875,4|12|4,1:0|1:0|1:0,0:0:0:0:
352,284,97275,5,4,1:0:0:0:
500,344,97412,1,4,1:0:0:0:
444,200,97548,2,0,L|436:304,1,81,4|4,1:0|1:0,0:0:0:0:
464,88,97821,5,4,1:0:0:0:
347,99,97957,1,0,0:0:0:0:
347,99,98025,1,0,0:0:0:0:
347,99,98094,2,0,P|311:143|359:239,1,151.875,14|0,1:0|2:0,0:0:0:0:
338,228,98366,6,0,L|432:218,1,81,4|4,1:0|1:0,0:0:0:0:
207,282,98639,2,0,L|113:292,1,81,12|4,1:0|1:0,0:0:0:0:
349,312,98912,2,0,L|443:302,1,81,4|4,1:0|1:0,0:0:0:0:
216,366,99185,1,12,1:0:0:0:
105,294,99321,1,4,1:0:0:0:
172,164,99457,6,0,P|182:202|181:243,1,81,4|4,1:0|1:0,0:0:0:0:
12,260,99730,2,0,P|1:221|2:180,1,81,12|4,1:0|1:0,0:0:0:0:
1,180,99935,1,0,0:0:0:0:
1,180,100003,1,4,1:0:0:0:
172,164,100139,1,4,1:0:0:0:
76,60,100275,6,0,L|91:211,1,151.875,14|0,1:0|0:0,0:0:0:0:
12,260,100548,6,0,B|132:232|80:328|220:296,1,202.5,6|0,1:0|0:0,0:0:0:0:
320,176,100957,2,0,P|260:176|212:212,1,101.25,6|0,1:0|0:0,0:0:0:0:
264,360,101230,2,0,P|324:360|372:324,1,101.25,6|0,1:0|0:0,0:0:0:0:
400,128,101503,2,0,P|340:92|200:108,1,202.5,2|4,1:0|1:0,0:0:0:0:
144,156,101912,5,0,1:0:0:0:
292,272,102185,1,2,1:2:0:0:
246,8,102457,2,0,L|140:19,1,101.25,6|0,1:2|0:0,0:0:0:0:
48,184,102730,6,0,L|236:164,1,162,4|0,1:0|0:0,0:0:0:0:
364,112,103139,2,0,P|308:84|312:164,1,162,4|0,1:0|0:0,0:0:0:0:
368,280,103548,2,0,L|376:200,1,81,4|0,1:0|0:0,0:0:0:0:
432,48,103821,5,4,1:0:0:0:
496,112,103957,1,2,3:0:0:0:
496,112,104025,1,0,0:0:0:0:
496,112,104094,2,0,L|488:192,1,81,8|2,3:2|3:2,0:0:0:0:
336,128,104366,2,0,B|244:112|280:188|160:160,1,162,8|2,1:0|1:2,0:0:0:0:
92,120,104775,1,2,1:2:0:0:
72,268,104912,6,0,P|116:320|224:304,1,162,4|0,1:0|0:0,0:0:0:0:
367,276,105321,2,0,P|323:224|215:240,1,162,4|0,1:0|0:0,0:0:0:0:
143,83,105730,6,0,L|159:255,1,162,4|0,1:0|0:0,0:0:0:0:
367,276,106139,2,0,L|351:104,1,162,4|0,1:0|0:0,0:0:0:0:
188,331,106548,6,0,L|269:325,1,81,4|0,1:0|0:0,0:0:0:0:
351,114,106821,2,0,L|270:120,1,81,4|0,1:0|0:0,0:0:0:0:
168,200,107094,6,0,B|140:236|140:236|280:224,1,162,4|0,1:0|0:0,0:0:0:0:
358,146,107503,2,0,B|386:110|386:110|246:122,1,162,4|0,1:0|0:0,0:0:0:0:
124,52,107912,2,0,L|133:132,1,81,4|0,1:0|0:0,0:0:0:0:
75,230,108185,5,0,0:0:0:0:
231,189,108321,1,0,3:0:0:0:
73,251,108457,1,8,3:2:0:0:
243,206,108594,1,0,3:0:0:0:
176,353,108730,6,0,L|166:269,1,81,8|2,1:0|3:0,0:0:0:0:
271,121,109003,1,4,1:0:0:0:
271,121,109071,1,2,3:0:0:0:
271,121,109139,1,2,3:0:0:0:
495,273,109275,6,0,P|472:336|363:330,1,162,4|0,1:0|0:0,0:0:0:0:
327,284,109685,2,0,L|334:187,1,81,4|0,1:0|0:0,0:0:0:0:
353,106,109957,2,0,L|360:203,1,81,4|0,1:0|0:0,0:0:0:0:
386,348,110230,5,4,1:0:0:0:
469,148,110366,1,4,1:0:0:0:
297,249,110639,6,0,L|216:249,1,81
