osu file format v14

[General]
AudioFilename: mp3.mp3
AudioLeadIn: 0
PreviewTime: 46003
Countdown: 0
SampleSet: None
StackLeniency: 0.7
Mode: 0
LetterboxInBreaks: 0
WidescreenStoryboard: 1

[Editor]
DistanceSpacing: 0.9
BeatDivisor: 4
GridSize: 32
TimelineZoom: 2.7

[Metadata]
Title:TRICKL4SH 220
TitleUnicode:TRICKL4SH 220
Artist:Lite Show Magic
ArtistUnicode:Lite Show Magic
Creator:Regou
Version:TERROR
Source:SOUND VOLTEX IV HEAVENLY HAVEN
Tags:sdvx konami bemani ep m3-36 m3 lsm c.h.s chs comiket chsep-0003 hardcore tano*c happy don't waste me! e.p. c85 t+pazolite c-show [ Drop ] toybot LowComboFC Neoskylove Gloria Guard Priti Avena IntellectualBoy tricklash
BeatmapID:1300513
BeatmapSetID:616696

[Difficulty]
HPDrainRate:5
CircleSize:4
OverallDifficulty:9
ApproachRate:9.6
SliderMultiplier:1.7
SliderTickRate:1

[Events]
//Background and Video events
0,0,"BG1.jpg",0,0
//Break Periods
2,63657,65130
2,68021,69494
//Storyboard Layer 0 (Background)
//Storyboard Layer 1 (Fail)
//Storyboard Layer 2 (Pass)
//Storyboard Layer 3 (Foreground)
//Storyboard Sound Samples

[TimingPoints]
185,272.727272727273,4,3,1,70,1,0
5364,-100,4,3,1,70,0,0
8912,-50,4,2,1,80,0,0
10003,-100,4,3,1,80,0,0
10616,-100,4,3,1,55,0,0
11094,-50,4,2,1,80,0,0
14366,-100,4,3,1,80,0,0
14980,-100,4,3,1,55,0,0
15457,-50,4,2,1,80,0,0
17364,-200,4,2,1,80,0,0
17366,-200,4,3,1,100,0,0
17637,-83.3333333333333,4,3,1,40,0,0
17639,-83.3333333333333,4,3,1,80,0,0
21730,-50,4,3,1,80,0,0
22003,-83.3333333333333,4,3,1,80,0,0
25275,-200,4,3,1,80,0,0
25685,-200,4,3,1,5,0,0
25821,-200,4,3,1,80,0,0
26230,-200,4,3,1,5,0,0
26366,-83.3333333333333,4,3,1,80,0,0
27457,-50,4,3,1,100,0,0
28003,-200,4,3,1,60,0,0
28275,-200,4,3,1,100,0,0
28412,-83.3333333333333,4,3,1,100,0,0
28548,-83.3333333333333,4,3,1,80,0,0
29639,-50,4,3,1,100,0,0
30730,-83.3333333333333,4,3,1,80,0,0
32639,-50,4,3,1,80,0,0
32912,-50,4,2,1,100,0,0
34003,-50,4,3,1,80,0,0
35025,-50,4,3,1,20,0,0
35094,-200,4,2,1,60,0,0
39457,-200,4,3,1,60,0,0
40001,-200,4,3,1,60,0,0
43821,-200,4,2,1,40,0,0
45048,-200,4,2,1,20,0,0
45185,-200,4,2,1,40,0,0
45455,-200,4,2,1,40,0,0
45457,-200,4,2,1,60,0,0
46003,-76.9230769230769,4,3,1,90,0,1
47366,-50,4,3,1,90,0,1
47912,-76.9230769230769,4,3,1,90,0,1
48185,-76.9230769230769,4,1,1,70,0,1
50366,-76.9230769230769,4,3,1,90,0,1
51730,-50,4,3,1,90,0,1
52548,-100,4,2,1,70,0,1
52957,-50,4,2,1,70,0,1
54185,-111.111111111111,4,2,1,70,0,0
54455,-83.3333333333333,4,2,1,70,0,0
54730,-76.9230769230769,4,3,1,90,0,1
56094,-50,4,3,1,90,0,1
56639,-76.9230769230769,4,3,1,90,0,1
56912,-76.9230769230769,4,1,1,70,0,1
59094,-76.9230769230769,4,3,1,90,0,1
60457,-50,4,3,1,90,0,1
61275,-50,4,2,1,70,0,1
63457,-111.111111111111,4,3,1,70,0,0
67273,-200,4,3,1,70,0,0
67819,-111.111111111111,4,3,1,70,0,0
71092,-200,4,3,1,70,0,0
71503,-200,4,3,1,5,0,0
71639,-200,4,3,1,70,0,0
72048,-200,4,3,1,5,0,0
72183,-55.5555555555556,4,3,1,5,0,0
72185,-55.5555555555556,4,3,1,80,0,0
72457,-166.666666666667,4,3,1,80,0,0
73821,-66.6666666666667,4,3,1,80,0,0
75185,-83.3333333333333,4,3,1,80,0,0
76275,-55.5555555555556,4,3,1,80,0,0
76821,-166.666666666667,4,3,1,80,0,0
78185,-66.6666666666667,4,3,1,80,0,0
78730,-50,4,3,1,80,0,0
79003,-42.9184549356223,4,3,1,80,0,0
79275,-37.593984962406,4,3,1,80,0,0
79548,-33.3333333333333,4,3,1,80,0,0
79821,-133.333333333333,4,3,1,80,0,0
82001,-133.333333333333,4,3,1,80,0,0
83092,-111.111111111111,4,3,1,80,0,0
83503,-76.9230769230769,4,3,1,80,0,0
84185,-25,4,3,1,80,0,0
84219,-25,4,2,1,35,0,0
85003,-25,4,2,1,70,0,0
85139,-25,4,2,1,20,0,0
85275,-76.9230769230769,4,3,1,90,0,1
86639,-50,4,3,1,90,0,1
87185,-76.9230769230769,4,3,1,90,0,1
87457,-76.9230769230769,4,1,1,70,0,1
89637,-76.9230769230769,4,1,1,70,0,1
89639,-76.9230769230769,4,3,1,90,0,1
91003,-50,4,3,1,90,0,1
91821,-86.9565217391304,4,2,1,70,0,0
92230,-50,4,2,1,70,0,0
93455,-76.9230769230769,4,2,1,70,0,0
93728,-50,4,2,1,70,0,0
93730,-25,4,2,1,70,0,0
94003,-50,4,2,1,90,0,1
96185,-40,4,2,1,90,0,1
98366,-50,4,2,1,90,0,1
100275,-151.515151515152,4,2,1,90,0,1
100546,-50,4,2,1,90,0,1
101503,-100,4,2,1,90,0,1
102730,-50,4,2,1,80,0,0
103821,-100,4,2,1,80,0,0
104912,-50,4,2,1,80,0,0
108185,-100,4,2,1,80,0,0
109275,-50,4,2,1,80,0,0
110503,-50,4,2,1,10,0,0
110637,-200,4,2,1,10,0,0
110639,-200,4,2,1,80,0,0
110776,-200,4,2,1,10,0,0
110912,-200,4,2,1,80,0,0

[Colours]
Combo1 : 128,0,255
Combo2 : 252,226,48
Combo3 : 255,99,23
Combo4 : 255,58,130

[HitObjects]
27,74,185,5,4,1:0:0:0:
111,59,321,1,0,0:0:0:0:
85,148,457,1,0,0:0:0:0:
94,318,594,5,0,0:0:0:0:
98,328,662,1,0,0:0:0:0:
103,342,730,1,0,0:0:0:0:
148,255,866,2,0,P|67:246|15:309,1,170,0|0,0:0|0:0,0:0:0:0:
182,140,1275,6,0,P|242:128|275:116,1,85,0|0,0:0|0:0,0:0:0:0:
296,43,1548,1,0,0:0:0:0:
263,214,1685,2,0,P|274:263|285:313,1,85,0|0,0:0|0:0,0:0:0:0:
507,145,1957,2,0,B|405:125|447:200|325:173,1,170,0|0,0:0|0:0,0:0:0:0:
346,176,2298,1,0,0:0:0:0:
346,176,2366,1,0,0:0:0:0:
456,364,2503,5,0,0:0:0:0:
456,364,2571,1,0,0:0:0:0:
456,364,2639,2,0,L|476:315,3,42.5,0|0|0|0,0:0|0:0|0:0|0:0,0:0:0:0:
493,248,2912,1,0,0:0:0:0:
373,305,3048,2,0,P|290:309|214:380,1,170,0|0,0:0|0:0,0:0:0:0:
119,262,3457,6,0,L|116:237,4,21.25,0|0|0|0|0,0:0|0:0|0:0|0:0|0:0,0:0:0:0:
69,331,3730,1,0,0:0:0:0:
30,246,3866,2,0,L|27:221,4,21.25,0|0|0|0|0,0:0|0:0|0:0|0:0|0:0,0:0:0:0:
254,34,4139,5,4,1:0:0:0:
258,124,4275,1,0,1:0:0:0:
259,132,4344,1,0,1:0:0:0:
259,140,4412,1,0,1:0:0:0:
260,147,4480,1,0,1:0:0:0:
260,155,4548,6,0,L|247:346,1,170,4|0,1:0|0:0,0:0:0:0:
171,289,4957,1,0,0:0:0:0:
182,377,5094,1,0,0:0:0:0:
340,280,5230,6,0,P|428:303|493:233,1,170,0|0,0:0|0:0,0:0:0:0:
484,257,5571,1,0,0:0:0:0:
484,257,5639,1,0,0:0:0:0:
445,64,5775,5,0,0:0:0:0:
445,64,5844,1,0,0:0:0:0:
445,64,5912,2,0,P|393:61|348:54,1,85,0|0,0:0|0:0,0:0:0:0:
275,19,6185,1,0,0:0:0:0:
283,110,6321,2,0,B|188:95|220:172|92:140,1,170,0|0,0:0|0:0,0:0:0:0:
114,129,6662,5,0,0:0:0:0:
105,107,6730,1,4,1:0:0:0:
97,303,6866,1,0,0:0:0:0:
85,325,6935,1,0,0:0:0:0:
76,342,7003,1,4,1:0:0:0:
258,227,7139,1,0,0:0:0:0:
276,234,7207,1,0,0:0:0:0:
296,242,7275,1,4,1:0:0:0:
9,207,7412,5,0,0:0:0:0:
216,358,7548,1,4,1:0:0:0:
252,97,7685,1,0,0:0:0:0:
123,229,7821,5,0,0:0:0:0:
161,256,7957,1,0,0:0:0:0:
172,213,8094,1,0,0:0:0:0:
123,229,8230,1,0,0:0:0:0:
495,295,8503,5,4,1:0:0:0:
460,262,8571,1,4,1:0:0:0:
417,251,8639,1,4,1:0:0:0:
374,255,8707,1,4,1:0:0:0:
338,279,8775,1,4,1:0:0:0:
318,320,8844,1,4,1:0:0:0:
307,363,8912,6,0,B|224:350|224:350|183:271|183:271|127:348|127:348|37:346,1,340,4|0,1:0|2:0,0:0:0:0:
185,35,9321,2,0,B|256:33|256:33|312:110|312:110|353:31|353:31|436:18,1,340,4|0,1:0|0:0,0:0:0:0:
436,18,9730,1,4,1:0:0:0:
434,260,10003,5,4,0:0:0:0:
494,188,10139,1,4,0:0:0:0:
448,116,10275,1,8,0:2:0:0:
368,138,10412,1,4,0:0:0:0:
356,220,10548,1,12,0:2:0:0:
216,294,10685,5,10,0:2:0:0:
215,302,10753,1,0,2:0:0:0:
214,311,10821,1,10,0:2:0:0:
212,320,10889,1,0,2:0:0:0:
211,330,10957,1,10,0:2:0:0:
208,341,11025,1,0,2:0:0:0:
205,353,11094,6,0,B|86:364|86:364|18:275|18:275|139:260,1,340,4|0,1:0|0:0,0:0:0:0:
8,120,11503,2,0,B|117:109|117:109|188:174|188:174|338:159,1,340,4|0,1:0|0:0,0:0:0:0:
497,54,11912,6,0,B|287:-3|287:-3|396:85,1,340,4|0,1:0|0:0,0:0:0:0:
328,263,12321,2,0,B|538:320|538:320|429:232,1,340,4|0,1:0|0:0,0:0:0:0:
173,181,12730,6,0,L|514:145,1,340,4|4,1:0|1:0,0:0:0:0:
24,248,13275,6,0,P|91:370|255:306,1,340,4|0,1:0|0:0,0:0:0:0:
488,136,13685,2,0,P|421:14|257:78,1,340,4|0,1:0|0:0,0:0:0:0:
259,72,14094,1,4,1:0:0:0:
420,340,14366,5,4,0:0:0:0:
494,286,14503,1,4,0:0:0:0:
409,250,14639,1,8,0:2:0:0:
335,304,14775,1,4,0:0:0:0:
420,340,14912,1,12,0:2:0:0:
294,187,15048,6,0,L|239:193,1,42.5,10|0,0:2|2:0,0:0:0:0:
221,216,15185,2,0,L|166:222,1,42.5,10|0,0:2|2:0,0:0:0:0:
149,241,15321,2,0,L|94:247,1,42.5,10|0,0:2|2:0,0:0:0:0:
4,131,15457,6,0,B|217:169|60:-18|371:48,1,340,4|0,1:0|0:0,0:0:0:0:
95,380,15866,2,0,B|73:233|73:233|167:244|186:329|131:361,1,340,4|0,1:0|0:0,0:0:0:0:
350,147,16275,2,0,B|257:287|257:287|202:101,1,340,4|0,1:0|0:0,0:0:0:0:
511,225,16685,2,0,L|377:360,1,170,4|0,1:0|0:0,0:0:0:0:
406,214,17094,2,0,L|511:393,1,170,4|0,1:0|0:0,0:0:0:0:
502,36,17366,5,2,3:1:0:0:
301,321,17639,6,0,B|193:304|227:372|90:346,2,203.999993774414,4|12|4,1:0|1:0|1:0,0:0:0:0:
280,150,18321,1,0,0:0:0:0:
145,264,18457,2,0,P|137:207|132:136,1,101.999996887207,12|0,1:0|0:0,0:0:0:0:
14,58,18730,5,4,1:0:0:0:
59,69,18798,1,0,0:0:0:0:
104,67,18866,1,0,0:0:0:0:
145,49,18935,1,0,0:0:0:0:
172,12,19003,1,12,1:0:0:0:
266,100,19139,2,0,L|280:150,1,50.9999984436036,0|0,0:0|0:0,0:0:0:0:
430,337,19275,5,4,1:0:0:0:
487,184,19412,1,0,0:0:0:0:
331,216,19548,1,12,1:0:0:0:
430,337,19685,1,0,0:0:0:0:
417,243,19821,5,2,1:0:0:0:
254,290,19957,1,2,0:1:0:0:
254,316,20025,1,0,0:0:0:0:
95,245,20162,1,2,0:1:0:0:
74,258,20230,1,0,0:0:0:0:
302,41,20366,5,6,1:0:0:0:
279,81,20435,1,2,0:2:0:0:
257,118,20503,1,2,0:2:0:0:
233,81,20571,1,2,0:2:0:0:
209,43,20639,6,0,L|151:36,1,50.9999984436036,12|0,1:0|0:0,0:0:0:0:
50,107,20775,2,0,L|-8:100,1,50.9999984436036,2|0,0:0|0:0,0:0:0:0:
134,292,20912,5,4,1:0:0:0:
150,152,21048,1,0,0:0:0:0:
150,152,21116,1,0,0:0:0:0:
150,152,21185,1,12,1:0:0:0:
15,206,21321,1,0,0:0:0:0:
243,339,21457,5,4,1:0:0:0:
4,367,21594,2,0,L|83:356,1,50.9999984436036,2|0,0:2|0:0,0:0:0:0:
243,339,21730,1,12,1:0:0:0:
467,209,22003,6,0,P|419:260|437:389,2,203.999993774414,4|12|4,1:0|1:0|1:0,0:0:0:0:
466,57,22685,1,0,0:0:0:0:
348,138,22821,2,0,P|291:133|208:124,1,101.999996887207,12|0,1:0|0:0,0:0:0:0:
205,362,23094,5,4,1:0:0:0:
245,349,23162,1,0,0:0:0:0:
275,320,23230,1,0,0:0:0:0:
289,281,23298,1,0,0:0:0:0:
287,240,23366,1,12,1:0:0:0:
132,284,23503,2,0,L|195:272,1,50.9999984436036,0|0,0:0|0:0,0:0:0:0:
0,213,23639,5,4,1:0:0:0:
172,181,23775,1,0,0:0:0:0:
86,197,23912,1,12,1:0:0:0:
255,166,24048,1,0,0:0:0:0:
69,53,24185,5,6,1:0:0:0:
254,271,24321,1,2,0:1:0:0:
255,291,24389,1,0,0:0:0:0:
443,53,24525,1,2,0:1:0:0:
458,61,24594,1,0,0:0:0:0:
498,303,24730,5,6,1:0:0:0:
471,269,24798,1,2,0:2:0:0:
445,232,24866,1,2,0:2:0:0:
436,280,24935,1,2,0:2:0:0:
430,320,25003,6,0,L|367:332,1,50.9999984436036,12|0,1:0|0:0,0:0:0:0:
469,147,25139,2,0,L|406:159,1,50.9999984436036,2|0,3:0|0:0,0:0:0:0:
293,335,25275,6,0,B|253:328|253:328|223:283|223:283|186:344|186:344|163:308|163:308|109:301,1,255,2|0,0:0|0:0,0:0:0:0:
160,39,26366,5,4,1:0:0:0:
265,174,26503,1,0,0:0:0:0:
265,174,26571,1,0,0:0:0:0:
265,174,26639,1,12,1:0:0:0:
314,18,26775,1,0,0:0:0:0:
273,271,26912,5,4,1:0:0:0:
81,167,27048,1,0,0:0:0:0:
249,349,27185,5,12,1:0:0:0:
437,182,27321,1,0,0:0:0:0:
0,248,27457,6,0,B|85:272|85:272|171:222,1,170,6|0,1:0|2:0,0:0:0:0:
337,313,27662,2,0,B|252:289|252:289|181:330,1,170,6|0,1:0|2:0,0:0:0:0:
151,355,27866,1,6,1:0:0:0:
467,105,28003,6,0,L|478:44,2,42.5,2|4|4,0:0|0:0|0:2,0:0:0:0:
453,187,28412,2,0,L|443:249,1,50.9999984436036,2|0,0:1|2:0,0:0:0:0:
193,11,28548,5,4,1:0:0:0:
279,162,28685,1,0,0:0:0:0:
238,141,28753,1,0,0:0:0:0:
208,101,28821,1,12,1:0:0:0:
194,144,28889,1,0,0:0:0:0:
164,179,28957,1,2,0:0:0:0:
343,73,29094,6,0,L|254:57,1,50.9999984436036,4|0,1:0|0:0,0:0:0:0:
58,119,29230,2,0,L|111:97,1,50.9999984436036,0|0,0:0|0:0,0:0:0:0:
244,339,29366,2,0,L|229:233,1,101.999996887207,12|0,1:0|0:0,0:0:0:0:
479,229,29639,6,0,B|491:182|491:182|470:153,1,85,6|0,1:0|0:0,0:0:0:0:
484,311,29775,2,0,B|421:295|421:295|388:313|388:313|322:296,1,170,6|2,1:0|0:0,0:0:0:0:
292,63,29980,2,0,B|355:79|355:79|388:61|388:61|453:77,1,170,6|2,1:0|0:2,0:0:0:0:
316,186,30185,5,0,0:0:0:0:
243,196,30253,1,4,1:0:0:0:
167,202,30321,2,0,L|27:214,1,85,6|0,1:0|0:0,0:0:0:0:
154,60,30457,6,0,L|32:68,1,85,4|0,1:0|0:0,0:0:0:0:
181,328,30594,2,0,L|59:336,1,85,6|0,1:0|0:0,0:0:0:0:
458,347,30730,6,0,P|360:315|276:381,2,203.999993774414,4|12|4,1:0|1:0|1:0,0:0:0:0:
512,113,31412,1,0,0:0:0:0:
511,112,31548,2,0,L|505:214,1,101.999996887207,12|0,1:0|0:0,0:0:0:0:
303,11,31821,6,0,L|253:21,1,50.9999984436036,4|0,1:0|0:0,0:0:0:0:
105,49,31957,1,0,0:0:0:0:
279,108,32094,6,0,L|229:118,1,50.9999984436036,12|0,1:0|0:0,0:0:0:0:
81,146,32230,1,0,0:0:0:0:
81,146,32298,1,0,0:0:0:0:
81,146,32366,1,4,1:0:0:0:
258,205,32503,6,0,L|185:216,1,50.9999984436036,0|0,0:0|0:0,0:0:0:0:
19,309,32639,2,0,B|72:286|72:286|113:230|113:230|136:295|136:295|200:353,1,255,12|0,1:0|0:0,0:0:0:0:
255,376,32912,5,4,1:0:0:0:
0,28,33048,2,0,L|9:143,1,85,4|0,1:0|0:0,0:0:0:0:
255,376,33185,5,4,1:0:0:0:
148,70,33321,2,0,L|157:185,1,85,4|0,1:0|0:0,0:0:0:0:
257,376,33457,5,4,1:0:0:0:
357,154,33593,2,0,L|364:70,1,85,4|0,1:0|0:0,0:0:0:0:
257,376,33730,5,4,1:0:0:0:
505,112,33866,2,0,L|512:28,1,85,4|0,1:0|0:0,0:0:0:0:
256,192,34003,12,2,34821,1:3:0:0:
45,277,35094,6,0,B|56:353|126:376|192:352|192:352|260:275|196:164|130:165|76:221|112:342|192:352|192:352|256:376|320:352|320:352|400:342|436:221|382:165|316:164|252:275|320:352|320:352|386:376|456:353|467:277,1,1275
456,196,39321,5,2,3:0:0:0:
438,120,39457,5,0,1:0:0:0:
438,120,40003,1,8,1:0:0:0:
438,120,40275,5,4,0:0:0:0:
379,64,40411,1,0,0:0:0:0:
304,52,40548,1,8,0:0:0:0:
233,81,40821,5,2,0:1:0:0:
199,149,41094,1,8,1:0:0:0:
199,224,41366,1,4,0:0:0:0:
238,287,41639,6,0,B|304:280|352:169|352:169|335:297|375:338,2,340,8|8|0,0:0|0:0|0:1,0:0:0:0:
256,192,43889,12,0,45321,0:0:0:0:
256,192,45457,6,0,B|288:188|288:188|301:201|301:201|339:197,1,85,4|4,1:2|1:2,0:0:0:0:
221,301,46003,6,0,B|123:282|161:351|53:320,1,165.749992412568,6|0,1:0|0:0,0:0:0:0:
31,336,46275,2,0,L|21:200,1,110.499994941712,12|2,1:0|0:1,0:0:0:0:
161,103,46548,5,4,1:0:0:0:
191,119,46616,1,0,0:0:0:0:
162,133,46685,2,0,L|169:218,1,55.2499974708558,0|0,0:0|0:0,0:0:0:0:
8,76,46821,6,0,P|56:72|88:51,1,55.2499974708558,12|0,1:0|0:0,0:0:0:0:
225,19,46957,2,0,P|251:11|279:13,1,55.2499974708558,2|0,0:1|0:0,0:0:0:0:
489,201,47094,6,0,P|430:134|332:156,1,165.749992412568,4|0,1:0|2:0,0:0:0:0:
364,383,47366,6,0,B|410:369|448:320|441:255|396:210|396:210|365:299,1,255,14|0,1:1|2:0,0:0:0:0:
295,306,47639,5,4,1:0:0:0:
285,311,47707,1,0,0:0:0:0:
273,316,47776,1,0,0:0:0:0:
262,320,47844,1,0,2:0:0:0:
251,325,47912,2,0,L|133:314,1,110.499994941712,14|0,1:0|0:0,0:0:0:0:
32,78,48185,5,4,1:0:0:0:
113,214,48321,1,2,0:2:0:0:
128,52,48457,1,12,1:0:0:0:
25,175,48594,1,2,0:2:0:0:
176,134,48730,1,4,1:0:0:0:
32,78,48866,1,2,0:2:0:0:
113,214,49003,1,12,1:0:0:0:
128,52,49139,1,2,0:2:0:0:
472,228,49275,5,4,1:0:0:0:
381,78,49412,1,2,0:2:0:0:
377,249,49548,1,12,1:0:0:0:
485,119,49685,1,2,0:2:0:0:
318,164,49821,1,4,1:0:0:0:
254,9,49957,5,2,0:2:0:0:
255,18,50025,1,0,0:0:0:0:
255,27,50094,1,12,1:0:0:0:
217,367,50366,6,0,P|170:332|66:345,1,165.749992412568,6|0,1:0|0:0,0:0:0:0:
72,308,50639,2,0,P|41:257|52:179,1,110.499994941712,12|2,1:0|0:1,0:0:0:0:
329,272,50912,5,4,1:0:0:0:
301,294,50980,1,0,0:0:0:0:
290,260,51048,2,0,L|211:252,1,55.2499974708558,0|0,0:0|0:0,0:0:0:0:
366,371,51185,6,0,P|403:361|432:326,1,55.2499974708558,12|0,1:1|0:0,0:0:0:0:
495,185,51321,2,0,P|458:195|429:230,1,55.2499974708558,2|0,0:1|0:0,0:0:0:0:
290,23,51457,6,0,B|195:17|230:75|112:51,1,165.749992412568,4|0,1:0|2:0,0:0:0:0:
2,101,51730,6,0,B|51:58|131:82|154:155|154:155|133:139|86:145,1,255,14|0,1:1|2:1,0:0:0:0:
119,258,52003,5,4,1:0:0:0:
115,244,52071,1,0,0:0:0:0:
111,230,52139,1,0,0:0:0:0:
219,216,52275,1,14,1:0:0:0:
18,269,52412,1,0,0:1:0:0:
466,358,52548,5,6,1:0:0:0:
466,358,52821,1,0,0:0:0:0:
342,0,52957,6,0,P|333:68|321:174,1,170,6|0,1:0|0:0,0:0:0:0:
466,358,53230,2,0,P|475:290|487:184,1,170,6|0,1:0|0:0,0:0:0:0:
101,376,53503,2,2,B|126:298|219:266|219:266|225:337|273:377|351:379,1,340,6|4,1:0|1:0,0:0:0:0:
353,299,53844,1,0,0:0:0:0:
353,299,53912,6,0,B|339:275|348:255|348:255|338:275|295:301,1,85,4|0,1:0|3:0,0:0:0:0:
209,79,54048,2,0,B|225:87|235:107|235:107|226:87|240:63,1,85,0|0,3:0|0:0,0:0:0:0:
16,222,54185,5,4,1:2:0:0:
35,218,54253,1,0,0:0:0:0:
52,212,54321,1,0,0:0:0:0:
69,207,54389,1,0,0:0:0:0:
88,203,54457,2,0,B|154:170|154:170|59:151,1,152.999995330811,4|0,1:2|0:0,0:0:0:0:
79,287,54730,6,0,L|245:341,1,165.749992412568,6|0,1:0|0:0,0:0:0:0:
251,371,55003,2,0,B|269:321|269:321|247:232,1,110.499994941712,12|2,1:0|0:1,0:0:0:0:
335,112,55275,5,4,1:0:0:0:
299,132,55344,1,0,0:0:0:0:
332,152,55412,2,0,L|338:219,1,55.2499974708558,0|0,0:0|0:0,0:0:0:0:
250,28,55548,6,0,P|291:22|319:4,1,55.2499974708558,12|0,1:0|0:0,0:0:0:0:
493,151,55685,2,0,P|452:157|424:175,1,55.2499974708558,2|0,0:1|0:0,0:0:0:0:
509,365,55821,6,0,B|478:314|419:303|419:303|354:368,1,165.749992412568,4|0,1:0|2:0,0:0:0:0:
317,289,56094,6,0,B|246:304|246:304|213:349|213:349|171:318|171:318|81:334,1,255,14|0,1:1|2:1,0:0:0:0:
138,192,56366,5,4,1:0:0:0:
133,203,56435,1,0,0:0:0:0:
128,212,56503,1,0,0:0:0:0:
123,221,56571,1,0,0:0:0:0:
117,231,56639,2,0,L|-7:215,1,110.499994941712,14|0,1:0|0:0,0:0:0:0:
189,0,56912,5,4,1:0:0:0:
228,172,57048,1,2,0:2:0:0:
300,12,57185,1,12,1:0:0:0:
142,100,57321,1,2,0:2:0:0:
324,125,57457,1,4,1:0:0:0:
189,0,57594,1,2,0:2:0:0:
228,172,57730,1,12,1:0:0:0:
300,12,57866,1,2,0:2:0:0:
364,374,58003,5,4,1:0:0:0:
490,239,58139,1,2,0:2:0:0:
309,282,58275,1,12,1:0:0:0:
472,352,58412,1,2,0:2:0:0:
383,194,58548,1,4,1:0:0:0:
184,358,58685,5,2,0:2:0:0:
176,355,58753,1,0,0:0:0:0:
168,353,58821,1,12,1:0:0:0:
111,135,59094,6,0,P|111:224|18:250,1,165.749992412568,6|0,1:0|0:0,0:0:0:0:
96,278,59366,2,0,P|46:288|-2:240,1,110.499994941712,12|2,1:0|0:1,0:0:0:0:
183,27,59639,5,4,1:0:0:0:
224,32,59707,1,0,2:0:0:0:
201,73,59775,2,0,P|208:112|231:131,1,55.2499974708558,0|0,0:0|0:0,0:0:0:0:
363,88,59912,6,0,P|331:80|299:74,1,55.2499974708558,12|0,1:0|0:0,0:0:0:0:
192,209,60048,2,0,L|246:221,1,55.2499974708558,2|0,0:1|0:0,0:0:0:0:
503,211,60185,6,0,B|400:194|400:194|332:225,1,165.749992412568,4|0,1:0|0:0,0:0:0:0:
345,334,60457,6,0,B|439:353|439:353|498:300|498:300|379:278,1,255,14|0,1:1|2:1,0:0:0:0:
223,226,60730,5,4,1:0:0:0:
234,223,60798,1,0,0:0:0:0:
246,221,60866,1,0,0:0:0:0:
220,135,61003,1,14,1:0:0:0:
253,311,61139,1,0,0:0:0:0:
47,7,61275,5,6,1:0:0:0:
47,7,61548,1,0,0:0:0:0:
96,375,61685,6,0,P|149:309|129:198,1,170,6|0,1:0|0:0,0:0:0:0:
47,7,61957,2,0,P|-1:76|19:187,1,170,6|0,1:0|0:0,0:0:0:0:
495,348,62230,5,6,1:0:0:0:
256,192,62298,12,0,63457,1:0:0:0:
0,225,65639,5,0,1:0:0:0:
88,197,65775,1,0,0:0:0:0:
88,197,65844,1,0,0:0:0:0:
88,197,65912,1,8,1:0:0:0:
140,119,66048,1,2,0:0:0:0:
216,254,66185,5,2,1:1:0:0:
236,34,66321,1,2,0:1:0:0:
216,254,66457,1,8,1:0:0:0:
236,34,66593,1,2,0:1:0:0:
486,140,66730,5,0,1:0:0:0:
399,199,66866,1,2,0:0:0:0:
308,167,67002,1,8,1:0:0:0:
390,104,67139,1,2,0:1:0:0:
499,326,67275,6,0,L|400:335,1,85,2|2,1:2|1:2,0:0:0:0:
385,339,67821,5,0,1:0:0:0:
279,17,70003,5,0,1:0:0:0:
348,101,70139,1,0,0:0:0:0:
348,101,70207,1,0,0:0:0:0:
348,101,70275,1,8,1:0:0:0:
446,115,70412,1,2,0:0:0:0:
244,308,70548,5,2,1:0:0:0:
223,113,70685,1,2,0:1:0:0:
244,308,70821,1,8,1:0:0:0:
223,113,70957,1,2,0:1:0:0:
38,272,71094,6,0,P|14:265|-7:251,1,42.5,2|0,0:0|0:0,0:0:0:0:
86,338,71366,2,0,P|79:362|65:383,1,42.5,0|0,0:0|2:0,0:0:0:0:
118,265,71639,2,0,P|142:272|163:286,1,42.5,4|0,0:0|0:0,0:0:0:0:
71,199,71912,2,0,P|78:175|92:154,1,42.5,0|0,0:0|2:0,0:0:0:0:
468,304,72185,6,0,B|314:258|314:258|359:309,1,229.499992996216,0|0,1:0|0:0,0:0:0:0:
360,372,72457,2,0,P|386:363|393:336,1,50.9999984436036,8|0,1:2|0:0,0:0:0:0:
379,94,72730,5,0,1:0:0:0:
397,182,72866,1,0,0:0:0:0:
462,127,73003,2,0,L|520:138,1,50.9999984436036,8|0,1:2|0:0,0:0:0:0:
157,312,73275,5,0,1:0:0:0:
259,326,73412,1,0,0:0:0:0:
259,326,73480,1,0,0:0:0:0:
259,326,73548,1,8,1:2:0:0:
71,356,73685,1,0,0:0:0:0:
200,190,73821,6,0,L|108:170,1,63.7500024318696,0|0,1:0|0:0,0:0:0:0:
0,251,73957,2,0,L|92:271,1,63.7500024318696,0|0,0:0|0:0,0:0:0:0:
205,204,74094,2,0,L|113:184,1,63.7500024318696,8|0,1:2|0:0,0:0:0:0:
5,267,74230,2,0,L|97:287,1,63.7500024318696,0|0,0:0|0:0,0:0:0:0:
304,28,74366,5,2,1:0:0:0:
327,114,74503,1,2,0:2:0:0:
332,103,74571,1,2,0:1:0:0:
355,193,74707,1,2,0:2:0:0:
359,181,74775,1,2,0:1:0:0:
472,236,74912,5,2,1:1:0:0:
467,255,74980,1,2,0:2:0:0:
462,275,75048,1,0,2:2:0:0:
456,293,75116,1,0,2:2:0:0:
438,343,75185,6,0,P|408:345|380:350,1,50.9999984436036,8|0,1:2|0:0,0:0:0:0:
341,313,75321,2,0,P|311:315|283:320,1,50.9999984436036,0|0,0:0|0:0,0:0:0:0:
183,187,75457,6,0,P|121:243|25:237,1,152.999995330811,0|0,1:0|0:0,0:0:0:0:
21,294,75730,2,0,P|69:304|128:320,1,101.999996887207,8|0,1:2|0:0,0:0:0:0:
125,14,76003,6,0,L|130:80,1,50.9999984436036,2|0,1:0|0:0,0:0:0:0:
51,132,76139,2,0,L|46:66,1,50.9999984436036,2|0,0:1|0:0,0:0:0:0:
282,182,76275,6,0,B|335:151|335:151|327:44|327:44|239:0,1,229.499992996216,14|0,1:2|1:0,0:0:0:0:
455,286,76548,6,0,P|370:249|294:343,1,229.499992996216,4|0,1:0|0:0,0:0:0:0:
322,379,76821,2,0,P|338:352|330:327,1,50.9999984436036,8|0,0:2|0:0,0:0:0:0:
123,272,77094,5,0,0:0:0:0:
157,365,77230,1,0,0:0:0:0:
157,365,77298,1,0,0:0:0:0:
157,365,77366,1,8,0:2:0:0:
212,295,77503,1,0,0:0:0:0:
188,57,77639,5,0,0:0:0:0:
106,131,77775,1,0,0:0:0:0:
106,131,77844,1,0,0:0:0:0:
106,131,77912,1,8,0:2:0:0:
0,96,78048,1,0,0:0:0:0:
78,27,78185,1,0,0:0:0:0:
243,314,78321,6,0,P|240:346|227:375,1,63.7500024318696
202,175,78457,2,0,P|231:162|263:160,1,63.7500024318696,8|0,0:2|0:0,0:0:0:0:
127,295,78594,2,0,P|101:277|83:252,1,63.7500024318696,0|0,0:0|0:0,0:0:0:0:
476,304,78730,6,0,B|469:219|469:219|429:317,1,170,4|4,1:0|1:0,0:0:0:0:
364,27,78935,5,0,0:0:0:0:
370,52,79003,2,0,B|393:95|360:148|360:148|312:108|321:50,1,198.050007932759,4|4,1:0|1:0,0:0:0:0:
262,361,79207,5,0,0:0:0:0:
269,341,79275,2,0,B|294:286|255:235|255:235|202:287|223:338,1,226.099990684967,4|4,1:0|1:0,0:0:0:0:
123,32,79548,6,0,B|148:103|112:157|112:157|49:124|44:35,1,255.000009727478,4|4,1:0|1:0,0:0:0:0:
4,313,79821,6,4,P|57:260|56:373,1,255.000009727478,0|6,1:0|1:2,0:0:0:0:
68,372,80639,1,2,1:1:0:0:
457,314,80912,5,4,1:0:0:0:
374,344,81048,1,0,0:0:0:0:
374,344,81116,1,0,0:0:0:0:
374,344,81185,1,0,0:0:0:0:
310,261,81321,1,0,0:0:0:0:
374,195,81457,1,0,0:0:0:0:
374,195,81525,1,0,0:0:0:0:
374,195,81594,1,0,0:0:0:0:
374,195,81662,1,0,0:0:0:0:
374,195,81730,1,2,0:1:0:0:
464,223,81866,1,2,0:2:0:0:
60,22,83094,5,4,1:0:0:0:
192,168,83230,1,0,0:0:0:0:
192,168,83298,1,0,0:0:0:0:
192,168,83367,1,0,0:0:0:0:
9,229,83503,2,0,P|89:248|197:155,1,220.999989883423,4|4,1:0|1:0,0:0:0:0:
60,22,83912,5,0,0:0:0:0:
126,348,84048,1,4,1:0:0:0:
376,143,84185,1,6,1:1:0:0:
256,192,84253,12,12,85003,1:3:0:0:
512,316,85275,6,0,B|475:232|475:232|384:305,1,165.749992412568,6|0,1:0|0:0,0:0:0:0:
378,275,85548,2,0,P|388:320|393:410,1,110.499994941712,12|2,1:0|0:1,0:0:0:0:
382,185,85821,6,0,L|377:131,1,55.2499974708558,4|0,1:0|0:0,0:0:0:0:
286,366,85957,2,0,L|292:312,1,55.2499974708558,0|0,0:0|0:0,0:0:0:0:
512,316,86094,5,12,1:0:0:0:
262,203,86230,1,2,0:1:0:0:
10,344,86366,6,0,P|86:355|151:301,1,165.749992412568,4|0,1:0|2:0,0:0:0:0:
64,268,86639,6,0,B|42:177|-29:147|-29:147|8:180|42:239,1,255,14|0,1:1|0:1,0:0:0:0:
81,115,86912,5,4,1:0:0:0:
93,117,86980,1,0,0:0:0:0:
103,118,87048,1,0,0:1:0:0:
113,118,87116,1,0,0:0:0:0:
124,118,87185,2,0,P|179:93|218:33,1,110.499994941712,14|0,1:1|0:0,0:0:0:0:
483,312,87457,5,4,1:0:0:0:
337,168,87594,1,2,0:2:0:0:
291,364,87730,1,12,1:0:0:0:
483,312,87866,1,2,0:2:0:0:
337,168,88003,1,4,1:0:0:0:
291,364,88139,1,2,0:2:0:0:
483,312,88275,1,12,1:0:0:0:
337,168,88412,1,2,0:2:0:0:
16,247,88548,5,4,1:0:0:0:
215,283,88685,1,2,0:2:0:0:
142,73,88821,1,12,1:0:0:0:
16,247,88957,1,2,0:2:0:0:
215,283,89094,1,4,1:0:0:0:
365,63,89230,5,2,0:2:0:0:
357,60,89298,1,0,0:0:0:0:
348,57,89366,1,12,1:0:0:0:
338,54,89639,6,0,B|220:45|291:114|160:96,1,165.749992412568,6|0,1:0|0:0,0:0:0:0:
172,124,89912,2,0,P|112:115|65:42,1,110.499994941712,12|2,1:0|0:1,0:0:0:0:
484,153,90185,6,0,P|456:131|418:130,1,55.2499974708558,4|0,1:0|0:0,0:0:0:0:
271,197,90321,2,0,P|299:219|337:220,1,55.2499974708558,0|0,0:0|0:0,0:0:0:0:
245,16,90457,5,12,1:0:0:0:
229,273,90594,1,2,0:1:0:0:
0,192,90730,6,0,B|62:241|62:241|167:213,1,165.749992412568,4|0,1:0|2:0,0:0:0:0:
339,335,91003,6,0,B|279:320|279:320|231:273|231:273|206:335|206:335|157:377,1,255,14|0,1:1|2:0,0:0:0:0:
227,94,91275,5,4,1:0:0:0:
226,110,91343,1,0,0:0:0:0:
225,124,91412,1,0,0:1:0:0:
156,31,91548,1,12,1:0:0:0:
306,38,91685,1,2,0:1:0:0:
40,319,91821,5,6,1:0:0:0:
40,319,92094,1,0,0:0:0:0:
5,178,92230,6,0,P|93:193|202:219,1,170,6|0,1:0|0:0,0:0:0:0:
487,4,92503,6,0,P|399:19|290:45,1,170,6|0,1:0|0:0,0:0:0:0:
463,365,92775,5,6,1:0:0:0:
256,192,92844,12,14,93730,1:3:0:0:
250,86,94003,6,0,L|240:-22,1,85,4|0,1:0|0:0,0:0:0:0:
262,298,94139,2,0,L|272:406,1,85,4|0,1:0|0:0,0:0:0:0:
326,112,94275,6,0,L|396:29,1,85,12|0,1:0|0:0,0:0:0:0:
185,271,94411,2,0,L|115:354,1,85,4|0,1:0|0:0,0:0:0:0:
371,186,94548,5,4,1:0:0:0:
371,186,94616,1,0,0:0:0:0:
371,186,94685,2,0,L|474:171,1,85,4|0,1:0|0:0,0:0:0:0:
141,198,94821,2,0,L|38:213,1,85,12|0,1:0|0:0,0:0:0:0:
344,266,94957,2,0,L|427:328,1,85,4|0,1:0|0:0,0:0:0:0:
99,67,95094,6,0,L|168:118,1,85,4|0,1:0|0:0,0:0:0:0:
412,316,95230,2,0,L|344:266,1,85,4|0,1:0|0:0,0:0:0:0:
242,1,95366,6,0,L|250:86,1,85,12|0,1:0|0:0,0:0:0:0:
269,382,95503,5,4,1:0:0:0:
269,382,95571,1,4,1:0:0:0:
269,382,95639,2,0,L|262:298,1,85,4|0,1:0|0:0,0:0:0:0:
381,35,95776,2,0,L|330:104,1,85,4|0,1:0|0:0,0:0:0:0:
132,347,95912,6,0,L|181:280,1,85,12|0,1:0|0:0,0:0:0:0:
447,178,96048,2,0,L|362:186,1,85,4|0,1:0|0:0,0:0:0:0:
372,342,96185,6,0,B|420:391|492:350|492:350|451:285|390:290,1,212.5,4|0,1:0|0:0,0:0:0:0:
381,35,96389,2,0,B|392:158|316:103|345:240,1,212.5,12|0,1:0|0:0,0:0:0:0:
263,2,96594,2,0,P|258:72|248:125,1,106.25,4|0,1:0|0:0,0:0:0:0:
28,297,96730,6,0,B|76:265|76:265|104:168|104:168|151:261|151:261|234:278,2,318.75,4|12|4,1:0|1:0|1:0,0:0:0:0:
383,50,97275,5,4,1:0:0:0:
235,381,97412,1,4,1:0:0:0:
161,26,97548,1,4,1:0:0:0:
429,269,97685,1,4,1:0:0:0:
69,231,97821,1,4,1:0:0:0:
257,193,97957,5,0,0:0:0:0:
257,193,98025,1,0,0:0:0:0:
262,266,98094,2,0,P|324:157|186:158,1,318.75,14|0,1:0|0:0,0:0:0:0:
252,98,98366,6,0,P|242:22|227:-20,1,85,4|0,1:0|0:0,0:0:0:0:
259,285,98503,2,0,P|269:361|284:404,1,85,4|0,1:0|0:0,0:0:0:0:
187,128,98639,6,0,P|127:80|84:60,1,85,12|0,1:0|0:0,0:0:0:0:
323,254,98776,2,0,P|383:301|426:322,1,85,4|0,1:0|0:0,0:0:0:0:
162,195,98912,5,4,1:0:0:0:
162,195,98980,1,0,0:0:0:0:
162,195,99048,2,0,P|86:204|42:220,1,85,4|0,1:0|0:0,0:0:0:0:
349,188,99185,2,0,P|425:179|469:163,1,85,12|0,1:0|0:0,0:0:0:0:
192,260,99321,2,0,P|144:320|124:363,1,85,4|0,1:0|0:0,0:0:0:0:
371,56,99457,6,0,P|348:91|319:123,1,85,4|0,1:0|0:0,0:0:0:0:
140,327,99594,2,0,P|163:292|192:260,1,85,4|0,1:0|0:0,0:0:0:0:
433,177,99730,6,0,P|391:186|349:188,1,85,12|4,1:0|1:0,0:0:0:0:
78,206,99866,5,4,1:0:0:0:
78,206,99935,1,0,0:0:0:0:
78,206,100003,2,0,P|120:197|162:195,1,85,4|0,1:0|0:0,0:0:0:0:
391,306,100139,2,0,P|355:283|324:254,1,85,4|0,1:0|0:0,0:0:0:0:
188,100,100275,6,0,P|228:106|216:71,1,84.1499997431946,14|0,1:0|0:0,0:0:0:0:
255,192,100548,5,6,1:0:0:0:
255,192,100821,1,0,0:0:0:0:
139,365,100957,6,0,B|93:301|93:301|150:183,1,170,6|0,1:0|0:0,0:0:0:0:
41,0,101230,2,0,B|87:64|87:64|30:182,1,170,6|0,1:0|0:0,0:0:0:0:
512,227,101503,6,0,B|418:221|455:276|343:255,1,170,2|4,1:0|1:0,0:0:0:0:
349,256,101912,2,0,P|342:206|340:139,1,85,0|0,1:0|1:0,0:0:0:0:
462,6,102185,2,0,P|478:91|484:145,1,127.5,2|0,1:2|0:0,0:0:0:0:
482,131,102457,1,6,1:2:0:0:
322,86,102594,1,0,0:0:0:0:
386,381,102730,6,0,B|372:291|372:291|424:210|424:210|391:52,1,340,4|0,1:0|0:0,0:0:0:0:
119,60,103139,2,0,B|88:210|88:210|140:291|140:291|126:381,1,340,4|0,1:0|0:0,0:0:0:0:
250,181,103548,2,0,L|250:389,1,170,4|0,1:0|0:0,0:0:0:0:
120,61,103821,5,4,1:0:0:0:
202,44,103957,1,2,3:0:0:0:
268,101,104094,1,8,3:2:0:0:
351,81,104230,1,2,3:2:0:0:
463,221,104366,6,0,P|490:228|507:229,1,42.5,8|0,1:0|0:0,0:0:0:0:
379,203,104503,2,0,P|352:196|335:195,1,42.5,2|0,1:2|0:0,0:0:0:0:
435,145,104639,2,0,P|442:126|447:97,1,42.5,2|0,1:2|0:0,0:0:0:0:
406,281,104775,2,0,P|399:300|394:329,1,42.5,2|0,1:2|0:0,0:0:0:0:
276,373,104912,6,0,B|250:232|64:223|72:345|127:376|127:372|170:370|200:310,1,340,4|0,1:0|0:0,0:0:0:0:
194,181,105321,2,0,B|108:170|64:78|64:78|57:182|-11:243,1,340,4|0,1:0|0:0,0:0:0:0:
328,27,105730,6,0,B|123:2|123:2|236:105,1,340,4|0,1:0|0:0,0:0:0:0:
330,256,106139,2,0,B|535:281|535:281|422:178,1,340,4|0,1:0|0:0,0:0:0:0:
186,205,106548,6,0,B|300:177|300:177|368:97|368:97|536:68,1,340,4|4,1:0|1:0,0:0:0:0:
285,368,107094,6,0,P|447:336|429:184,1,340,4|0,1:0|0:0,0:0:0:0:
227,16,107503,2,0,P|65:48|83:200,1,340,4|0,1:0|0:0,0:0:0:0:
339,192,107912,2,0,L|169:217,1,170,4|0,1:0|0:0,0:0:0:0:
72,374,108321,5,0,3:0:0:0:
97,285,108457,1,8,3:2:0:0:
5,307,108593,1,0,3:0:0:0:
165,353,108730,2,0,P|217:353|264:356,1,85,8|2,1:0|3:0,0:0:0:0:
437,319,109003,5,4,1:0:0:0:
437,319,109071,1,2,3:0:0:0:
437,319,109139,1,2,3:0:0:0:
266,73,109275,6,0,B|180:-5|180:-5|197:241,1,340,4|0,1:0|0:0,0:0:0:0:
429,176,109685,6,0,B|540:134|540:134|410:86,1,255,4|0,1:0|0:0,0:0:0:0:
288,264,109957,6,0,B|267:381|267:381|374:292,1,255,4|0,1:0|0:0,0:0:0:0:
413,87,110230,6,0,L|320:118,1,85,4|0,1:0|0:0,0:0:0:0:
41,206,110366,1,4,1:0:0:0:
