osu file format v14

[General]
AudioFilename: mp3.mp3
AudioLeadIn: 0
PreviewTime: 46003
Countdown: 0
SampleSet: Soft
StackLeniency: 0.3
Mode: 0
LetterboxInBreaks: 0
WidescreenStoryboard: 1

[Editor]
Bookmarks: 197,8924,17651,26378,35106,46015,63469,72197,80924,85287,94015,102742,110378
DistanceSpacing: 0.5
BeatDivisor: 4
GridSize: 32
TimelineZoom: 2.7

[Metadata]
Title:TRICKL4SH 220
TitleUnicode:TRICKL4SH 220
Artist:Lite Show Magic
ArtistUnicode:Lite Show Magic
Creator:Regou
Version:LCFC's INS4NE
Source:SOUND VOLTEX IV HEAVENLY HAVEN
Tags:sdvx konami bemani ep m3-36 m3 lsm c.h.s chs comiket chsep-0003 hardcore tano*c happy don't waste me! e.p. c85 t+pazolite c-show [ Drop ] toybot LowComboFC Neoskylove Gloria Guard Priti Avena IntellectualBoy tricklash
BeatmapID:1308410
BeatmapSetID:616696

[Difficulty]
HPDrainRate:6
CircleSize:3.8
OverallDifficulty:7.5
ApproachRate:9
SliderMultiplier:1.6
SliderTickRate:1

[Events]
//Background and Video events
0,0,"BG1.jpg",0,0
//Break Periods
2,35294,38585
2,44021,44857
2,63657,65039
2,68021,69403
//Storyboard Layer 0 (Background)
//Storyboard Layer 1 (Fail)
//Storyboard Layer 2 (Pass)
//Storyboard Layer 3 (Foreground)
//Storyboard Sound Samples

[TimingPoints]
185,272.727272727273,4,3,1,70,1,0
185,-133.333333333333,4,3,1,70,0,0
8912,-133.333333333333,4,2,1,80,0,0
10003,-133.333333333333,4,3,1,80,0,0
10616,-133.333333333333,4,3,1,55,0,0
11094,-133.333333333333,4,2,1,80,0,0
14366,-133.333333333333,4,3,1,80,0,0
14980,-133.333333333333,4,3,1,55,0,0
15457,-133.333333333333,4,2,1,80,0,0
17366,-133.333333333333,4,3,1,100,0,0
17637,-133.333333333333,4,3,1,40,0,0
17639,-133.333333333333,4,3,1,80,0,0
21730,-100,4,3,1,80,0,0
22003,-133.333333333333,4,3,1,80,0,0
25275,-200,4,3,1,80,0,0
25685,-200,4,3,1,5,0,0
25821,-200,4,3,1,80,0,0
26230,-200,4,3,1,5,0,0
26366,-133.333333333333,4,3,1,80,0,0
27457,-133.333333333333,4,3,1,100,0,0
28003,-200,4,3,1,60,0,0
28275,-200,4,3,1,100,0,0
28548,-133.333333333333,4,3,1,80,0,0
29639,-133.333333333333,4,3,1,100,0,0
29980,-100,4,3,1,100,0,0
30730,-133.333333333333,4,3,1,80,0,0
32912,-133.333333333333,4,2,1,100,0,0
34003,-133.333333333333,4,3,1,80,0,0
34821,-100,4,3,1,80,0,0
35025,-100,4,3,1,20,0,0
35094,-100,4,2,1,60,0,0
39185,-133.333333333333,4,2,1,60,0,0
39457,-133.333333333333,4,3,1,60,0,0
43821,-133.333333333333,4,2,1,40,0,0
45048,-133.333333333333,4,2,1,20,0,0
45185,-133.333333333333,4,2,1,40,0,0
45457,-80,4,2,1,60,0,0
45730,-133.333333333333,4,2,1,60,0,0
46003,-100,4,3,1,90,0,1
48185,-100,4,1,1,70,0,1
50366,-100,4,3,1,90,0,1
52548,-100,4,2,1,70,0,0
54185,-80,4,2,1,70,0,0
54457,-133.333333333333,4,2,1,70,0,0
54730,-100,4,3,1,90,0,1
56912,-100,4,1,1,70,0,1
59094,-100,4,3,1,90,0,1
61275,-100,4,2,1,70,0,1
62912,-80,4,2,1,70,0,1
63185,-133.333333333333,4,2,1,70,0,1
63457,-133.333333333333,4,3,1,70,0,0
71503,-133.333333333333,4,3,1,5,0,0
71639,-133.333333333333,4,3,1,70,0,0
72048,-133.333333333333,4,3,1,5,0,0
72185,-133.333333333333,4,3,1,80,0,0
83094,-100,4,3,1,80,0,0
84185,-200,4,3,1,80,0,0
84212,-200,4,2,1,35,0,0
85003,-80,4,2,1,70,0,0
85139,-80,4,2,1,20,0,0
85275,-100,4,3,1,90,0,1
87457,-100,4,1,1,70,0,1
89639,-100,4,3,1,90,0,1
91821,-100,4,2,1,70,0,0
93457,-80,4,2,1,70,0,0
93730,-133.333333333333,4,2,1,70,0,0
94003,-100,4,2,1,90,0,1
98094,-133.333333333333,4,2,1,90,0,1
98366,-100,4,2,1,90,0,1
100275,-133.333333333333,4,2,1,90,0,1
100548,-100,4,2,1,90,0,1
102730,-133.333333333333,4,2,1,80,0,0
110503,-133.333333333333,4,2,1,10,0,0
110639,-133.333333333333,4,2,1,80,0,0
110776,-133.333333333333,4,2,1,10,0,0
110912,-133.333333333333,4,2,1,80,0,0

[Colours]
Combo1 : 128,0,255
Combo2 : 252,226,48
Combo3 : 255,99,23
Combo4 : 255,58,130

[HitObjects]
70,65,185,6,0,L|57:133,1,60.0000022888184,4|0,1:0|0:0,0:0:0:0:
211,172,457,2,0,L|224:240,1,60.0000022888184,0|0,0:0|0:0,0:0:0:0:
95,288,730,1,0,0:0:0:0:
141,120,866,1,0,0:0:0:0:
141,120,1139,5,0,0:0:0:0:
211,172,1275,2,0,L|279:185,1,60.0000022888184,0|0,0:0|0:0,0:0:0:0:
430,41,1548,2,0,L|362:54,1,60.0000022888184,0|0,0:0|0:0,0:0:0:0:
365,150,1821,1,0,0:0:0:0:
282,15,1957,1,0,0:0:0:0:
282,15,2230,5,0,0:0:0:0:
199,113,2366,2,0,L|212:181,1,60.0000022888184,0|0,0:0|0:0,0:0:0:0:
386,172,2639,2,0,L|373:240,1,60.0000022888184,0|0,0:0|0:0,0:0:0:0:
288,283,2912,1,0,0:0:0:0:
472,223,3048,1,0,0:0:0:0:
472,223,3321,5,0,0:0:0:0:
288,283,3457,2,0,L|301:351,1,60.0000022888184,0|0,0:0|0:0,0:0:0:0:
489,136,3730,2,0,L|477:194,1,60.0000022888184,0|0,0:0|0:0,0:0:0:0:
319,56,4003,1,0,0:0:0:0:
333,149,4139,2,0,L|265:136,1,60.0000022888184,4|0,1:0|1:0,0:0:0:0:
261,146,4344,1,0,1:0:0:0:
248,154,4412,1,0,1:0:0:0:
84,96,4548,6,0,L|72:37,1,60.0000022888184,4|0,1:0|0:0,0:0:0:0:
144,238,4821,2,0,L|155:179,1,60.0000022888184,0|0,0:0|0:0,0:0:0:0:
59,288,5094,1,0,0:0:0:0:
3,141,5230,1,0,0:0:0:0:
71,199,5366,1,0,0:0:0:0:
155,179,5503,6,0,L|274:169,1,120.000004577637,0|0,0:0|0:0,0:0:0:0:
366,60,5912,2,0,L|424:71,1,60.0000022888184,0|0,0:0|0:0,0:0:0:0:
458,239,6185,1,0,0:0:0:0:
400,159,6321,1,0,0:0:0:0:
466,77,6457,2,0,L|478:19,1,60.0000022888184,0|0,0:0|0:0,0:0:0:0:
385,175,6730,5,4,1:0:0:0:
176,88,7003,5,4,1:0:0:0:
206,312,7275,5,4,1:0:0:0:
256,192,7412,1,0,0:0:0:0:
305,71,7548,1,4,1:0:0:0:
176,88,7685,1,0,0:0:0:0:
176,88,8503,6,0,L|192:136,5,30.0000011444092,4|4|4|4|4|4,1:0|1:0|1:0|1:0|1:0|1:0,0:0:0:0:
93,43,8912,6,0,B|163:49|163:49|180:44|180:44|195:54|195:54|268:60,2,180.000006866455,4|4|4,1:0|1:0|1:0,0:0:0:0:
8,142,10003,6,0,L|17:201,1,60.0000022888184,4|4,0:0|0:0,0:0:0:0:
171,266,10275,1,8,0:2:0:0:
179,253,10344,1,0,0:0:0:0:
174,238,10412,1,4,0:0:0:0:
12,324,10548,6,0,L|71:333,1,60.0000022888184,12|10,0:2|0:2,0:0:0:0:
174,238,10821,2,0,L|233:228,1,60.0000022888184,10|10,0:2|0:2,0:0:0:0:
399,321,11094,6,0,B|446:249|373:229|424:142,2,180.000006866455,4|4|4,1:0|1:0|1:0,0:0:0:0:
484,93,12321,2,0,P|427:66|338:128,1,180.000006866455,4|4,1:0|1:0,0:0:0:0:
499,207,13003,1,4,1:0:0:0:
242,89,13275,6,0,B|234:146|234:146|257:197|257:197|249:262,2,180.000006866455,4|4|4,1:0|1:0|1:0,0:0:0:0:
95,234,14366,6,0,L|154:224,1,60.0000022888184,4|4,0:0|0:0,0:0:0:0:
319,108,14639,1,8,0:2:0:0:
317,122,14707,1,0,0:0:0:0:
315,136,14775,1,4,0:0:0:0:
154,140,14912,6,0,L|163:199,1,60.0000022888184,12|10,0:2|0:2,0:0:0:0:
359,243,15185,2,0,L|349:302,1,60.0000022888184,10|10,0:2|0:2,0:0:0:0:
154,369,15457,6,0,B|100:342|100:342|229:328,2,180.000006866455,4|4|4,1:0|1:0|1:0,0:0:0:0:
445,184,16685,2,0,B|411:216|411:216|279:192,1,180.000006866455,4|4,1:0|1:0,0:0:0:0:
154,73,17366,1,2,3:1:0:0:
357,31,17639,6,0,L|366:90,1,60.0000022888184,4|0,1:0|0:0,0:0:0:0:
445,184,17912,2,0,L|436:243,1,60.0000022888184,12|0,1:0|0:0,0:0:0:0:
294,333,18185,1,4,1:0:0:0:
333,246,18321,1,0,0:0:0:0:
452,353,18457,2,0,L|511:344,1,60.0000022888184,12|0,1:0|0:0,0:0:0:0:
313,235,18730,6,0,L|254:244,1,60.0000022888184,4|0,1:0|0:0,0:0:0:0:
143,349,19003,2,0,L|84:340,1,60.0000022888184,12|0,1:0|0:0,0:0:0:0:
84,119,19275,1,4,1:0:0:0:
175,176,19412,1,0,0:0:0:0:
12,269,19548,2,0,L|3:210,1,60.0000022888184,12|0,1:0|0:0,0:0:0:0:
113,39,19821,6,0,L|104:98,1,60.0000022888184,2|2,1:0|0:1,0:0:0:0:
75,178,20025,6,0,L|84:119,1,60.0000022888184,0|2,0:0|0:1,0:0:0:0:
26,54,20230,5,0,0:0:0:0:
195,89,20366,5,6,1:0:0:0:
195,89,20435,1,2,0:2:0:0:
195,89,20503,2,0,L|231:82,1,30.0000011444092,2|2,0:2|0:2,0:0:0:0:
274,13,20639,2,0,L|265:72,1,60.0000022888184,12|2,1:0|0:0,0:0:0:0:
172,198,20912,6,0,L|181:257,1,60.0000022888184,4|0,1:0|0:0,0:0:0:0:
260,316,21116,6,0,L|204:294,1,60.0000022888184,0|0,0:0|0:0,0:0:0:0:
113,333,21321,5,0,0:0:0:0:
276,227,21457,6,0,L|335:218,1,60.0000022888184,4|2,1:0|0:2,0:0:0:0:
511,333,21730,6,0,B|473:331|450:345|450:345|428:325|399:320,1,120,12|0,1:0|0:0,0:0:0:0:
399,320,22003,6,0,L|408:261,1,60.0000022888184,4|0,1:0|0:0,0:0:0:0:
340,127,22275,2,0,L|349:186,1,60.0000022888184,12|0,1:0|0:0,0:0:0:0:
495,100,22548,1,4,1:0:0:0:
468,186,22685,1,0,0:0:0:0:
418,44,22821,2,0,L|359:35,1,60.0000022888184,12|0,1:0|0:0,0:0:0:0:
189,109,23094,6,0,L|248:100,1,60.0000022888184,4|0,1:0|0:0,0:0:0:0:
399,117,23366,2,0,L|340:126,1,60.0000022888184,12|0,1:0|0:0,0:0:0:0:
105,49,23639,1,4,1:0:0:0:
198,6,23775,1,0,0:0:0:0:
266,116,23912,2,0,L|257:175,1,60.0000022888184,12|0,1:0|0:0,0:0:0:0:
107,228,24185,6,0,L|116:287,1,60.0000022888184,6|2,1:0|0:1,0:0:0:0:
161,365,24389,6,0,L|170:306,1,60.0000022888184,0|2,0:0|0:1,0:0:0:0:
187,216,24594,5,0,0:0:0:0:
272,313,24730,1,6,1:0:0:0:
272,313,24798,1,2,0:2:0:0:
272,313,24866,2,0,L|306:306,1,30.0000011444092,2|2,0:2|0:2,0:0:0:0:
398,280,25003,2,0,L|389:339,1,60.0000022888184,12|2,1:0|3:0,0:0:0:0:
411,174,25275,6,0,B|420:254|420:254|484:298|484:298|491:380,1,240,2|0,0:0|0:0,0:0:0:0:
503,201,26366,6,0,L|512:142,1,60.0000022888184,4|0,1:0|0:0,0:0:0:0:
339,121,26639,2,0,L|330:62,1,60.0000022888184,12|0,1:0|0:0,0:0:0:0:
486,26,26912,1,4,1:0:0:0:
432,103,27048,1,0,0:0:0:0:
252,138,27185,2,0,L|193:129,1,60.0000022888184,12|0,1:0|0:0,0:0:0:0:
55,84,27457,6,0,L|114:75,1,60.0000022888184,6|0,1:0|2:0,0:0:0:0:
239,151,27662,6,0,L|180:142,1,60.0000022888184,6|0,1:0|2:0,0:0:0:0:
41,70,27866,5,6,1:0:0:0:
15,216,28003,6,0,B|8:259|8:259|41:300,1,80,2|4,0:0|0:2,0:0:0:0:
30,287,28412,1,2,0:1:0:0:
199,247,28548,6,0,L|140:238,1,60.0000022888184,4|0,1:0|0:0,0:0:0:0:
255,384,28821,2,0,L|314:375,1,60.0000022888184,12|2,1:0|0:0,0:0:0:0:
394,181,29094,1,4,1:0:0:0:
310,246,29230,1,0,0:0:0:0:
429,338,29366,2,0,L|438:279,1,60.0000022888184,12|0,1:0|0:0,0:0:0:0:
295,140,29639,6,0,L|289:100,1,30.0000011444092,6|0,1:0|0:0,0:0:0:0:
372,94,29775,6,0,L|313:85,1,60.0000022888184,6|2,1:0|0:0,0:0:0:0:
255,29,29980,6,0,L|119:44,1,120,6|0,1:0|0:0,0:0:0:0:
55,56,30253,1,4,1:0:0:0:
55,56,30321,5,6,1:0:0:0:
75,152,30457,1,4,1:0:0:0:
95,248,30594,1,6,1:0:0:0:
283,217,30730,6,0,L|274:276,1,60.0000022888184,4|0,1:0|0:0,0:0:0:0:
82,268,31003,2,0,L|91:327,1,60.0000022888184,12|0,1:0|0:0,0:0:0:0:
246,370,31275,1,4,1:0:0:0:
190,293,31412,1,0,0:0:0:0:
364,267,31548,2,0,L|423:276,1,60.0000022888184,12|0,1:0|0:0,0:0:0:0:
255,135,31821,6,0,L|264:194,1,60.0000022888184,4|0,1:0|0:0,0:0:0:0:
448,60,32094,2,0,L|439:119,1,60.0000022888184,12|0,1:0|0:0,0:0:0:0:
301,15,32366,1,4,1:0:0:0:
352,97,32503,1,0,0:0:0:0:
157,123,32639,2,0,L|98:114,1,60.0000022888184,12|0,1:0|0:0,0:0:0:0:
264,194,32912,5,4,1:0:0:0:
238,349,33048,1,4,1:0:0:0:
117,248,33185,1,4,1:0:0:0:
206,263,33321,1,4,1:0:0:0:
328,364,33457,5,4,1:0:0:0:
206,263,33594,1,4,1:0:0:0:
354,209,33730,1,4,1:0:0:0:
297,279,33866,1,4,1:0:0:0:
174,178,34003,6,0,P|164:120|160:60,1,120.000004577637,0|0,0:0|0:0,0:0:0:0:
354,31,34412,2,0,P|308:69|258:102,1,120.000004577637,0|0,0:0|0:0,0:0:0:0:
67,134,34821,6,0,B|128:140|128:140|174:178,1,120,2|0,1:3|0:0,0:0:0:0:
185,194,35094,5,0,0:0:0:0:
185,194,39185,6,0,L|194:253,1,60.0000022888184,0|2,0:0|3:0,0:0:0:0:
320,322,39457,6,0,B|282:316|282:316|251:289|251:289|210:283,2,120.000004577637,0|0|8,1:0|0:0|1:0,0:0:0:0:
208,374,40275,2,0,L|149:383,1,60.0000022888184,4|0,0:0|0:0,0:0:0:0:
57,336,40548,6,0,P|45:301|82:218,2,120.000004577637,8|2|8,0:0|0:1|1:0,0:0:0:0:
244,203,41366,2,0,L|185:194,1,60.0000022888184,4|0,0:0|0:0,0:0:0:0:
115,14,41639,6,0,B|90:53|90:53|96:128,2,120.000004577637,8|0|8,0:0|0:0|0:0,0:0:0:0:
244,203,42457,2,0,L|235:262,1,60.0000022888184,0|0,0:0|0:0,0:0:0:0:
11,251,42730,6,0,B|61:217|61:217|118:231,2,120.000004577637,8|0|0,0:0|0:0|0:0,0:0:0:0:
88,376,43548,2,0,L|79:317,1,60.0000022888184,0|0,0:0|0:0,0:0:0:0:
51,136,43821,5,0,0:1:0:0:
51,136,45457,6,0,B|4:121|4:121|26:219,1,150,4|0,1:2|0:0,0:0:0:0:
112,352,45730,6,0,P|136:316|123:274,1,90.0000034332277,4|0,1:2|0:0,0:0:0:0:
103,269,46003,6,0,B|154:239|165:289|219:255,1,120,6|0,1:0|0:0,0:0:0:0:
218,255,46275,1,12,1:0:0:0:
158,79,46412,2,0,P|176:114|183:154,1,80,2|4,0:1|1:0,0:0:0:0:
183,154,46616,1,0,0:0:0:0:
183,154,46685,1,0,0:0:0:0:
312,305,46821,2,0,P|320:265|337:229,1,80,12|2,1:0|0:1,0:0:0:0:
485,127,47094,6,0,P|440:163|382:155,1,120,4|0,1:0|2:0,0:0:0:0:
382,155,47366,1,14,1:1:0:0:
247,88,47503,2,0,P|283:71|322:64,1,80,0|4,0:0|1:0,0:0:0:0:
322,64,47707,1,0,0:0:0:0:
322,64,47775,1,0,0:0:0:0:
208,276,47912,2,0,P|169:268|133:251,1,80,14|0,1:0|0:0,0:0:0:0:
0,52,48185,5,4,1:0:0:0:
17,130,48321,2,0,L|4:225,1,80,2|12,0:2|1:0,0:0:0:0:
116,329,48594,1,2,0:2:0:0:
133,251,48730,2,0,L|120:156,1,80,4|2,1:0|0:2,0:0:0:0:
249,130,49003,2,0,L|236:225,1,80,12|2,1:0|0:2,0:0:0:0:
341,345,49275,6,0,P|378:327|417:319,1,80,4|2,1:0|0:2,0:0:0:0:
511,245,49548,2,0,P|479:222|452:192,1,80,12|2,1:0|0:2,0:0:0:0:
340,147,49821,2,0,P|337:186|325:224,1,80,4|2,1:0|0:2,0:0:0:0:
325,224,50025,1,0,0:0:0:0:
325,224,50094,1,12,1:0:0:0:
420,99,50230,1,0,0:0:0:0:
294,32,50366,6,0,P|239:55|180:64,1,120,6|0,1:0|0:0,0:0:0:0:
180,64,50639,1,12,1:0:0:0:
2,154,50775,2,0,P|39:171|78:179,1,80,2|4,0:1|1:0,0:0:0:0:
78,179,50980,1,0,0:0:0:0:
78,179,51048,1,0,0:0:0:0:
81,45,51185,2,0,P|45:27|6:19,1,80,12|2,1:1|0:1,0:0:0:0:
167,164,51457,6,0,L|192:281,1,120,4|0,1:0|2:0,0:0:0:0:
192,281,51730,1,14,1:1:0:0:
357,213,51866,2,0,P|318:206|283:188,1,80,0|4,0:0|1:0,0:0:0:0:
283,188,52071,1,0,0:0:0:0:
283,188,52139,1,0,0:0:0:0:
433,303,52275,2,0,P|398:321|359:327,1,80,14|0,1:0|0:1,0:0:0:0:
343,97,52548,6,0,B|455:115|455:115|404:132,1,160,6|0,1:0|0:0,0:0:0:0:
167,164,52957,2,0,P|149:128|143:89,1,80,6|0,1:0|0:0,0:0:0:0:
333,287,53230,2,0,P|352:251|358:212,1,80,6|0,1:0|0:0,0:0:0:0:
248,373,53503,6,0,P|225:318|216:259,1,120,6|0,1:0|0:0,0:0:0:0:
216,259,53775,1,4,1:0:0:0:
358,212,53912,2,0,P|394:230|433:236,1,80,4|0,1:0|3:0,0:0:0:0:
336,46,54185,6,0,B|286:55|286:55|264:98|264:98|214:107,1,150,4|0,1:2|0:0,0:0:0:0:
144,76,54457,6,0,L|127:165,1,90.0000034332277,4|0,1:2|0:0,0:0:0:0:
132,195,54730,6,0,B|176:228|176:228|235:191,1,120,6|0,1:0|0:0,0:0:0:0:
231,194,55003,1,12,1:0:0:0:
346,304,55139,2,0,P|353:264|371:229,1,80,2|4,0:1|1:0,0:0:0:0:
371,229,55344,1,0,0:0:0:0:
371,229,55412,1,0,0:0:0:0:
161,302,55548,2,0,P|180:337|186:376,1,80,12|2,1:0|0:1,0:0:0:0:
15,171,55821,6,0,L|141:197,1,120,4|0,1:0|2:0,0:0:0:0:
133,195,56094,1,14,1:1:0:0:
9,362,56230,2,0,P|28:326|34:287,1,80,0|4,0:0|1:0,0:0:0:0:
34,287,56435,1,0,0:0:0:0:
34,287,56503,1,0,0:0:0:0:
251,216,56639,2,0,P|233:180|227:141,1,80,14|0,1:0|0:0,0:0:0:0:
426,55,56912,5,4,1:0:0:0:
360,99,57048,2,0,L|273:80,1,80,2|12,0:2|1:0,0:0:0:0:
83,114,57321,1,2,0:2:0:0:
149,158,57457,2,0,L|236:139,1,80,4|2,1:0|0:2,0:0:0:0:
360,217,57730,2,0,L|273:198,1,80,12|2,1:0|0:2,0:0:0:0:
1,220,58003,6,0,P|8:259|25:295,1,80,4|2,1:0|0:2,0:0:0:0:
149,158,58275,2,0,P|112:143|73:141,1,80,12|2,1:0|0:2,0:0:0:0:
128,318,58548,2,0,P|160:293|181:259,1,80,4|2,1:0|0:2,0:0:0:0:
181,259,58753,1,0,0:0:0:0:
181,259,58821,1,12,1:0:0:0:
94,232,58957,1,0,0:0:0:0:
219,347,59094,6,0,B|270:317|281:367|335:333,1,120,6|0,1:0|0:0,0:0:0:0:
334,333,59366,1,12,1:0:0:0:
318,172,59503,2,0,P|301:207|294:246,1,80,2|4,0:1|1:0,0:0:0:0:
294,246,59707,1,0,2:0:0:0:
294,246,59775,1,0,0:0:0:0:
479,349,59912,2,0,P|473:309|455:274,1,80,12|2,1:0|0:1,0:0:0:0:
244,141,60185,6,0,P|303:127|355:97,1,120,4|0,1:0|0:0,0:0:0:0:
355,97,60457,1,14,1:1:0:0:
480,199,60594,2,0,P|474:238|456:273,1,80,0|4,0:0|1:0,0:0:0:0:
456,273,60798,1,0,0:0:0:0:
456,273,60866,1,0,0:0:0:0:
334,333,61003,2,0,P|316:297|310:258,1,80,14|0,1:0|0:0,0:0:0:0:
402,30,61275,6,0,B|385:94|385:94|395:129|395:129|381:186,1,160,6|0,1:0|0:0,0:0:0:0:
235,282,61685,2,0,P|275:275|310:257,1,80,6|0,1:0|0:0,0:0:0:0:
145,95,61957,2,0,P|185:101|220:119,1,80,6|0,1:0|0:0,0:0:0:0:
33,247,62230,6,0,P|93:238|148:214,1,120,6|0,1:0|0:0,0:0:0:0:
129,315,62503,2,0,P|86:274|33:247,1,120,0|0,0:0|0:0,0:0:0:0:
32,247,62775,1,0,0:0:0:0:
23,34,62912,6,0,B|73:43|73:43|95:86|95:86|145:95,1,150,0|0,0:0|0:0,0:0:0:0:
224,27,63185,6,0,L|238:116,1,90.0000034332277,0|0,0:0|0:0,0:0:0:0:
229,133,63457,5,0,1:0:0:0:
171,180,65639,6,0,L|157:256,1,60.0000022888184,0|0,1:0|0:0,0:0:0:0:
161,239,65844,1,0,0:0:0:0:
161,239,65912,1,8,1:0:0:0:
66,286,66048,1,2,0:0:0:0:
192,347,66185,6,0,L|268:333,1,60.0000022888184,2|2,1:1|0:1,0:0:0:0:
311,182,66457,2,0,L|387:196,1,60.0000022888184,8|2,1:0|0:1,0:0:0:0:
184,358,66730,6,0,L|271:342,1,60.0000022888184,0|2,1:0|0:0,0:0:0:0:
320,170,67003,2,0,L|406:186,1,60.0000022888184,8|2,1:0|0:1,0:0:0:0:
449,351,67275,6,0,B|484:320|484:320|468:248,1,120.000004577637,2|2,1:2|1:2,0:0:0:0:
381,285,67685,1,0,0:0:0:0:
470,147,67821,5,0,1:0:0:0:
470,147,70003,6,0,L|411:136,1,60.0000022888184,0|0,1:0|0:0,0:0:0:0:
411,136,70207,1,0,0:0:0:0:
411,136,70275,1,8,1:0:0:0:
315,197,70412,1,2,0:0:0:0:
225,148,70548,6,0,L|214:89,1,60.0000022888184,2|2,1:0|0:1,0:0:0:0:
373,0,70821,2,0,L|362:59,1,60.0000022888184,8|2,1:0|0:1,0:0:0:0:
338,310,71094,6,0,B|350:247|301:264|315:197,1,120.000004577637,2|0,0:0|0:0,0:0:0:0:
131,378,71639,2,0,P|145:329|263:347,1,180.000006866455,4|0,0:0|2:0,0:0:0:0:
65,297,72185,6,0,P|36:290|9:278,1,60.0000022888184,0|0,1:0|0:0,0:0:0:0:
38,184,72457,2,0,P|68:190|95:202,1,60.0000022888184,8|0,1:2|0:0,0:0:0:0:
259,215,72730,6,0,P|289:208|316:196,1,60.0000022888184,0|0,1:0|0:0,0:0:0:0:
286,102,73003,2,0,P|257:108|230:120,1,60.0000022888184,8|0,1:2|0:0,0:0:0:0:
165,284,73275,6,0,L|149:358,1,60.0000022888184,0|0,1:0|0:0,0:0:0:0:
38,184,73548,2,0,L|54:258,1,60.0000022888184,8|0,1:2|0:0,0:0:0:0:
259,215,73821,6,0,L|333:199,1,60.0000022888184,0|0,1:0|0:0,0:0:0:0:
126,102,74094,2,0,L|52:86,1,60.0000022888184,8|0,1:2|0:0,0:0:0:0:
299,43,74366,6,0,L|286:102,1,60.0000022888184,2|2,1:0|0:2,0:0:0:0:
303,97,74571,6,0,L|315:39,1,60.0000022888184,2|2,0:1|0:2,0:0:0:0:
332,34,74775,5,2,0:1:0:0:
199,69,74912,6,0,L|212:127,1,60.0000022888184,2|0,1:1|2:2,0:0:0:0:
318,202,75185,2,0,L|306:260,1,60.0000022888184,8|0,1:2|0:0,0:0:0:0:
232,324,75457,6,0,L|319:298,2,90.0000034332277,0|0|0,1:0|0:0|0:0,0:0:0:0:
146,349,76003,1,2,1:0:0:0:
169,258,76139,1,2,0:1:0:0:
319,298,76275,2,0,L|307:356,1,60.0000022888184,14|0,1:2|0:0,0:0:0:0:
192,167,76548,6,0,P|180:139|175:110,1,60.0000022888184,4|0,1:0|0:0,0:0:0:0:
289,57,76821,2,0,P|277:84|272:113,1,60.0000022888184,8|0,0:2|0:0,0:0:0:0:
463,219,77094,6,0,P|476:191|481:162,1,60.0000022888184,0|0,0:0|0:0,0:0:0:0:
366,109,77366,2,0,P|379:136|384:165,1,60.0000022888184,8|0,0:2|0:0,0:0:0:0:
319,298,77639,6,0,L|261:286,1,60.0000022888184,0|0,0:0|0:0,0:0:0:0:
134,179,77912,2,0,L|192:167,1,60.0000022888184,8|0,0:2|0:0,0:0:0:0:
155,322,78185,6,0,L|167:264,1,60.0000022888184,0|0,0:0|0:0,0:0:0:0:
274,137,78457,2,0,L|286:195,1,60.0000022888184,8|0,0:2|0:0,0:0:0:0:
329,383,78730,5,4,1:0:0:0:
329,383,78866,2,0,L|337:339,1,30.0000011444092,4|0,1:0|0:0,0:0:0:0:
460,289,79003,5,4,1:0:0:0:
460,289,79139,2,0,L|452:245,1,30.0000011444092,4|0,1:0|0:0,0:0:0:0:
365,166,79275,5,4,1:0:0:0:
365,166,79412,2,0,L|373:122,1,30.0000011444092,4|0,1:0|0:0,0:0:0:0:
496,72,79548,5,4,1:0:0:0:
496,72,79685,2,0,L|488:28,1,30.0000011444092,4|0,1:0|0:0,0:0:0:0:
348,35,79821,6,0,B|330:91|330:91|371:136,1,120.000004577637,0|0,1:0|0:0,0:0:0:0:
418,69,80230,1,0,0:0:0:0:
276,152,80366,2,0,L|213:140,1,60.0000022888184,6|0,1:2|0:0,0:0:0:0:
148,34,80639,6,0,L|45:55,1,90.0000034332277,2|0,1:1|0:0,0:0:0:0:
47,70,80912,5,4,1:0:0:0:
48,70,82003,6,0,L|36:136,1,60.0000022888184,0|0,0:0|0:0,0:0:0:0:
11,280,82275,2,0,L|22:220,1,60.0000022888184,0|0,0:0|0:0,0:0:0:0:
142,195,82548,1,0,0:0:0:0:
142,195,82616,1,0,0:0:0:0:
142,195,82685,2,0,L|96:187,1,30.0000011444092,0|0,0:0|0:0,0:0:0:0:
20,173,82821,1,0,0:0:0:0:
104,293,82957,1,0,0:0:0:0:
221,110,83094,6,0,P|279:110|322:149,1,120,4|0,1:0|0:0,0:0:0:0:
322,149,83366,1,0,0:0:0:0:
480,192,83503,2,0,P|441:200|405:217,1,80,4|0,1:0|0:0,0:0:0:0:
196,282,83775,2,0,P|236:290|272:307,1,80,4|0,1:0|0:0,0:0:0:0:
354,374,84048,1,4,1:0:0:0:
309,177,84185,6,0,L|335:19,1,160,6|0,1:1|0:0,0:0:0:0:
349,38,85003,6,0,B|240:55|240:55|203:93,1,150,12|0,1:3|0:0,0:0:0:0:
198,63,85275,6,0,B|183:124|183:124|215:172,1,120,6|0,1:0|0:0,0:0:0:0:
215,172,85548,1,12,1:0:0:0:
384,201,85685,2,0,P|349:183|309:176,1,80,2|4,0:1|1:0,0:0:0:0:
309,176,85889,1,0,0:0:0:0:
309,176,85957,1,0,0:0:0:0:
93,283,86094,2,0,P|133:276|168:258,1,80,12|2,1:0|0:1,0:0:0:0:
198,63,86366,6,0,B|228:114|178:125|212:179,1,120,4|0,1:0|2:0,0:0:0:0:
212,178,86639,1,14,1:1:0:0:
37,72,86775,2,0,P|76:78|111:97,1,80,0|4,0:0|1:0,0:0:0:0:
111,97,86980,1,0,0:0:0:0:
111,97,87048,1,0,0:1:0:0:
93,283,87185,2,0,P|75:247|69:208,1,80,14|0,1:1|0:0,0:0:0:0:
198,63,87457,5,4,1:0:0:0:
273,92,87594,2,0,L|360:76,1,80,2|12,0:2|1:0,0:0:0:0:
476,156,87866,1,2,0:2:0:0:
401,185,88003,2,0,L|314:169,1,80,4|2,1:0|0:2,0:0:0:0:
273,278,88275,2,0,L|352:263,1,80,12|2,1:0|0:2,0:0:0:0:
225,187,88548,6,0,P|190:168|151:162,1,80,4|2,1:0|0:2,0:0:0:0:
23,290,88821,2,0,P|57:268|82:237,1,80,12|2,1:0|0:2,0:0:0:0:
34,64,89094,2,0,P|37:103|50:141,1,80,4|2,1:0|0:2,0:0:0:0:
50,141,89298,1,0,0:0:0:0:
50,141,89366,1,12,1:0:0:0:
151,161,89503,1,0,0:0:0:0:
330,46,89639,6,0,P|275:69|216:78,1,120,6|0,1:0|0:0,0:0:0:0:
216,78,89912,1,12,1:0:0:0:
385,127,90048,2,0,P|382:166|369:204,1,80,2|4,0:1|1:0,0:0:0:0:
369,204,90253,1,0,0:0:0:0:
369,204,90321,1,0,0:0:0:0:
162,255,90457,2,0,P|165:294|178:332,1,80,12|2,1:0|0:1,0:0:0:0:
421,344,90730,6,0,P|376:308|318:316,1,120,4|0,1:0|2:0,0:0:0:0:
318,316,91003,1,14,1:1:0:0:
162,255,91139,2,0,P|165:216|178:178,1,80,0|4,0:0|1:0,0:0:0:0:
179,177,91344,1,0,0:0:0:0:
179,177,91412,1,0,0:1:0:0:
280,32,91548,2,0,P|283:71|296:109,1,80,12|2,1:0|0:1,0:0:0:0:
501,141,91821,6,0,B|446:150|446:150|424:193|424:193|369:204,1,160,6|0,1:0|0:0,0:0:0:0:
488,307,92230,2,0,P|492:267|505:229,1,80,6|0,1:0|0:0,0:0:0:0:
352,40,92503,2,0,P|365:78|368:118,1,80,6|0,1:0|0:0,0:0:0:0:
256,338,92775,6,0,P|265:278|288:224,1,120,6|0,1:0|0:0,0:0:0:0:
288,224,93048,1,0,0:0:0:0:
86,176,93185,2,0,P|126:172|164:159,1,80,0|0,0:0|0:0,0:0:0:0:
352,40,93457,6,0,P|283:26|246:86,1,150,0|0,0:0|0:0,0:0:0:0:
431,99,93730,6,0,B|456:65|456:65|450:17,1,90.0000034332277,14|0,1:3|0:0,0:0:0:0:
433,12,94003,5,4,1:0:0:0:
512,133,94139,1,4,1:0:0:0:
458,197,94275,2,0,L|378:184,1,80,12|4,1:0|1:0,0:0:0:0:
213,258,94548,5,4,1:0:0:0:
160,99,94685,1,4,1:0:0:0:
215,171,94821,2,0,L|297:184,1,80,12|4,1:0|1:0,0:0:0:0:
253,11,95094,6,0,L|266:93,1,80,4|4,1:0|1:0,0:0:0:0:
391,264,95366,2,0,L|379:184,1,80,12|4,1:0|1:0,0:0:0:0:
387,166,95571,1,4,1:0:0:0:
395,147,95639,5,4,1:0:0:0:
316,335,95775,1,4,1:0:0:0:
213,258,95912,2,0,L|134:245,1,80,12|4,1:0|1:0,0:0:0:0:
10,321,96185,6,0,B|91:304|91:304|110:271,2,120,4|12|4,1:0|1:0|1:0,0:0:0:0:
53,100,96730,2,0,L|30:217,2,120,4|12|4,1:0|1:0|1:0,0:0:0:0:
262,31,97275,5,4,1:0:0:0:
146,9,97412,1,4,1:0:0:0:
249,140,97548,2,0,L|329:127,1,80,4|4,1:0|1:0,0:0:0:0:
495,61,97821,2,0,L|416:48,1,80,4|0,1:0|0:0,0:0:0:0:
417,48,98025,1,0,0:0:0:0:
417,48,98094,6,0,P|409:91|427:140,1,90.0000034332277,14|0,1:0|0:0,0:0:0:0:
440,145,98366,5,4,1:0:0:0:
313,99,98503,1,4,1:0:0:0:
345,285,98639,2,0,L|332:205,1,80,12|4,1:0|1:0,0:0:0:0:
72,145,98912,5,4,1:0:0:0:
199,99,99048,1,4,1:0:0:0:
167,285,99185,2,0,L|180:205,1,80,12|4,1:0|1:0,0:0:0:0:
392,86,99457,6,0,L|313:99,1,80,4|4,1:0|1:0,0:0:0:0:
121,86,99730,2,0,L|199:99,1,80,12|4,1:0|1:0,0:0:0:0:
218,90,99935,1,0,0:0:0:0:
237,81,100003,1,4,1:0:0:0:
180,206,100139,1,4,1:0:0:0:
256,360,100275,6,0,L|256:262,1,90.0000034332277,14|0,1:0|0:0,0:0:0:0:
349,182,100548,6,0,B|386:233|386:233|348:322,1,160,6|0,1:0|0:0,0:0:0:0:
106,229,100957,2,0,P|141:212|180:206,1,80,6|0,1:0|0:0,0:0:0:0:
256,360,101230,2,0,P|223:338|198:307,1,80,6|0,1:0|0:0,0:0:0:0:
302,124,101503,6,0,P|290:207|276:244,1,120,2|0,1:0|0:0,0:0:0:0:
278,240,101775,1,4,1:0:0:0:
462,209,101912,2,0,P|422:214|386:232,1,80,0|0,1:0|1:0,0:0:0:0:
123,283,102185,2,0,P|163:288|199:305,1,80,2|0,1:2|0:0,0:0:0:0:
287,382,102457,1,6,1:2:0:0:
287,382,102594,1,0,0:0:0:0:
386,232,102730,6,0,B|403:188|375:149|375:149|356:99|400:48,2,180.000006866455,4|4|4,1:0|1:0|1:0,0:0:0:0:
235,212,103821,6,0,L|294:203,1,60.0000022888184,4|2,1:0|3:0,0:0:0:0:
481,123,104094,1,8,3:2:0:0:
468,114,104162,1,0,0:0:0:0:
453,117,104230,1,2,3:2:0:0:
386,232,104366,6,0,L|395:291,1,60.0000022888184,8|2,1:0|1:2,0:0:0:0:
272,118,104639,2,0,L|281:59,1,60.0000022888184,2|2,1:2|1:2,0:0:0:0:
133,336,104912,6,0,B|178:335|219:309|219:309|250:345|306:362,2,180.000006866455,4|4|4,1:0|1:0|1:0,0:0:0:0:
63,94,106139,6,0,B|20:154|20:154|49:256,1,180.000006866455,4|4,1:0|1:0,0:0:0:0:
166,133,106821,2,0,L|157:192,1,60.0000022888184,4|0,1:0|0:0,0:0:0:0:
148,26,107094,6,0,B|201:28|274:2|274:2|247:17|227:52,2,180.000006866455,4|4|4,1:0|1:0|1:0,0:0:0:0:
148,26,108321,5,0,3:0:0:0:
63,94,108457,2,0,L|72:153,1,60.0000022888184,8|0,3:2|3:0,0:0:0:0:
256,184,108730,2,0,L|247:243,1,60.0000022888184,8|2,1:0|3:0,0:0:0:0:
124,293,109003,1,4,1:0:0:0:
126,307,109071,1,2,3:0:0:0:
130,321,109139,1,2,3:0:0:0:
260,271,109275,6,0,B|337:257|337:257|385:290,1,120.000004577637,4|0,1:0|0:0,0:0:0:0:
130,321,109685,2,0,L|68:310,1,60.0000022888184,4|0,1:0|0:0,0:0:0:0:
24,216,109957,2,0,L|83:226,1,60.0000022888184,4|0,1:0|0:0,0:0:0:0:
165,184,110230,1,4,1:0:0:0:
52,41,110366,5,4,1:0:0:0:
