osu file format v14

[General]
AudioFilename: mp3.mp3
AudioLeadIn: 0
PreviewTime: 46003
Countdown: 0
SampleSet: Soft
StackLeniency: 0.2
Mode: 0
LetterboxInBreaks: 0
WidescreenStoryboard: 1

[Editor]
Bookmarks: 10821,22275
DistanceSpacing: 1
BeatDivisor: 4
GridSize: 4
TimelineZoom: 4.899998

[Metadata]
Title:TRICKL4SH 220
TitleUnicode:TRICKL4SH 220
Artist:Lite Show Magic
ArtistUnicode:Lite Show Magic
Creator:Regou
Version:Drop's EXTR4
Source:SOUND VOLTEX IV HEAVENLY HAVEN
Tags:sdvx konami bemani ep m3-36 m3 lsm c.h.s chs comiket chsep-0003 hardcore tano*c happy don't waste me! e.p. c85 t+pazolite c-show [ Drop ] toybot LowComboFC Neoskylove Gloria Guard Priti Avena IntellectualBoy tricklash
BeatmapID:1367861
BeatmapSetID:616696

[Difficulty]
HPDrainRate:6
CircleSize:4
OverallDifficulty:8
ApproachRate:9.3
SliderMultiplier:1.9
SliderTickRate:1

[Events]
//Background and Video events
0,0,"BG1.jpg",0,0
//Break Periods
//Storyboard Layer 0 (Background)
//Storyboard Layer 1 (Fail)
//Storyboard Layer 2 (Pass)
//Storyboard Layer 3 (Foreground)
//Storyboard Sound Samples

[TimingPoints]
185,272.727272727273,4,3,1,70,1,0
185,-133.333333333333,4,3,1,70,0,0
4548,-100,4,3,1,70,0,0
5364,-100,4,3,1,70,0,0
6730,-90.9090909090909,4,3,1,70,0,0
7003,-83.3333333333333,4,3,1,70,0,0
7275,-76.9230769230769,4,3,1,70,0,0
7548,-71.4285714285714,4,3,1,70,0,0
7821,-100,4,3,1,70,0,0
8912,-66.6666666666667,4,2,1,80,0,0
10003,-100,4,3,1,80,0,0
10616,-100,4,3,1,55,0,0
11094,-66.6666666666667,4,2,1,80,0,0
12730,-83.3333333333333,4,2,1,80,0,0
13275,-66.6666666666667,4,2,1,80,0,0
14366,-100,4,3,1,80,0,0
14980,-100,4,3,1,55,0,0
15457,-66.6666666666667,4,2,1,80,0,0
17364,-100,4,2,1,80,0,0
17366,-83.3333333333333,4,3,1,100,0,0
17571,-83.3333333333333,4,3,1,100,0,0
17637,-100,4,3,1,40,0,0
17639,-100,4,3,1,80,0,0
21730,-66.6666666666667,4,3,1,80,0,0
22003,-100,4,3,1,80,0,0
25275,-200,4,3,1,80,0,0
25375,-200,4,3,1,80,0,0
25685,-200,4,3,1,5,0,0
25821,-200,4,3,1,80,0,0
26230,-200,4,3,1,5,0,0
26366,-100,4,3,1,80,0,0
27457,-66.6666666666667,4,3,1,100,0,0
28003,-100,4,3,1,60,0,0
28275,-100,4,3,1,100,0,0
28412,-100,4,3,1,100,0,0
28548,-100,4,3,1,80,0,0
29639,-66.6666666666667,4,3,1,100,0,0
30730,-100,4,3,1,80,0,0
32639,-100,4,3,1,80,0,0
32912,-100,4,2,1,100,0,0
34003,-133.333333333333,4,3,1,80,0,0
34821,-66.6666666666667,4,3,1,80,0,0
35025,-66.6666666666667,4,3,1,20,0,0
35094,-200,4,2,1,60,0,0
39457,-133.333333333333,4,3,1,60,0,0
40001,-133.333333333333,4,3,1,60,0,0
43821,-200,4,2,1,40,0,0
45048,-200,4,2,1,20,0,0
45185,-200,4,2,1,40,0,0
45455,-200,4,2,1,40,0,0
45457,-200,4,2,1,60,0,0
46003,-100,4,3,1,90,0,1
47366,-83.3333333333333,4,3,1,90,0,1
47639,-100,4,3,1,90,0,1
47912,-100,4,3,1,90,0,1
48185,-100,4,1,1,70,0,1
50366,-100,4,3,1,90,0,1
51730,-83.3333333333333,4,3,1,90,0,1
52003,-100,4,3,1,90,0,1
52548,-66.6666666666667,4,2,1,70,0,0
52957,-83.3333333333333,4,2,1,70,0,0
54183,-200,4,2,1,70,0,0
54457,-100,4,2,1,70,0,0
54730,-100,4,3,1,90,0,1
56094,-83.3333333333333,4,3,1,90,0,1
56366,-100,4,3,1,90,0,1
56639,-100,4,3,1,90,0,1
56912,-100,4,1,1,70,0,1
59094,-100,4,3,1,90,0,1
60457,-83.3333333333333,4,3,1,90,0,1
60730,-100,4,3,1,90,0,1
61275,-66.6666666666667,4,2,1,70,0,1
61685,-83.3333333333333,4,2,1,70,0,1
62912,-200,4,2,1,70,0,1
63457,-100,4,3,1,70,0,0
67273,-200,4,3,1,70,0,0
67819,-100,4,3,1,70,0,0
71092,-100,4,3,1,70,0,0
71503,-100,4,3,1,5,0,0
71639,-100,4,3,1,70,0,0
72048,-100,4,3,1,5,0,0
72183,-100,4,3,1,5,0,0
72185,-100,4,3,1,80,0,0
72457,-100,4,3,1,80,0,0
73821,-100,4,3,1,80,0,0
75185,-100,4,3,1,80,0,0
76275,-100,4,3,1,80,0,0
76821,-100,4,3,1,80,0,0
78185,-100,4,3,1,80,0,0
78730,-100,4,3,1,80,0,0
79003,-100,4,3,1,80,0,0
79275,-100,4,3,1,80,0,0
79548,-100,4,3,1,80,0,0
79821,-133.333333333333,4,3,1,80,0,0
80366,-200,4,3,1,80,0,0
80639,-66.6666666666667,4,3,1,80,0,0
80912,-100,4,3,1,80,0,0
82001,-166.666666666667,4,3,1,80,0,0
83092,-100,4,3,1,80,0,0
83503,-100,4,3,1,80,0,0
84185,-66.6666666666667,4,3,1,80,0,0
84212,-66.6666666666667,4,2,1,35,0,0
85003,-66.6666666666667,4,2,1,70,0,0
85139,-66.6666666666667,4,2,1,20,0,0
85275,-100,4,3,1,90,0,1
86639,-83.3333333333333,4,3,1,90,0,1
87185,-100,4,3,1,90,0,1
87457,-100,4,1,1,70,0,1
89637,-100,4,1,1,70,0,1
89639,-100,4,3,1,90,0,1
91003,-83.3333333333333,4,3,1,90,0,1
91275,-100,4,3,1,90,0,1
91821,-66.6666666666667,4,2,1,70,0,0
92230,-66.6666666666667,4,2,1,70,0,0
93455,-200,4,2,1,70,0,0
93728,-100,4,2,1,70,0,0
93730,-100,4,2,1,70,0,0
94003,-100,4,2,1,90,0,1
96185,-83.3333333333333,4,2,1,90,0,1
97275,-100,4,2,1,90,0,1
98366,-100,4,2,1,90,0,1
100275,-100,4,2,1,90,0,1
100546,-66.6666666666667,4,2,1,90,0,1
101503,-66.6666666666667,4,2,1,90,0,1
101775,-200,4,2,1,90,0,1
102730,-66.6666666666667,4,2,1,80,0,0
103821,-100,4,2,1,80,0,0
104912,-66.6666666666667,4,2,1,80,0,0
106548,-83.3333333333333,4,2,1,80,0,0
107094,-66.6666666666667,4,2,1,80,0,0
108185,-100,4,2,1,80,0,0
109275,-66.6666666666667,4,2,1,80,0,0
110503,-66.6666666666667,4,2,1,10,0,0
110637,-100,4,2,1,10,0,0
110639,-100,4,2,1,80,0,0
110776,-100,4,2,1,10,0,0
110912,-100,4,2,1,80,0,0

[Colours]
Combo1 : 128,0,255
Combo2 : 252,226,48
Combo3 : 255,99,23
Combo4 : 255,58,130

[HitObjects]
180,128,185,6,0,L|108:136,2,71.2500027179719,4|0|0,1:0|0:0|0:0,0:0:0:0:
252,52,594,2,0,P|255:31|249:2,2,35.625001358986,0|0|0,0:0|0:0|0:0,0:0:0:0:
252,52,866,1,0,0:0:0:0:
360,188,1003,2,0,P|354:152|356:117,1,71.2500027179719,0|0,0:0|0:0,0:0:0:0:
460,248,1275,5,0,0:0:0:0:
460,248,1344,1,0,0:0:0:0:
460,248,1412,2,0,L|452:328,1,71.2500027179719,0|0,0:0|0:0,0:0:0:0:
272,296,1685,1,0,0:0:0:0:
272,296,1754,1,0,0:0:0:0:
272,296,1822,2,0,L|280:376,1,71.2500027179719,0|0,0:0|0:0,0:0:0:0:
352,192,2094,1,0,0:0:0:0:
334,190,2162,1,0,0:0:0:0:
316,188,2230,1,0,0:0:0:0:
298,186,2298,1,0,0:0:0:0:
280,184,2366,6,0,L|192:176,2,71.2500027179719,0|0|0,0:0|0:0|0:0,0:0:0:0:
224,48,2775,2,0,L|188:51,2,35.625001358986,0|0|0,0:0|0:0|0:0,0:0:0:0:
224,48,3048,1,0,0:0:0:0:
104,96,3185,2,0,P|98:61|98:11,1,71.2500027179719,0|0,0:0|0:0,0:0:0:0:
40,192,3457,2,0,P|41:200|41:213,4,17.812500679493,0|0|0|0|0,0:0|0:0|0:0|0:0|0:0,0:0:0:0:
40,192,3730,5,0,0:0:0:0:
96,348,3866,1,0,0:0:0:0:
68,358,3935,1,0,0:0:0:0:
38,355,4003,1,0,0:0:0:0:
204,296,4139,6,0,L|248:300,5,35.625001358986,4|0|0|0|0|0,1:0|0:0|1:0|1:0|1:0|1:0,0:0:0:0:
292,376,4548,6,0,P|348:304|460:340,1,190,4|0,1:0|0:0,0:0:0:0:
512,192,4957,1,0,0:0:0:0:
512,192,5025,1,0,0:0:0:0:
512,192,5094,2,0,P|452:200|408:216,1,95,0|0,0:0|0:0,0:0:0:0:
292,60,5366,2,0,P|352:52|396:36,1,95,0|0,0:0|0:0,0:0:0:0:
328,284,5639,5,0,0:0:0:0:
328,284,5707,1,0,0:0:0:0:
328,284,5775,2,0,L|320:188,1,95,0|0,0:0|0:0,0:0:0:0:
208,348,6048,1,0,0:0:0:0:
208,348,6116,1,0,0:0:0:0:
208,348,6185,2,0,L|200:252,1,95,0|0,0:0|0:0,0:0:0:0:
76,168,6457,5,0,0:0:0:0:
74,191,6525,1,0,0:0:0:0:
72,215,6593,1,0,0:0:0:0:
70,239,6661,1,0,0:0:0:0:
68,264,6730,6,0,B|96:296|96:296|84:168,1,156.750004783631,4|0,1:0|0:0,0:0:0:0:
176,40,7003,2,0,B|206:4|206:4|189:145,1,170.999994781494,4|0,1:0|0:0,0:0:0:0:
268,264,7275,2,0,B|324:256|324:256|348:264|348:264|368:248|368:248|448:236,1,185.249991519928,4|0,1:0|0:0,0:0:0:0:
404,76,7548,2,0,P|336:56|376:160,1,199.499993911743,4|0,1:0|0:0,0:0:0:0:
444,236,7821,6,0,L|460:136,1,95,0|0,0:0|0:0,0:0:0:0:
264,293,8094,2,0,L|248:199,1,95,0|0,0:0|0:0,0:0:0:0:
458,149,8503,5,4,1:0:0:0:
456,162,8571,1,4,1:0:0:0:
453,177,8639,1,4,1:0:0:0:
451,191,8707,1,4,1:0:0:0:
448,204,8775,1,4,1:0:0:0:
447,219,8843,1,4,1:0:0:0:
445,233,8912,6,0,B|432:320|432:320|320:352|320:352|260:288,1,285.000010871888,4|0,1:0|2:0,0:0:0:0:
308,92,9321,6,0,B|360:40|360:40|348:256,1,285.000010871888,4|0,1:0|0:0,0:0:0:0:
192,352,9730,6,0,B|180:272|180:272|136:216|136:216|128:132,1,213.750008153916,4|0,1:0|0:0,0:0:0:0:
120,144,10003,6,0,L|128:244,1,95,4|4,0:0|0:0,0:0:0:0:
296,204,10275,2,0,L|288:298,1,95,8|4,0:2|0:0,0:0:0:0:
48,68,10548,6,0,P|78:64|113:42,1,47.5,12|0,0:2|0:0,0:0:0:0:
260,128,10685,2,0,P|230:124|195:102,1,47.5,10|0,0:2|2:0,0:0:0:0:
0,140,10821,6,0,P|30:144|65:166,1,47.5,10|0,0:2|2:0,0:0:0:0:
228,28,10957,2,0,P|198:32|163:54,1,47.5,10|0,0:2|2:0,0:0:0:0:
28,316,11094,6,0,B|128:300|128:300|156:220|156:220|264:204,1,285.000010871888,4|0,1:0|0:0,0:0:0:0:
444,336,11503,6,0,P|360:380|404:268,1,285.000010871888,4|0,1:0|0:0,0:0:0:0:
344,76,11912,6,0,P|453:53|391:145,1,285.000010871888,4|0,1:0|0:0,0:0:0:0:
136,312,12321,6,0,B|228:332|228:332|192:292|192:292|220:112,1,285.000010871888,4|0,1:0|0:0,0:0:0:0:
44,16,12730,6,0,P|1:75|96:108,1,170.999994781494,4|0,1:0|0:0,0:0:0:0:
88,244,13003,6,0,B|135:171|135:171|63:122,1,170.999994781494,4|0,1:0|0:0,0:0:0:0:
24,320,13275,6,0,B|92:368|160:316|160:316|224:268|305:318,1,285.000010871888,4|0,1:0|0:0,0:0:0:0:
508,284,13685,6,0,B|400:204|400:204|396:364,1,285.000010871888,4|0,1:0|0:0,0:0:0:0:
240,152,14094,6,0,P|180:88|296:72,1,213.750008153916,4|0,1:0|0:0,0:0:0:0:
288,52,14366,6,0,P|232:48|176:32,1,95,4|4,0:0|0:0,0:0:0:0:
0,128,14639,2,0,P|56:132|112:148,1,95,8|4,0:2|0:0,0:0:0:0:
252,256,14912,6,0,L|257:303,1,47.5,12|0,0:2|0:0,0:0:0:0:
120,316,15048,2,0,L|114:363,1,47.5,10|0,0:2|2:0,0:0:0:0:
264,236,15185,2,0,L|272:308,1,47.5,10|0,0:2|2:0,0:0:0:0:
108,296,15321,2,0,L|102:343,1,47.5,10|0,0:2|2:0,0:0:0:0:
384,376,15457,6,0,B|432:308|380:240|380:240|332:176|382:95,1,285.000010871888,4|0,1:0|0:0,0:0:0:0:
192,32,15866,6,0,B|1:55|1:55|86:101,1,285.000010871888,4|0,1:0|0:0,0:0:0:0:
324,148,16275,6,0,B|515:171|515:171|430:217,1,285.000010871888,4|0,1:0|0:0,0:0:0:0:
160,348,16685,6,0,B|28:276|28:276|192:200,1,285.000010871888,4|0,1:0|0:0,0:0:0:0:
235,280,17094,6,0,B|312:268|312:268|384:288|384:288|456:276,1,213.750008153916,4|0,1:0|0:0,0:0:0:0:
455,283,17366,6,0,P|468:202|383:239,1,170.999994781494,2|0,3:1|0:0,0:0:0:0:
332,356,17639,6,0,L|340:256,1,95,4|0,1:0|0:0,0:0:0:0:
332,248,17844,1,0,0:0:0:0:
332,248,17912,2,0,P|282:259|232:262,1,95,12|0,1:0|0:0,0:0:0:0:
128,204,18185,1,4,1:0:0:0:
220,380,18321,1,0,0:0:0:0:
22,344,18457,2,0,P|70:348|116:360,1,95,12|0,1:0|0:0,0:0:0:0:
32,252,18730,6,0,B|21:206|21:206|32:159,1,95,4|0,1:0|0:0,0:0:0:0:
204,64,19003,2,0,B|214:109|214:109|202:156,1,95,12|0,1:0|0:0,0:0:0:0:
304,268,19275,2,0,L|424:256,1,95,4|0,1:0|0:0,0:0:0:0:
368,120,19548,2,0,L|462:129,1,95,12|0,1:0|0:0,0:0:0:0:
364,352,19821,5,2,1:0:0:0:
184,376,19957,1,2,0:1:0:0:
167,365,20025,2,0,B|122:343|122:343|60:352,1,95,0|2,0:0|0:1,0:0:0:0:
56,356,20230,1,0,0:0:0:0:
118,242,20366,5,6,1:0:0:0:
115,230,20434,1,2,0:2:0:0:
113,218,20502,1,2,0:2:0:0:
111,207,20570,1,2,0:2:0:0:
108,196,20639,2,0,L|144:72,1,95,12|2,1:0|0:0,0:0:0:0:
272,304,20912,6,0,L|120:296,1,142.5,4|0,1:0|0:0,0:0:0:0:
116,316,21185,2,0,L|4:308,1,95,12|0,1:0|0:0,0:0:0:0:
248,192,21457,1,4,1:0:0:0:
248,192,21594,1,2,0:2:0:0:
368,340,21730,6,0,P|472:326|406:254,1,213.750008153916,12|0,1:0|0:0,0:0:0:0:
426,267,22003,6,0,P|418:211|420:156,1,95,4|0,1:0|0:0,0:0:0:0:
432,148,22207,1,0,0:0:0:0:
432,148,22275,2,0,L|336:140,1,95,12|0,1:0|0:0,0:0:0:0:
100,116,22548,1,4,1:0:0:0:
220,236,22685,1,0,0:0:0:0:
248,20,22821,2,0,L|153:27,1,95,12|0,1:0|0:0,0:0:0:0:
56,8,23094,6,0,B|44:54|44:54|68:104,1,95,4|0,1:0|0:0,0:0:0:0:
184,292,23366,2,0,B|172:246|172:246|196:196,1,95,12|0,1:0|0:0,0:0:0:0:
0,232,23639,2,0,L|94:238,1,95,4|0,1:0|0:0,0:0:0:0:
236,44,23912,2,0,L|141:50,1,95,12|0,1:0|0:0,0:0:0:0:
224,192,24185,5,6,1:0:0:0:
320,8,24321,1,2,0:1:0:0:
337,19,24389,2,0,B|382:41|382:41|444:32,1,95,0|2,0:0|0:1,0:0:0:0:
448,28,24594,1,0,0:0:0:0:
478,167,24731,5,6,1:0:0:0:
470,176,24799,1,2,0:2:0:0:
462,185,24867,1,2,0:2:0:0:
455,194,24935,1,2,0:2:0:0:
448,205,25003,2,0,B|442:235|442:235|460:304,1,95,12|2,1:0|3:0,0:0:0:0:
112,84,25275,6,0,B|180:68|180:68|236:96|236:96|292:84,1,190,2|0,0:0|0:0,0:0:0:0:
293,85,26094,1,0,0:0:0:0:
312,260,26366,5,4,1:0:0:0:
484,156,26503,1,0,0:0:0:0:
484,156,26571,1,0,0:0:0:0:
484,156,26639,2,0,P|439:152|380:136,1,95,12|0,1:0|0:0,0:0:0:0:
352,328,26912,1,4,1:0:0:0:
484,276,27048,1,0,0:0:0:0:
240,220,27185,2,0,B|192:212|192:212|148:224|148:224|92:216,1,142.5,12|0,1:0|0:0,0:0:0:0:
85,209,27457,6,0,L|90:291,1,71.2500027179719,6|0,1:0|0:0,0:0:0:0:
64,220,27662,2,0,L|59:148,1,71.2500027179719,6|0,1:0|0:0,0:0:0:0:
40,228,27866,2,0,L|42:299,1,71.2500027179719,6|0,1:0|0:0,0:0:0:0:
200,356,28003,5,2,0:0:0:0:
240,232,28139,1,4,0:0:0:0:
112,112,28275,2,0,L|-4:124,1,95,4|2,0:2|0:1,0:0:0:0:
183,23,28548,6,0,B|228:32|228:32|302:24,1,95,4|0,1:0|0:0,0:0:0:0:
276,26,28753,1,0,0:0:0:0:
276,26,28821,1,12,1:0:0:0:
412,120,28957,1,2,0:0:0:0:
232,196,29094,2,0,B|187:187|187:187|113:195,1,95,4|0,1:0|0:0,0:0:0:0:
432,136,29366,2,0,L|424:41,1,95,12|0,1:0|0:0,0:0:0:0:
232,284,29639,6,0,P|264:298|307:296,1,71.2500027179719,6|0,1:0|0:0,0:0:0:0:
502,367,29775,6,0,P|441:326|352:376,1,142.500005435944,6|2,1:0|0:0,0:0:0:0:
284,224,29980,2,0,B|361:218|361:218|385:229|385:229|409:212|409:212|511:200,1,213.750008153916,6|0,1:0|0:0,0:0:0:0:
280,376,30253,5,4,1:0:0:0:
204,368,30321,2,0,L|128:360,1,71.2500027179719,6|0,1:0|0:0,0:0:0:0:
49,247,30457,6,0,L|125:239,1,71.2500027179719,4|0,1:0|0:0,0:0:0:0:
213,231,30594,2,0,L|289:223,1,71.2500027179719,6|0,1:0|0:0,0:0:0:0:
136,56,30730,5,4,1:0:0:0:
119,239,30866,1,0,0:0:0:0:
119,239,30935,1,0,0:0:0:0:
119,239,31003,2,0,L|131:139,1,95,12|0,1:0|0:0,0:0:0:0:
130,144,31275,1,4,1:0:0:0:
248,4,31411,1,0,0:0:0:0:
369,82,31548,2,0,B|313:99|313:99|220:76,1,142.5,12|0,1:0|0:0,0:0:0:0:
212,68,31821,5,4,1:0:0:0:
316,8,31957,1,0,0:0:0:0:
440,136,32094,2,0,L|432:232,1,95,12|0,1:0|0:0,0:0:0:0:
256,200,32366,2,0,L|264:296,1,95,4|0,1:0|0:0,0:0:0:0:
496,350,32639,2,0,P|436:317|352:336,1,142.5,12|0,1:0|0:0,0:0:0:0:
339,339,32912,5,4,1:0:0:0:
163,224,33048,1,4,1:0:0:0:
352,211,33185,5,4,1:0:0:0:
176,326,33321,1,4,1:0:0:0:
172,86,33457,5,4,1:0:0:0:
348,201,33593,1,4,1:0:0:0:
160,214,33730,5,4,1:0:0:0:
336,99,33866,1,4,1:0:0:0:
256,272,34003,6,0,L|252:184,1,71.2500027179719,0|0,0:0|0:0,0:0:0:0:
104,368,34275,1,0,0:0:0:0:
104,368,34412,6,0,L|100:280,1,71.2500027179719,0|0,0:0|0:0,0:0:0:0:
88,93,34684,1,0,0:0:0:0:
88,93,34821,6,0,P|134:176|48:152,1,213.750008153916,2|0,1:3|0:0,0:0:0:0:
88,93,35094,6,0,B|128:63|186:64|223:112|223:112|258:152|312:154|352:120,1,285,0|0,0:0|0:0,0:0:0:0:
440,40,36048,1,0,0:0:0:0:
342,126,36185,6,0,P|332:210|329:325,1,190,0|0,0:0|0:0,0:0:0:0:
328,315,37275,6,0,L|476:306,1,142.5,0|0,0:0|0:0,0:0:0:0:
470,306,38094,1,0,0:0:0:0:
288,364,38366,6,0,P|240:324|156:336,1,142.5,0|0,0:0|0:0,0:0:0:0:
96,364,38844,1,0,0:0:0:0:
84,356,38912,2,0,L|92:252,1,95,0|0,0:0|0:0,0:0:0:0:
91,261,39321,1,2,3:0:0:0:
24,144,39457,6,0,B|104:132|104:132|176:160,2,142.500005435944,0|0|8,1:0|0:0|1:0,0:0:0:0:
24,144,40275,1,4,0:0:0:0:
24,144,40412,1,0,0:0:0:0:
208,64,40548,6,0,P|267:76|328:24,2,142.500005435944,8|2|8,0:0|0:1|1:0,0:0:0:0:
208,64,41366,1,4,0:0:0:0:
208,64,41503,1,0,0:0:0:0:
352,168,41639,6,0,B|403:162|403:162|445:175|445:175|506:169,1,142.500005435944,8|0,0:0|0:0,0:0:0:0:
479,250,42048,2,0,B|444:258|444:258|410:249,2,71.2500027179719,0|8|0,0:0|0:1|0:0,0:0:0:0:
428,336,42457,1,0,0:0:0:0:
160,168,42730,6,0,B|109:162|109:162|67:175|67:175|6:169,1,142.500005435944,8|0,0:0|0:0,0:0:0:0:
33,250,43139,2,0,B|68:258|68:258|102:249,2,71.2500027179719,0|8|0,0:0|0:1|0:0,0:0:0:0:
84,336,43548,1,0,0:0:0:0:
76,348,43685,1,0,0:0:0:0:
256,368,43821,6,0,B|318:345|338:268|320:188|264:156|204:180|160:204|152:288|216:332|264:304|288:260,1,427.5,0|0,0:1|0:0,0:0:0:0:
284,265,45457,6,0,L|279:147,1,95,4|4,1:2|1:2,0:0:0:0:
279,170,46003,5,6,1:0:0:0:
464,232,46139,1,0,0:0:0:0:
464,232,46207,1,0,0:0:0:0:
464,232,46275,2,0,P|415:227|364:228,1,95,12|2,1:0|0:1,0:0:0:0:
228,64,46548,1,4,1:0:0:0:
275,60,46616,1,0,0:0:0:0:
322,56,46684,1,0,0:0:0:0:
370,52,46752,1,0,0:0:0:0:
417,49,46821,2,0,P|464:49|511:44,1,95,12|2,1:0|0:1,0:0:0:0:
292,184,47094,6,0,P|216:196|160:132,1,142.5,4|0,1:0|2:0,0:0:0:0:
168,140,47366,6,0,P|218:202|190:287,1,170.999994781494,14|0,1:1|2:0,0:0:0:0:
108,288,47639,5,4,1:0:0:0:
84,284,47707,1,0,0:0:0:0:
60,281,47775,1,0,0:0:0:0:
37,277,47843,1,0,2:0:0:0:
12,274,47912,2,0,B|4:232|4:232|31:155,1,95,14|0,1:0|0:0,0:0:0:0:
288,344,48185,5,4,1:0:0:0:
112,368,48321,1,2,0:2:0:0:
312,368,48457,1,12,1:0:0:0:
180,132,48594,5,2,0:2:0:0:
196,240,48730,1,4,1:0:0:0:
212,348,48866,1,2,0:2:0:0:
172,152,49003,5,12,1:0:0:0:
188,260,49139,1,2,0:2:0:0:
368,40,49275,5,4,1:0:0:0:
352,148,49411,1,2,0:2:0:0:
336,256,49547,1,12,1:0:0:0:
320,364,49685,1,2,0:2:0:0:
428,224,49821,1,4,1:0:0:0:
253,201,49957,1,2,0:2:0:0:
253,201,50025,1,0,0:0:0:0:
253,201,50094,2,0,P|183:205|92:224,1,142.5,12|0,1:0|0:0,0:0:0:0:
92,228,50366,5,6,1:0:0:0:
216,376,50503,1,0,0:0:0:0:
216,376,50571,1,0,0:0:0:0:
216,376,50639,2,0,L|223:281,1,95,12|2,1:0|0:1,0:0:0:0:
76,52,50912,1,4,1:0:0:0:
96,94,50980,1,0,0:0:0:0:
135,120,51048,1,0,0:0:0:0:
181,123,51116,1,0,0:0:0:0:
223,102,51185,2,0,P|268:92|317:109,1,95,12|2,1:1|0:1,0:0:0:0:
464,224,51457,6,0,B|416:256|416:256|296:236,1,142.5,4|0,1:0|2:0,0:0:0:0:
312,236,51730,6,0,B|420:217|420:217|483:259,1,170.999994781494,14|0,1:1|2:1,0:0:0:0:
376,348,52003,5,4,1:0:0:0:
352,346,52071,1,0,0:0:0:0:
328,344,52139,1,0,0:0:0:0:
304,343,52207,1,0,0:0:0:0:
281,342,52275,2,0,L|176:356,1,95,14|0,1:0|0:1,0:0:0:0:
40,188,52548,6,0,P|123:179|172:232,1,142.500005435944,6|0,1:0|0:0,0:0:0:0:
169,234,52957,6,0,P|171:203|178:173,1,56.9999982604981,6|0,1:0|0:0,0:0:0:0:
40,60,53230,2,0,P|65:77|88:98,1,56.9999982604981,6|0,1:0|0:0,0:0:0:0:
255,35,53503,2,0,P|227:48|197:57,1,56.9999982604981,6|0,1:0|0:0,0:0:0:0:
155,110,53775,5,4,1:0:0:0:
272,152,53912,1,4,1:0:0:0:
384,16,54048,1,0,3:0:0:0:
496,144,54185,6,0,P|449:150|395:118,1,95,4|4,1:2|1:2,0:0:0:0:
404,121,54730,5,6,1:0:0:0:
472,356,54866,1,0,0:0:0:0:
472,356,54935,1,0,0:0:0:0:
472,356,55003,2,0,L|484:245,1,95,12|2,1:0|0:1,0:0:0:0:
268,96,55275,1,4,1:0:0:0:
273,143,55343,1,0,0:0:0:0:
278,190,55411,1,0,0:0:0:0:
283,237,55479,1,0,0:0:0:0:
288,284,55548,2,0,B|241:297|241:297|177:272,1,95,12|2,1:0|0:1,0:0:0:0:
56,156,55821,6,0,B|160:140|160:140|136:172,1,142.5,4|0,1:0|2:0,0:0:0:0:
60,240,56094,6,0,B|21:269|21:269|42:133,1,170.999994781494,14|0,1:1|2:1,0:0:0:0:
103,61,56366,5,4,1:0:0:0:
126,58,56434,1,0,0:0:0:0:
150,56,56502,1,0,0:0:0:0:
173,53,56570,1,0,0:0:0:0:
198,52,56639,2,0,L|304:68,1,95,14|0,1:0|0:0,0:0:0:0:
476,136,56912,5,4,1:0:0:0:
360,156,57048,1,2,0:2:0:0:
400,45,57185,1,12,1:0:0:0:
436,247,57321,5,2,0:2:0:0:
320,267,57457,1,4,1:0:0:0:
360,156,57594,1,2,0:2:0:0:
396,358,57730,5,12,1:0:0:0:
280,378,57866,1,2,0:2:0:0:
128,212,58003,5,4,1:0:0:0:
244,232,58139,1,2,0:2:0:0:
360,252,58275,1,12,1:0:0:0:
476,272,58412,1,2,0:2:0:0:
336,160,58548,1,4,1:0:0:0:
280,368,58685,1,2,0:2:0:0:
280,368,58753,1,0,0:0:0:0:
280,368,58821,2,0,L|432:356,1,142.5,12|0,1:0|0:0,0:0:0:0:
443,354,59094,5,6,1:0:0:0:
296,264,59230,1,0,0:0:0:0:
296,264,59298,1,0,0:0:0:0:
296,264,59366,2,0,P|250:273|196:292,1,95,12|2,1:0|0:1,0:0:0:0:
0,216,59639,1,4,1:0:0:0:
44,228,59707,1,0,2:0:0:0:
90,219,59775,1,0,0:0:0:0:
127,190,59843,1,0,0:0:0:0:
147,147,59912,2,0,P|145:105|123:46,1,95,12|2,1:0|0:1,0:0:0:0:
400,88,60185,6,0,B|352:96|352:96|304:84|304:84|248:92,1,142.5,4|0,1:0|0:0,0:0:0:0:
244,80,60457,6,0,B|301:71|301:71|363:87|363:87|425:77,1,170.999994781494,14|0,1:1|2:1,0:0:0:0:
484,188,60730,5,4,1:0:0:0:
460,186,60798,1,0,0:0:0:0:
436,184,60866,1,0,0:0:0:0:
412,182,60934,1,0,0:0:0:0:
391,182,61003,2,0,B|340:189|340:189|284:160,1,95,14|0,1:0|0:0,0:0:0:0:
185,352,61275,6,0,P|261:367|312:280,1,142.500005435944,6|0,1:0|0:0,0:0:0:0:
304,312,61685,6,0,P|310:340|311:377,1,56.9999982604981,6|0,1:0|0:0,0:0:0:0:
200,236,61957,2,0,P|172:227|140:209,1,56.9999982604981,6|0,1:0|0:0,0:0:0:0:
317,183,62230,2,0,P|338:163|369:144,1,56.9999982604981,6|0,1:0|0:0,0:0:0:0:
276,248,62503,5,0,0:0:0:0:
248,108,62639,1,0,0:0:0:0:
100,184,62775,1,0,0:0:0:0:
72,44,62912,6,0,L|168:36,1,95,0|0,0:0|0:0,0:0:0:0:
168,24,63457,6,0,P|225:30|275:43,1,95,0|0,1:0|0:0,0:0:0:0:
261,38,63662,1,0,0:0:0:0:
261,38,63730,1,0,0:0:0:0:
147,235,63866,1,0,0:0:0:0:
48,120,64003,2,0,L|40:4,1,95,0|0,0:0|0:0,0:0:0:0:
280,172,64275,2,0,L|288:288,1,95,0|0,0:0|0:0,0:0:0:0:
56,236,64548,6,0,B|84:248|84:248|168:232,1,95,0|0,0:0|0:0,0:0:0:0:
147,236,64753,1,0,0:0:0:0:
147,236,64821,1,0,0:0:0:0:
44,144,64957,1,0,0:0:0:0:
0,352,65094,1,0,0:0:0:0:
93,334,65230,1,0,0:0:0:0:
224,380,65366,1,0,0:0:0:0:
317,362,65502,1,0,0:0:0:0:
407,184,65639,6,0,P|399:230|396:284,1,95,0|0,1:0|0:0,0:0:0:0:
492,216,65844,1,0,0:0:0:0:
500,204,65912,2,0,P|497:156|488:109,1,95,8|2,1:0|0:0,0:0:0:0:
332,24,66185,6,0,L|340:93,1,47.5,2|0,1:1|0:0,0:0:0:0:
316,0,66321,2,0,L|324:69,1,47.5,2|0,0:1|0:0,0:0:0:0:
264,168,66457,6,0,L|256:99,1,47.5,8|0,1:0|0:0,0:0:0:0:
248,144,66594,2,0,L|240:75,1,47.5,2|0,0:1|0:0,0:0:0:0:
88,132,66730,6,0,L|82:179,1,47.5,0|0,1:0|0:0,0:0:0:0:
104,160,66866,2,0,L|98:207,1,47.5,2|0,0:0|0:0,0:0:0:0:
176,336,67003,6,0,L|170:288,1,47.5,8|0,1:0|0:0,0:0:0:0:
196,312,67139,2,0,L|190:264,1,47.5,2|0,0:1|0:0,0:0:0:0:
98,207,67275,6,0,L|31:198,3,47.5,2|0|2|0,1:2|0:0|1:2|0:0,0:0:0:0:
138,343,67821,6,0,B|182:347|182:347|236:324,1,95,0|0,1:0|0:0,0:0:0:0:
228,327,68025,1,0,0:0:0:0:
228,327,68094,1,0,0:0:0:0:
306,223,68230,1,0,0:0:0:0:
216,208,68366,2,0,B|260:204|260:204|314:227,1,95,0|0,0:0|0:0,0:0:0:0:
460,344,68639,2,0,L|352:352,1,95,0|0,0:0|0:0,0:0:0:0:
512,184,68912,6,0,L|417:176,1,95,0|0,0:0|0:0,0:0:0:0:
417,176,69116,1,0,0:0:0:0:
417,176,69185,1,0,0:0:0:0:
480,84,69321,1,0,0:0:0:0:
352,276,69457,1,0,0:0:0:0:
446,266,69593,1,0,0:0:0:0:
320,108,69730,1,0,0:0:0:0:
225,117,69866,1,0,0:0:0:0:
172,352,70003,6,0,P|220:346|272:342,1,95,0|0,1:0|0:0,0:0:0:0:
72,216,70207,1,0,0:0:0:0:
88,232,70275,2,0,P|136:238|188:242,1,95,8|2,1:0|0:0,0:0:0:0:
456,204,70548,6,0,L|464:135,1,47.5,2|0,1:0|0:0,0:0:0:0:
388,60,70684,2,0,L|380:129,1,47.5,2|0,0:1|0:0,0:0:0:0:
308,216,70821,2,0,L|316:147,1,47.5,8|0,1:0|0:0,0:0:0:0:
240,72,70957,2,0,L|232:141,1,47.5,2|0,0:1|0:0,0:0:0:0:
8,176,71094,5,2,0:0:0:0:
84,136,71230,1,0,0:0:0:0:
170,156,71366,1,0,0:0:0:0:
226,223,71503,1,0,2:0:0:0:
282,290,71639,1,4,0:0:0:0:
368,310,71775,1,0,0:0:0:0:
444,270,71911,1,0,0:0:0:0:
376,228,72048,1,0,2:0:0:0:
227,360,72185,6,0,P|161:339|93:369,1,142.5,0|0,1:0|0:0,0:0:0:0:
88,377,72457,2,0,L|104:264,1,95,8|0,1:2|0:0,0:0:0:0:
120,144,72730,1,0,1:0:0:0:
208,252,72866,1,0,0:0:0:0:
12,224,73003,2,0,L|28:111,1,95,8|0,1:2|0:0,0:0:0:0:
217,161,73275,6,0,B|225:208|225:208|205:258,1,95,0|0,1:0|0:0,0:0:0:0:
120,144,73548,2,0,B|112:97|112:97|132:47,1,95,8|0,1:2|0:0,0:0:0:0:
240,340,73821,6,0,L|112:324,1,95,0|0,1:0|0:0,0:0:0:0:
217,161,74094,2,0,L|345:177,1,95,8|0,1:2|0:0,0:0:0:0:
380,312,74366,5,2,1:0:0:0:
452,80,74503,1,2,0:2:0:0:
464,100,74571,2,0,B|484:148|484:148|468:204,1,95,2|2,0:1|0:2,0:0:0:0:
460,209,74775,1,2,0:1:0:0:
228,32,74912,5,2,1:1:0:0:
237,40,74980,1,2,0:2:0:0:
246,48,75048,1,0,2:2:0:0:
255,55,75116,1,0,2:2:0:0:
266,62,75184,2,0,B|365:50,1,95,8|0,1:2|0:0,0:0:0:0:
204,159,75457,6,0,B|99:140|99:140|44:164,2,142.5,0|0|0,1:0|0:0|0:0,0:0:0:0:
172,48,76003,5,2,1:0:0:0:
172,48,76139,1,2,0:1:0:0:
296,224,76275,2,0,P|307:277|246:354,1,142.5,14|0,1:2|1:0,0:0:0:0:
228,360,76548,6,0,L|127:348,1,95,4|0,1:0|0:0,0:0:0:0:
160,204,76821,2,0,L|65:215,1,95,8|0,0:2|0:0,0:0:0:0:
232,56,77094,6,0,B|250:99|250:99|233:172,1,95,0|0,0:0|0:0,0:0:0:0:
380,284,77366,2,0,B|362:241|362:241|379:168,1,95,8|0,0:2|0:0,0:0:0:0:
440,64,77639,5,0,0:0:0:0:
464,216,77775,1,0,0:0:0:0:
296,360,77912,1,8,0:2:0:0:
272,208,78048,1,0,0:0:0:0:
480,384,78185,5,0,0:0:0:0:
385,375,78321,1,0,0:0:0:0:
224,288,78457,1,8,0:2:0:0:
129,295,78593,1,0,0:0:0:0:
392,208,78730,5,4,1:0:0:0:
209,179,78866,1,4,1:0:0:0:
392,208,79003,1,4,1:0:0:0:
209,179,79139,1,4,1:0:0:0:
286,281,79275,5,4,1:0:0:0:
315,99,79411,1,4,1:0:0:0:
286,281,79548,1,4,1:0:0:0:
315,99,79684,1,4,1:0:0:0:
212,256,79821,6,0,B|204:296|204:296|226:338,1,71.2500027179719,0|0,1:0|0:0,0:0:0:0:
286,281,80094,1,0,0:0:0:0:
286,281,80230,1,0,0:0:0:0:
108,256,80366,6,0,P|107:223|100:183,1,71.25,6|0,1:2|0:0,0:0:0:0:
84,76,80639,6,0,P|77:168|157:111,1,213.750008153916,2|0,1:1|0:0,0:0:0:0:
104,56,80912,6,0,L|6:66,1,95,4|0,1:0|0:0,0:0:0:0:
308,212,81185,2,0,L|213:202,1,95,0|0,0:0|0:0,0:0:0:0:
264,48,81457,1,0,0:0:0:0:
304,72,81525,1,0,0:0:0:0:
351,76,81593,1,0,0:0:0:0:
394,58,81661,1,0,0:0:0:0:
425,22,81730,2,0,P|410:89|410:136,1,95,2|2,0:1|0:2,0:0:0:0:
475,294,82003,5,0,0:0:0:0:
352,308,82139,1,0,0:0:0:0:
481,305,82275,5,0,0:0:0:0:
345,296,82411,1,0,0:0:0:0:
208,376,82548,6,0,L|236:372,4,28.4999991302491,0|0|0|0|0,0:0|0:0|0:0|0:0|0:0,0:0:0:0:
84,308,82957,1,0,0:0:0:0:
133,126,83094,6,0,P|142:174|144:244,1,95,4|0,1:0|0:0,0:0:0:0:
72,44,83366,1,0,0:0:0:0:
72,44,83503,2,0,L|192:24,1,95,4|0,1:0|0:0,0:0:0:0:
48,176,83775,1,4,1:0:0:0:
264,196,83912,1,0,0:0:0:0:
48,176,84048,1,4,1:0:0:0:
294,81,84185,6,0,B|370:100|450:19|450:19|366:95|315:194|283:307|347:350|414:379|508:372|592:305|538:155|474:147|424:164,1,855.000032615663,6|12,1:1|1:3,0:0:0:0:
428,248,85275,6,0,L|312:256,1,95,6|0,1:0|0:0,0:0:0:0:
240,368,85548,2,0,L|145:361,1,95,12|2,1:0|0:1,0:0:0:0:
8,232,85821,1,4,1:0:0:0:
52,245,85889,1,0,0:0:0:0:
99,237,85957,1,0,0:0:0:0:
137,209,86025,1,0,0:0:0:0:
160,162,86094,2,0,P|164:113|149:58,1,95,12|2,1:0|0:1,0:0:0:0:
400,132,86366,6,0,P|342:99|265:119,1,142.5,4|0,1:0|2:0,0:0:0:0:
252,130,86639,6,0,P|333:123|367:16,1,170.999994781494,14|0,1:1|0:1,0:0:0:0:
290,58,86912,5,4,1:0:0:0:
293,86,86980,1,0,0:0:0:0:
297,114,87048,1,0,0:1:0:0:
300,142,87116,1,0,0:0:0:0:
304,171,87185,2,0,L|291:275,1,95,14|0,1:1|0:0,0:0:0:0:
448,328,87457,5,4,1:0:0:0:
348,340,87594,1,2,0:2:0:0:
248,352,87730,1,12,1:0:0:0:
20,224,87866,5,2,0:2:0:0:
120,236,88002,1,4,1:0:0:0:
220,248,88139,1,2,0:2:0:0:
424,152,88275,5,12,1:0:0:0:
324,164,88412,1,2,0:2:0:0:
64,112,88548,5,4,1:0:0:0:
84,5,88684,1,2,0:2:0:0:
190,25,88820,1,12,1:0:0:0:
169,133,88957,1,2,0:2:0:0:
64,112,89094,1,4,1:0:0:0:
246,93,89230,1,2,0:2:0:0:
246,93,89298,1,0,0:0:0:0:
246,93,89366,2,0,L|376:80,1,95,12|0,1:0|0:0,0:0:0:0:
432,232,89639,6,0,L|337:222,1,95,6|0,1:0|0:0,0:0:0:0:
284,356,89912,2,0,B|330:364|330:364|375:347,1,95,12|2,1:0|0:1,0:0:0:0:
232,180,90185,1,4,1:0:0:0:
188,163,90253,1,0,0:0:0:0:
141,170,90321,1,0,0:0:0:0:
104,199,90389,1,0,0:0:0:0:
86,242,90457,2,0,B|76:292|76:292|96:344,1,95,12|2,1:0|0:1,0:0:0:0:
316,268,90730,6,0,B|272:259|272:259|230:274|230:274|177:266,1,142.5,4|0,1:0|2:0,0:0:0:0:
160,264,91003,6,0,B|223:254|223:254|274:272|274:272|326:262,1,170.999994781494,14|0,1:1|2:0,0:0:0:0:
389,205,91275,5,4,1:0:0:0:
390,181,91343,1,0,0:0:0:0:
392,157,91411,1,0,0:1:0:0:
394,133,91479,1,0,0:0:0:0:
397,108,91548,2,0,B|411:59|411:59|392:16,1,95,12|2,1:0|0:1,0:0:0:0:
172,72,91821,6,0,B|196:69|196:69|205:63|205:63|221:69|221:69|333:60,1,142.500005435944,6|0,1:0|0:0,0:0:0:0:
176,196,92230,6,0,P|152:178|89:163,1,71.2500027179719,6|0,1:0|0:0,0:0:0:0:
116,332,92503,2,0,P|143:320|188:273,1,71.2500027179719,6|0,1:0|0:0,0:0:0:0:
28,212,92775,2,0,P|24:241|42:303,1,71.2500027179719,6|0,1:0|0:0,0:0:0:0:
104,244,93048,5,0,0:0:0:0:
36,124,93185,1,0,0:0:0:0:
116,20,93321,1,0,0:0:0:0:
244,136,93457,6,0,L|132:132,1,95,0|14,0:0|1:3,0:0:0:0:
140,120,94003,5,4,1:0:0:0:
162,212,94140,1,4,1:0:0:0:
255,189,94276,1,12,1:0:0:0:
232,97,94412,1,4,1:0:0:0:
120,175,94548,5,4,1:0:0:0:
179,249,94685,1,4,1:0:0:0:
253,189,94821,1,12,1:0:0:0:
194,116,94957,1,4,1:0:0:0:
126,234,95094,5,4,1:0:0:0:
210,276,95231,1,4,1:0:0:0:
205,183,95366,1,12,1:0:0:0:
20,216,95503,5,4,1:0:0:0:
24,251,95571,1,4,1:0:0:0:
29,286,95639,1,4,1:0:0:0:
149,372,95775,1,4,1:0:0:0:
149,372,95912,2,0,P|196:371|243:367,1,95,12|4,1:0|1:0,0:0:0:0:
292,240,96185,6,0,L|120:216,2,170.999994781494,4|12|4,1:0|1:0|1:0,0:0:0:0:
244,368,96730,6,0,L|416:344,2,170.999994781494,4|12|4,1:0|1:0|1:0,0:0:0:0:
372,116,97275,6,0,L|388:232,1,95,4|4,1:0|1:0,0:0:0:0:
512,272,97548,2,0,L|496:388,1,95,4|4,1:0|1:0,0:0:0:0:
280,216,97821,1,4,1:0:0:0:
372,116,97957,1,0,0:0:0:0:
372,116,98025,1,0,0:0:0:0:
372,116,98094,2,0,L|488:132,1,95,14|0,1:0|0:0,0:0:0:0:
208,16,98366,5,4,1:0:0:0:
140,83,98503,1,4,1:0:0:0:
208,150,98639,1,12,1:0:0:0:
275,83,98775,1,4,1:0:0:0:
138,52,98912,5,4,1:0:0:0:
104,142,99049,1,4,1:0:0:0:
194,174,99185,1,12,1:0:0:0:
227,85,99321,1,4,1:0:0:0:
89,114,99457,5,4,1:0:0:0:
97,210,99594,1,4,1:0:0:0:
192,201,99730,1,12,1:0:0:0:
184,107,99866,1,4,1:0:0:0:
16,256,100003,5,4,1:0:0:0:
16,256,100071,1,0,0:0:0:0:
16,256,100139,1,4,1:0:0:0:
16,256,100275,2,0,L|28:360,1,95,14|0,1:0|0:0,0:0:0:0:
262,311,100548,6,0,P|206:269|124:296,1,142.500005435944,6|0,1:0|0:0,0:0:0:0:
196,192,100957,6,0,P|240:198|277:221,1,71.2500027179719,6|0,1:0|0:0,0:0:0:0:
352,148,101230,2,0,P|335:106|336:63,1,71.2500027179719,6|0,1:0|0:0,0:0:0:0:
236,35,101503,2,0,P|208:70|170:90,1,71.2500027179719,2|0,1:0|0:0,0:0:0:0:
260,124,101775,5,4,1:0:0:0:
420,100,101912,1,0,1:0:0:0:
260,124,102048,1,0,1:0:0:0:
480,164,102185,2,0,P|505:111|495:56,1,95,2|6,1:2|1:2,0:0:0:0:
420,100,102730,6,0,B|457:312|457:312|496:228,1,285.000010871888,4|0,1:0|0:0,0:0:0:0:
208,336,103139,6,0,B|245:124|245:124|284:208,1,285.000010871888,4|0,1:0|0:0,0:0:0:0:
308,280,103548,6,0,B|232:272|232:272|168:296|168:296|84:288,1,213.750008153916,4|0,1:0|0:0,0:0:0:0:
84,279,103821,6,0,L|95:381,1,95,4|2,1:0|3:0,0:0:0:0:
220,304,104094,2,0,L|231:202,1,95,8|2,3:2|3:2,0:0:0:0:
112,44,104366,6,0,L|44:52,1,47.5,8|0,1:0|0:0,0:0:0:0:
80,164,104503,2,0,L|12:172,1,47.5,2|0,1:2|0:0,0:0:0:0:
132,24,104639,6,0,L|84:29,1,47.5,2|0,1:2|0:0,0:0:0:0:
100,144,104775,2,0,L|52:149,1,47.5,2|0,1:2|0:0,0:0:0:0:
204,52,104912,6,0,B|384:-8|342:138|511:66,1,320.625012230874,4|0,1:0|0:0,0:0:0:0:
264,252,105321,6,0,P|215:179|329:217,1,285.000010871888,4|0,1:0|0:0,0:0:0:0:
480,320,105730,6,0,B|305:262|384:392|206:344,1,285.000010871888,4|0,1:0|0:0,0:0:0:0:
44,228,106139,6,0,B|89:205|107:162|107:162|76:364,1,285.000010871888,4|0,1:0|0:0,0:0:0:0:
169,113,106548,6,0,P|92:86|30:139,1,170.999994781494,4|0,1:0|0:0,0:0:0:0:
169,113,106821,6,0,P|246:139|308:87,1,170.999994781494,4|0,1:0|0:0,0:0:0:0:
232,56,107094,6,0,B|216:176|216:176|240:224|240:224|220:372,1,285.000010871888,4|0,1:0|0:0,0:0:0:0:
348,252,107503,6,0,P|428:177|313:182,1,285.000010871888,4|0,1:0|0:0,0:0:0:0:
64,328,107912,6,0,B|43:300|4:278|4:278|68:316|145:313,1,213.750008153916,4|0,1:0|0:0,0:0:0:0:
142,320,108321,6,0,P|148:263|152:212,1,95,0|8,3:0|3:2,0:0:0:0:
104,64,108594,1,0,3:0:0:0:
0,140,108730,6,0,L|73:130,1,47.5,8|0,1:0|0:0,0:0:0:0:
176,148,108866,2,0,L|249:138,1,47.5,2|0,3:0|0:0,0:0:0:0:
352,156,109003,2,0,L|425:146,2,47.5,4|2|2,1:0|3:0|3:0,0:0:0:0:
424,76,109275,6,0,B|496:20|496:20|452:268,1,285.000010871888,4|0,1:0|0:0,0:0:0:0:
296,336,109685,6,0,B|346:375|346:375|315:201,1,213.750008153916,4|0,1:0|0:0,0:0:0:0:
200,148,109957,6,0,B|250:108|250:108|219:282,1,213.750008153916,4|0,1:0|0:0,0:0:0:0:
152,316,110230,5,4,1:0:0:0:
120,44,110366,1,4,1:0:0:0:
