osu file format v14

[General]
AudioFilename: audio.mp3
AudioLeadIn: 0
PreviewTime: 45935
Countdown: 0
SampleSet: Normal
StackLeniency: 0.7
Mode: 1
LetterboxInBreaks: 0
WidescreenStoryboard: 1

[Editor]
DistanceSpacing: 0.9
BeatDivisor: 2
GridSize: 32
TimelineZoom: 1.7

[Metadata]
Title:TRICKL4SH 220
TitleUnicode:TRICKL4SH 220
Artist:Lite Show Magic
ArtistUnicode:Lite Show Magic
Creator:Monstrata
Version:hikiko's Oni
Source:SOUND VOLTEX IV HEAVENLY HAVEN
Tags:tricklash t+pazolite vs C-Show KinomiCandy Midnaait hikikochan TKS MMzz mittenmasterzz SDVX KONAMI BEMANI Don't waste me! E.P. EP M3-36 M3 HARDCORE Happy Hardcore Speedcore Lick Dom Records
BeatmapID:1461317
BeatmapSetID:690470

[Difficulty]
HPDrainRate:5
CircleSize:2
OverallDifficulty:6
ApproachRate:5
SliderMultiplier:1.4
SliderTickRate:1

[Events]
//Background and Video events
0,0,"BG420-.png",0,120
//Break Periods
//Storyboard Layer 0 (Background)
//Storyboard Layer 1 (Fail)
//Storyboard Layer 2 (Pass)
//Storyboard Layer 3 (Foreground)
//Storyboard Sound Samples

[TimingPoints]
185,272.727272727273,4,1,0,90,1,0
8912,-83.3333333333333,4,1,0,90,0,0
10003,-100,4,1,0,90,0,0
11094,-83.3333333333333,4,1,0,90,0,0
14366,-100,4,1,0,90,0,0
15457,-83.3333333333333,4,1,0,90,0,0
17366,-66.6666666666667,4,1,0,90,0,0
17639,-100,4,1,0,90,0,0
25548,-111.111111111111,4,1,0,90,0,0
26366,-100,4,1,0,90,0,0
27457,-83.3333333333333,4,1,0,90,0,0
28003,-100,4,1,0,90,0,0
29639,-83.3333333333333,4,1,0,90,0,0
30253,-100,4,1,0,90,0,0
35912,-125,4,1,0,90,0,0
39457,-111.111111111111,4,1,0,90,0,0
45457,-105.263157894737,4,1,0,90,0,0
46003,-100,4,1,0,100,0,1
52548,-83.3333333333333,4,1,0,100,0,1
53639,-100,4,1,0,100,0,1
61275,-83.3333333333333,4,1,0,100,0,1
62366,-100,4,1,0,100,0,1
63457,-100,4,1,0,90,0,0
71366,-111.111111111111,4,1,0,90,0,0
72048,-100,4,1,0,90,0,0
84116,-80,4,1,0,90,0,0
85275,-100,4,1,0,100,0,1
91753,-83.3333333333333,4,1,0,100,0,1
92912,-100,4,1,0,100,0,1
100548,-83.3333333333333,4,1,0,100,0,1
101639,-100,4,1,0,100,0,1
102730,-83.3333333333333,4,1,0,90,0,0
103821,-100,4,1,0,90,0,0
104912,-83.3333333333333,4,1,0,90,0,0
108048,-100,4,1,0,90,0,0
109275,-83.3333333333333,4,1,0,90,0,0

[HitObjects]
256,192,185,5,4,0:0:0:0:
256,192,457,1,8,0:0:0:0:
256,192,730,1,0,0:0:0:0:
256,192,866,1,8,0:0:0:0:
256,192,1139,1,8,0:0:0:0:
256,192,1275,1,0,0:0:0:0:
256,192,1548,1,8,0:0:0:0:
256,192,1685,1,0,0:0:0:0:
256,192,1821,1,0,0:0:0:0:
256,192,1957,1,8,0:0:0:0:
256,192,2230,1,8,0:0:0:0:
256,192,2366,1,0,0:0:0:0:
256,192,2639,1,8,0:0:0:0:
256,192,2912,1,0,0:0:0:0:
256,192,3048,1,8,0:0:0:0:
256,192,3321,1,8,0:0:0:0:
256,192,3457,1,0,0:0:0:0:
256,192,3730,1,8,0:0:0:0:
256,192,3866,1,0,0:0:0:0:
256,192,4003,1,0,0:0:0:0:
256,192,4139,1,12,0:0:0:0:
256,192,4275,1,0,0:0:0:0:
256,192,4344,1,0,0:0:0:0:
256,192,4412,1,8,0:0:0:0:
256,192,4548,1,4,0:0:0:0:
256,192,4821,1,8,0:0:0:0:
256,192,4957,1,8,0:0:0:0:
256,192,5094,1,0,0:0:0:0:
256,192,5230,1,8,0:0:0:0:
256,192,5503,1,8,0:0:0:0:
256,192,5639,1,0,0:0:0:0:
256,192,5775,1,0,0:0:0:0:
256,192,5912,1,8,0:0:0:0:
256,192,6048,1,0,0:0:0:0:
256,192,6185,1,8,0:0:0:0:
256,192,6321,1,8,0:0:0:0:
256,192,6594,1,8,0:0:0:0:
256,192,6730,1,4,0:0:0:0:
256,192,7003,1,4,0:0:0:0:
256,192,7275,1,4,0:0:0:0:
256,192,7548,1,4,0:0:0:0:
256,192,7821,1,0,0:0:0:0:
256,192,8094,1,0,0:0:0:0:
256,192,8230,1,8,0:0:0:0:
256,192,8503,1,12,0:0:0:0:
256,192,8912,1,4,0:0:0:0:
256,192,9321,1,4,0:0:0:0:
256,192,9730,1,4,0:0:0:0:
256,192,10003,1,0,0:0:0:0:
256,192,10139,1,0,0:0:0:0:
256,192,10275,1,8,0:0:0:0:
256,192,10412,1,8,0:0:0:0:
256,192,10480,1,8,0:0:0:0:
256,192,10548,1,0,0:0:0:0:
256,192,10685,1,0,0:0:0:0:
256,192,10821,1,8,0:0:0:0:
256,192,10957,1,8,0:0:0:0:
256,192,11094,1,4,0:0:0:0:
256,192,11503,1,4,0:0:0:0:
256,192,11912,1,4,0:0:0:0:
256,192,12321,1,4,0:0:0:0:
256,192,12730,1,4,0:0:0:0:
256,192,13003,1,12,0:0:0:0:
256,192,13275,1,4,0:0:0:0:
256,192,13685,1,4,0:0:0:0:
256,192,14094,1,4,0:0:0:0:
256,192,14366,1,0,0:0:0:0:
256,192,14503,1,0,0:0:0:0:
256,192,14639,1,8,0:0:0:0:
256,192,14775,1,8,0:0:0:0:
256,192,14844,1,8,0:0:0:0:
256,192,14912,1,0,0:0:0:0:
256,192,14980,1,0,0:0:0:0:
256,192,15048,1,0,0:0:0:0:
256,192,15185,1,8,0:0:0:0:
256,192,15321,1,0,0:0:0:0:
256,192,15457,1,4,0:0:0:0:
256,192,15866,1,4,0:0:0:0:
256,192,16275,1,4,0:0:0:0:
256,192,16685,1,4,0:0:0:0:
256,192,17094,1,4,0:0:0:0:
256,192,17366,1,12,0:0:0:0:
256,192,17639,1,4,0:0:0:0:
256,192,17912,1,8,0:0:0:0:
256,192,18185,1,0,0:0:0:0:
256,192,18321,1,0,0:0:0:0:
256,192,18457,1,8,0:0:0:0:
256,192,18730,1,0,0:0:0:0:
256,192,18866,1,0,0:0:0:0:
256,192,19003,1,8,0:0:0:0:
256,192,19139,1,8,0:0:0:0:
256,192,19207,1,8,0:0:0:0:
256,192,19275,1,0,0:0:0:0:
256,192,19412,1,0,0:0:0:0:
256,192,19548,1,8,0:0:0:0:
256,192,19821,1,0,0:0:0:0:
256,192,19957,1,8,0:0:0:0:
256,192,20025,1,8,0:0:0:0:
256,192,20162,1,8,0:0:0:0:
256,192,20230,1,8,0:0:0:0:
256,192,20366,1,0,0:0:0:0:
256,192,20503,1,0,0:0:0:0:
256,192,20571,1,0,0:0:0:0:
256,192,20639,1,8,0:0:0:0:
256,192,20775,1,8,0:0:0:0:
256,192,20912,1,0,0:0:0:0:
256,192,21048,1,0,0:0:0:0:
256,192,21116,1,8,0:0:0:0:
256,192,21253,1,0,0:0:0:0:
256,192,21321,1,8,0:0:0:0:
256,192,21457,1,0,0:0:0:0:
256,192,21594,1,0,0:0:0:0:
256,192,21730,1,8,0:0:0:0:
256,192,22003,1,0,0:0:0:0:
256,192,22275,1,8,0:0:0:0:
256,192,22548,1,0,0:0:0:0:
256,192,22685,1,0,0:0:0:0:
256,192,22821,1,8,0:0:0:0:
256,192,23094,1,0,0:0:0:0:
256,192,23230,1,0,0:0:0:0:
256,192,23298,1,0,0:0:0:0:
256,192,23366,1,8,0:0:0:0:
256,192,23503,1,0,0:0:0:0:
256,192,23639,1,8,0:0:0:0:
256,192,23775,1,0,0:0:0:0:
256,192,23912,1,8,0:0:0:0:
256,192,24185,1,0,0:0:0:0:
256,192,24321,1,8,0:0:0:0:
256,192,24389,1,8,0:0:0:0:
256,192,24525,1,8,0:0:0:0:
256,192,24594,1,8,0:0:0:0:
256,192,24730,1,0,0:0:0:0:
256,192,24866,1,0,0:0:0:0:
256,192,24935,1,0,0:0:0:0:
256,192,25003,1,8,0:0:0:0:
256,192,25139,1,8,0:0:0:0:
256,192,25275,1,0,0:0:0:0:
256,192,25548,1,0,0:0:0:0:
256,192,25685,1,0,0:0:0:0:
256,192,25821,1,8,0:0:0:0:
256,192,26094,1,8,0:0:0:0:
256,192,26366,1,4,0:0:0:0:
256,192,26503,1,0,0:0:0:0:
256,192,26571,1,0,0:0:0:0:
256,192,26639,1,8,0:0:0:0:
256,192,26775,1,8,0:0:0:0:
256,192,26912,1,0,0:0:0:0:
256,192,27048,1,0,0:0:0:0:
256,192,27185,1,8,0:0:0:0:
256,192,27321,1,8,0:0:0:0:
256,192,27457,1,4,0:0:0:0:
256,192,27662,1,4,0:0:0:0:
256,192,27866,1,4,0:0:0:0:
256,192,28139,1,0,0:0:0:0:
256,192,28275,1,8,0:0:0:0:
256,192,28412,1,8,0:0:0:0:
256,192,28548,1,0,0:0:0:0:
256,192,28685,1,8,0:0:0:0:
256,192,28753,1,0,0:0:0:0:
256,192,28821,1,8,0:0:0:0:
256,192,28957,1,8,0:0:0:0:
256,192,29094,1,0,0:0:0:0:
256,192,29230,1,8,0:0:0:0:
256,192,29298,1,8,0:0:0:0:
256,192,29366,1,0,0:0:0:0:
256,192,29503,1,8,0:0:0:0:
256,192,29639,1,4,0:0:0:0:
256,192,29775,1,4,0:0:0:0:
256,192,29980,1,12,0:0:0:0:
256,192,30253,1,0,0:0:0:0:
256,192,30321,1,0,0:0:0:0:
256,192,30457,1,8,0:0:0:0:
256,192,30594,1,8,0:0:0:0:
256,192,30730,1,4,0:0:0:0:
256,192,31003,1,8,0:0:0:0:
256,192,31275,1,0,0:0:0:0:
256,192,31412,1,0,0:0:0:0:
256,192,31548,1,8,0:0:0:0:
256,192,31821,1,0,0:0:0:0:
256,192,31957,1,0,0:0:0:0:
256,192,32025,1,0,0:0:0:0:
256,192,32094,1,8,0:0:0:0:
256,192,32230,1,8,0:0:0:0:
256,192,32366,1,0,0:0:0:0:
256,192,32503,1,0,0:0:0:0:
256,192,32639,1,8,0:0:0:0:
256,192,32912,1,0,0:0:0:0:
256,192,32980,1,0,0:0:0:0:
256,192,33048,1,8,0:0:0:0:
256,192,33185,1,0,0:0:0:0:
256,192,33321,1,8,0:0:0:0:
256,192,33457,1,0,0:0:0:0:
256,192,33525,1,0,0:0:0:0:
256,192,33594,1,8,0:0:0:0:
256,192,33662,1,8,0:0:0:0:
256,192,33730,1,0,0:0:0:0:
256,192,33866,1,8,0:0:0:0:
256,192,34003,1,0,0:0:0:0:
256,192,34275,1,8,0:0:0:0:
256,192,34412,1,8,0:0:0:0:
256,192,34548,1,0,0:0:0:0:
256,192,34685,1,0,0:0:0:0:
256,192,34821,1,8,0:0:0:0:
256,192,35094,1,0,0:0:0:0:
256,192,35912,1,0,0:0:0:0:
256,192,36185,1,8,0:0:0:0:
256,192,36730,1,8,0:0:0:0:
256,192,37275,1,0,0:0:0:0:
256,192,37685,1,0,0:0:0:0:
256,192,38094,1,8,0:0:0:0:
256,192,38366,1,0,0:0:0:0:
256,192,38912,1,8,0:0:0:0:
256,192,39457,1,0,0:0:0:0:
256,192,39730,1,0,0:0:0:0:
256,192,40003,1,8,0:0:0:0:
256,192,40275,1,0,0:0:0:0:
256,192,40412,1,8,0:0:0:0:
256,192,40548,1,0,0:0:0:0:
256,192,40821,1,0,0:0:0:0:
256,192,41094,1,8,0:0:0:0:
256,192,41366,1,8,0:0:0:0:
256,192,41503,1,8,0:0:0:0:
256,192,41639,1,0,0:0:0:0:
256,192,41912,1,0,0:0:0:0:
256,192,42185,1,8,0:0:0:0:
256,192,42457,1,0,0:0:0:0:
256,192,42594,1,0,0:0:0:0:
256,192,42730,1,8,0:0:0:0:
256,192,43003,1,0,0:0:0:0:
256,192,43275,1,8,0:0:0:0:
256,192,43412,1,0,0:0:0:0:
256,192,43548,1,8,0:0:0:0:
256,192,43821,12,8,45185,0:0:0:0:
256,192,45457,5,0,0:0:0:0:
256,192,45730,1,8,0:0:0:0:
256,192,46003,1,4,0:0:0:0:
256,192,46275,1,8,0:0:0:0:
256,192,46412,1,8,0:0:0:0:
256,192,46480,1,8,0:0:0:0:
256,192,46548,1,0,0:0:0:0:
256,192,46685,1,0,0:0:0:0:
256,192,46821,1,8,0:0:0:0:
256,192,46957,1,8,0:0:0:0:
256,192,47094,1,0,0:0:0:0:
256,192,47230,1,0,0:0:0:0:
256,192,47298,1,0,0:0:0:0:
256,192,47366,1,8,0:0:0:0:
256,192,47503,1,0,0:0:0:0:
256,192,47639,1,8,0:0:0:0:
256,192,47775,1,0,0:0:0:0:
256,192,47844,1,0,0:0:0:0:
256,192,47912,1,8,0:0:0:0:
256,192,48048,1,8,0:0:0:0:
256,192,48185,1,0,0:0:0:0:
256,192,48457,1,8,0:0:0:0:
256,192,48594,1,8,0:0:0:0:
256,192,48730,1,0,0:0:0:0:
256,192,48866,1,0,0:0:0:0:
256,192,49003,1,8,0:0:0:0:
256,192,49139,1,0,0:0:0:0:
256,192,49275,1,8,0:0:0:0:
256,192,49412,1,0,0:0:0:0:
256,192,49480,1,0,0:0:0:0:
256,192,49548,1,8,0:0:0:0:
256,192,49685,1,8,0:0:0:0:
256,192,49821,1,0,0:0:0:0:
256,192,49957,1,0,0:0:0:0:
256,192,50094,1,8,0:0:0:0:
256,192,50366,1,0,0:0:0:0:
256,192,50639,1,8,0:0:0:0:
256,192,50775,1,8,0:0:0:0:
256,192,50844,1,8,0:0:0:0:
256,192,50912,1,0,0:0:0:0:
256,192,51048,1,0,0:0:0:0:
256,192,51185,1,8,0:0:0:0:
256,192,51321,1,0,0:0:0:0:
256,192,51457,1,8,0:0:0:0:
256,192,51594,1,0,0:0:0:0:
256,192,51662,1,0,0:0:0:0:
256,192,51730,1,8,0:0:0:0:
256,192,51866,1,0,0:0:0:0:
256,192,52003,1,8,0:0:0:0:
256,192,52139,1,0,0:0:0:0:
256,192,52207,1,0,0:0:0:0:
256,192,52275,1,8,0:0:0:0:
256,192,52412,1,8,0:0:0:0:
256,192,52548,1,4,0:0:0:0:
256,192,52957,1,4,0:0:0:0:
256,192,53230,1,4,0:0:0:0:
256,192,53503,1,12,0:0:0:0:
256,192,53775,1,0,0:0:0:0:
256,192,53912,1,8,0:0:0:0:
256,192,54048,1,0,0:0:0:0:
256,192,54185,1,8,0:0:0:0:
256,192,54321,1,0,0:0:0:0:
256,192,54457,1,8,0:0:0:0:
256,192,54594,1,8,0:0:0:0:
256,192,54730,1,4,0:0:0:0:
256,192,55003,1,8,0:0:0:0:
256,192,55139,1,8,0:0:0:0:
256,192,55207,1,8,0:0:0:0:
256,192,55275,1,0,0:0:0:0:
256,192,55412,1,0,0:0:0:0:
256,192,55548,1,8,0:0:0:0:
256,192,55685,1,8,0:0:0:0:
256,192,55821,1,0,0:0:0:0:
256,192,55957,1,0,0:0:0:0:
256,192,56025,1,0,0:0:0:0:
256,192,56094,1,8,0:0:0:0:
256,192,56230,1,0,0:0:0:0:
256,192,56366,1,8,0:0:0:0:
256,192,56435,1,8,0:0:0:0:
256,192,56503,1,0,0:0:0:0:
256,192,56639,1,8,0:0:0:0:
256,192,56775,1,8,0:0:0:0:
256,192,56912,1,0,0:0:0:0:
256,192,57185,1,8,0:0:0:0:
256,192,57321,1,8,0:0:0:0:
256,192,57457,1,0,0:0:0:0:
256,192,57594,1,0,0:0:0:0:
256,192,57730,1,8,0:0:0:0:
256,192,57866,1,8,0:0:0:0:
256,192,58003,1,0,0:0:0:0:
256,192,58139,1,0,0:0:0:0:
256,192,58207,1,0,0:0:0:0:
256,192,58275,1,8,0:0:0:0:
256,192,58412,1,0,0:0:0:0:
256,192,58548,1,8,0:0:0:0:
256,192,58685,1,0,0:0:0:0:
256,192,58821,1,8,0:0:0:0:
256,192,59094,1,0,0:0:0:0:
256,192,59366,1,8,0:0:0:0:
256,192,59503,1,8,0:0:0:0:
256,192,59571,1,8,0:0:0:0:
256,192,59639,1,0,0:0:0:0:
256,192,59775,1,0,0:0:0:0:
256,192,59912,1,8,0:0:0:0:
256,192,60048,1,0,0:0:0:0:
256,192,60185,1,8,0:0:0:0:
256,192,60321,1,0,0:0:0:0:
256,192,60389,1,0,0:0:0:0:
256,192,60457,1,8,0:0:0:0:
256,192,60594,1,0,0:0:0:0:
256,192,60730,1,8,0:0:0:0:
256,192,60798,1,8,0:0:0:0:
256,192,60866,1,8,0:0:0:0:
256,192,61003,1,0,0:0:0:0:
256,192,61139,1,8,0:0:0:0:
256,192,61275,1,4,0:0:0:0:
256,192,61685,1,4,0:0:0:0:
256,192,61957,1,4,0:0:0:0:
256,192,62230,1,12,0:0:0:0:
256,192,62503,1,0,0:0:0:0:
256,192,62639,1,8,0:0:0:0:
256,192,62775,1,0,0:0:0:0:
256,192,62912,1,8,0:0:0:0:
256,192,63185,1,8,0:0:0:0:
256,192,63457,1,0,0:0:0:0:
256,192,63730,1,8,0:0:0:0:
256,192,64003,1,0,0:0:0:0:
256,192,64139,1,0,0:0:0:0:
256,192,64275,1,8,0:0:0:0:
256,192,64548,1,0,0:0:0:0:
256,192,64685,1,8,0:0:0:0:
256,192,64753,1,8,0:0:0:0:
256,192,64821,1,0,0:0:0:0:
256,192,64957,1,8,0:0:0:0:
256,192,65094,1,0,0:0:0:0:
256,192,65230,1,0,0:0:0:0:
256,192,65366,1,8,0:0:0:0:
256,192,65639,1,0,0:0:0:0:
256,192,65775,1,8,0:0:0:0:
256,192,65844,1,0,0:0:0:0:
256,192,65912,1,8,0:0:0:0:
256,192,66048,1,8,0:0:0:0:
256,192,66185,1,0,0:0:0:0:
256,192,66321,1,0,0:0:0:0:
256,192,66457,1,8,0:0:0:0:
256,192,66594,1,8,0:0:0:0:
256,192,66730,1,0,0:0:0:0:
256,192,66866,1,0,0:0:0:0:
256,192,66935,1,0,0:0:0:0:
256,192,67003,1,8,0:0:0:0:
256,192,67139,1,0,0:0:0:0:
256,192,67275,1,8,0:0:0:0:
256,192,67548,1,8,0:0:0:0:
256,192,67821,1,0,0:0:0:0:
256,192,68094,1,8,0:0:0:0:
256,192,68366,1,0,0:0:0:0:
256,192,68503,1,0,0:0:0:0:
256,192,68639,1,8,0:0:0:0:
256,192,68912,1,0,0:0:0:0:
256,192,69048,1,8,0:0:0:0:
256,192,69116,1,8,0:0:0:0:
256,192,69185,1,0,0:0:0:0:
256,192,69321,1,8,0:0:0:0:
256,192,69457,1,0,0:0:0:0:
256,192,69594,1,0,0:0:0:0:
256,192,69730,1,8,0:0:0:0:
256,192,70003,1,0,0:0:0:0:
256,192,70139,1,8,0:0:0:0:
256,192,70207,1,0,0:0:0:0:
256,192,70275,1,8,0:0:0:0:
256,192,70412,1,0,0:0:0:0:
256,192,70548,1,8,0:0:0:0:
256,192,70685,1,0,0:0:0:0:
256,192,70821,1,8,0:0:0:0:
256,192,70957,1,8,0:0:0:0:
256,192,71094,1,0,0:0:0:0:
256,192,71366,1,8,0:0:0:0:
256,192,71503,1,0,0:0:0:0:
256,192,71639,1,8,0:0:0:0:
256,192,71912,1,8,0:0:0:0:
256,192,72185,1,4,0:0:0:0:
256,192,72457,1,8,0:0:0:0:
256,192,72730,1,0,0:0:0:0:
256,192,72866,1,0,0:0:0:0:
256,192,73003,1,8,0:0:0:0:
256,192,73275,1,0,0:0:0:0:
256,192,73412,1,0,0:0:0:0:
256,192,73480,1,0,0:0:0:0:
256,192,73548,1,8,0:0:0:0:
256,192,73685,1,0,0:0:0:0:
256,192,73821,1,8,0:0:0:0:
256,192,73957,1,0,0:0:0:0:
256,192,74094,1,8,0:0:0:0:
256,192,74366,1,0,0:0:0:0:
256,192,74503,1,8,0:0:0:0:
256,192,74571,1,8,0:0:0:0:
256,192,74707,1,8,0:0:0:0:
256,192,74775,1,8,0:0:0:0:
256,192,74912,1,0,0:0:0:0:
256,192,75048,1,0,0:0:0:0:
256,192,75116,1,0,0:0:0:0:
256,192,75185,1,8,0:0:0:0:
256,192,75321,1,0,0:0:0:0:
256,192,75457,1,8,0:0:0:0:
256,192,75525,1,8,0:0:0:0:
256,192,75594,1,0,0:0:0:0:
256,192,75730,1,8,0:0:0:0:
256,192,75866,1,8,0:0:0:0:
256,192,76003,1,0,0:0:0:0:
256,192,76139,1,0,0:0:0:0:
256,192,76275,1,8,0:0:0:0:
256,192,76548,1,4,0:0:0:0:
256,192,76821,1,8,0:0:0:0:
256,192,77094,1,0,0:0:0:0:
256,192,77230,1,0,0:0:0:0:
256,192,77366,1,8,0:0:0:0:
256,192,77639,1,0,0:0:0:0:
256,192,77707,1,0,0:0:0:0:
256,192,77775,1,0,0:0:0:0:
256,192,77912,1,8,0:0:0:0:
256,192,78048,1,8,0:0:0:0:
256,192,78185,1,0,0:0:0:0:
256,192,78321,1,0,0:0:0:0:
256,192,78457,1,8,0:0:0:0:
256,192,78730,1,0,0:0:0:0:
256,192,78866,1,8,0:0:0:0:
256,192,78935,1,8,0:0:0:0:
256,192,79003,1,0,0:0:0:0:
256,192,79139,1,8,0:0:0:0:
256,192,79275,1,0,0:0:0:0:
256,192,79412,1,8,0:0:0:0:
256,192,79480,1,8,0:0:0:0:
256,192,79548,1,0,0:0:0:0:
256,192,79616,1,0,0:0:0:0:
256,192,79685,1,8,0:0:0:0:
256,192,79821,1,0,0:0:0:0:
256,192,80094,1,8,0:0:0:0:
256,192,80230,1,8,0:0:0:0:
256,192,80366,1,0,0:0:0:0:
256,192,80503,1,0,0:0:0:0:
256,192,80639,1,8,0:0:0:0:
256,192,80912,1,4,0:0:0:0:
256,192,81185,1,8,0:0:0:0:
256,192,81321,1,8,0:0:0:0:
256,192,81457,1,0,0:0:0:0:
256,192,81525,1,0,0:0:0:0:
256,192,81594,1,0,0:0:0:0:
256,192,81730,1,8,0:0:0:0:
256,192,81866,1,8,0:0:0:0:
256,192,82003,1,0,0:0:0:0:
256,192,82275,1,0,0:0:0:0:
256,192,82412,1,0,0:0:0:0:
256,192,82548,1,8,0:0:0:0:
256,192,82821,1,8,0:0:0:0:
256,192,82957,1,8,0:0:0:0:
256,192,83094,1,4,0:0:0:0:
256,192,83230,1,0,0:0:0:0:
256,192,83366,1,8,0:0:0:0:
256,192,83503,1,4,0:0:0:0:
256,192,83775,1,4,0:0:0:0:
256,192,84048,1,4,0:0:0:0:
256,192,84185,2,4,L|441:192,3,175
256,192,85275,1,4,0:0:0:0:
256,192,85547,1,8,0:0:0:0:
256,192,85684,1,8,0:0:0:0:
256,192,85752,1,8,0:0:0:0:
256,192,85820,1,0,0:0:0:0:
256,192,85957,1,0,0:0:0:0:
256,192,86093,1,8,0:0:0:0:
256,192,86229,1,8,0:0:0:0:
256,192,86366,1,0,0:0:0:0:
256,192,86502,1,0,0:0:0:0:
256,192,86570,1,0,0:0:0:0:
256,192,86638,1,8,0:0:0:0:
256,192,86775,1,0,0:0:0:0:
256,192,86911,1,8,0:0:0:0:
256,192,86979,1,8,0:0:0:0:
256,192,87047,1,0,0:0:0:0:
256,192,87184,1,8,0:0:0:0:
256,192,87320,1,8,0:0:0:0:
256,192,87457,1,0,0:0:0:0:
256,192,87729,1,8,0:0:0:0:
256,192,87866,1,8,0:0:0:0:
256,192,88002,1,0,0:0:0:0:
256,192,88138,1,0,0:0:0:0:
256,192,88275,1,8,0:0:0:0:
256,192,88411,1,8,0:0:0:0:
256,192,88547,1,0,0:0:0:0:
256,192,88684,1,0,0:0:0:0:
256,192,88752,1,0,0:0:0:0:
256,192,88820,1,8,0:0:0:0:
256,192,88957,1,0,0:0:0:0:
256,192,89093,1,8,0:0:0:0:
256,192,89229,1,0,0:0:0:0:
256,192,89366,1,8,0:0:0:0:
256,192,89639,1,0,0:0:0:0:
256,192,89911,1,8,0:0:0:0:
256,192,90047,1,8,0:0:0:0:
256,192,90116,1,8,0:0:0:0:
256,192,90184,1,0,0:0:0:0:
256,192,90320,1,0,0:0:0:0:
256,192,90457,1,8,0:0:0:0:
256,192,90593,1,0,0:0:0:0:
256,192,90729,1,8,0:0:0:0:
256,192,90866,1,0,0:0:0:0:
256,192,90934,1,0,0:0:0:0:
256,192,91002,1,8,0:0:0:0:
256,192,91138,1,0,0:0:0:0:
256,192,91275,1,8,0:0:0:0:
256,192,91343,1,8,0:0:0:0:
256,192,91411,1,0,0:0:0:0:
256,192,91547,1,8,0:0:0:0:
256,192,91684,1,8,0:0:0:0:
256,192,91820,1,4,0:0:0:0:
256,192,92229,1,4,0:0:0:0:
256,192,92502,1,4,0:0:0:0:
256,192,92775,1,12,0:0:0:0:
256,192,93047,1,0,0:0:0:0:
256,192,93184,1,8,0:0:0:0:
256,192,93320,1,0,0:0:0:0:
256,192,93457,1,8,0:0:0:0:
256,192,93593,1,0,0:0:0:0:
256,192,93729,1,8,0:0:0:0:
256,192,93866,1,8,0:0:0:0:
256,192,94003,1,4,0:0:0:0:
256,192,94139,1,0,0:0:0:0:
256,192,94275,1,8,0:0:0:0:
256,192,94412,1,8,0:0:0:0:
256,192,94480,1,8,0:0:0:0:
256,192,94548,1,0,0:0:0:0:
256,192,94685,1,0,0:0:0:0:
256,192,94821,1,8,0:0:0:0:
256,192,94957,1,8,0:0:0:0:
256,192,95094,1,0,0:0:0:0:
256,192,95162,1,0,0:0:0:0:
256,192,95230,1,0,0:0:0:0:
256,192,95366,1,8,0:0:0:0:
256,192,95503,1,8,0:0:0:0:
256,192,95571,1,8,0:0:0:0:
256,192,95639,1,0,0:0:0:0:
256,192,95775,1,0,0:0:0:0:
256,192,95912,1,8,0:0:0:0:
256,192,96048,1,8,0:0:0:0:
256,192,96185,1,0,0:0:0:0:
256,192,96321,1,0,0:0:0:0:
256,192,96389,1,8,0:0:0:0:
256,192,96525,1,0,0:0:0:0:
256,192,96594,1,0,0:0:0:0:
256,192,96730,1,8,0:0:0:0:
256,192,96866,1,0,0:0:0:0:
256,192,96935,1,8,0:0:0:0:
256,192,97071,1,0,0:0:0:0:
256,192,97139,1,0,0:0:0:0:
256,192,97275,1,8,0:0:0:0:
256,192,97412,1,0,0:0:0:0:
256,192,97480,1,0,0:0:0:0:
256,192,97548,1,8,0:0:0:0:
256,192,97685,1,8,0:0:0:0:
256,192,97821,1,0,0:0:0:0:
256,192,97957,1,0,0:0:0:0:
256,192,98094,1,8,0:0:0:0:
256,192,98366,1,0,0:0:0:0:
256,192,98503,1,0,0:0:0:0:
256,192,98639,1,8,0:0:0:0:
256,192,98775,1,8,0:0:0:0:
256,192,98844,1,8,0:0:0:0:
256,192,98912,1,0,0:0:0:0:
256,192,99048,1,0,0:0:0:0:
256,192,99185,1,8,0:0:0:0:
256,192,99321,1,8,0:0:0:0:
256,192,99457,1,0,0:0:0:0:
256,192,99525,1,0,0:0:0:0:
256,192,99594,1,0,0:0:0:0:
256,192,99730,1,8,0:0:0:0:
256,192,99866,1,8,0:0:0:0:
256,192,99935,1,8,0:0:0:0:
256,192,100003,1,0,0:0:0:0:
256,192,100071,1,0,0:0:0:0:
256,192,100139,1,0,0:0:0:0:
256,192,100275,1,8,0:0:0:0:
256,192,100412,1,8,0:0:0:0:
256,192,100548,1,4,0:0:0:0:
256,192,100957,1,4,0:0:0:0:
256,192,101230,1,4,0:0:0:0:
256,192,101503,1,12,0:0:0:0:
256,192,101775,1,0,0:0:0:0:
256,192,101912,1,8,0:0:0:0:
256,192,102048,1,0,0:0:0:0:
256,192,102185,1,8,0:0:0:0:
256,192,102321,1,0,0:0:0:0:
256,192,102457,1,8,0:0:0:0:
256,192,102594,1,8,0:0:0:0:
256,192,102730,1,4,0:0:0:0:
256,192,103139,1,4,0:0:0:0:
256,192,103548,1,4,0:0:0:0:
256,192,103821,1,0,0:0:0:0:
256,192,103957,1,0,0:0:0:0:
256,192,104094,1,8,0:0:0:0:
256,192,104230,1,8,0:0:0:0:
256,192,104298,1,8,0:0:0:0:
256,192,104366,1,0,0:0:0:0:
256,192,104503,1,0,0:0:0:0:
256,192,104639,1,8,0:0:0:0:
256,192,104775,1,8,0:0:0:0:
256,192,104912,1,4,0:0:0:0:
256,192,105321,1,4,0:0:0:0:
256,192,105730,1,4,0:0:0:0:
256,192,106139,1,4,0:0:0:0:
256,192,106548,1,4,0:0:0:0:
256,192,106821,1,12,0:0:0:0:
256,192,107094,1,4,0:0:0:0:
256,192,107503,1,4,0:0:0:0:
256,192,107912,1,4,0:0:0:0:
256,192,108185,1,0,0:0:0:0:
256,192,108321,1,8,0:0:0:0:
256,192,108457,1,0,0:0:0:0:
256,192,108594,1,0,0:0:0:0:
256,192,108662,1,0,0:0:0:0:
256,192,108730,1,8,0:0:0:0:
256,192,108866,1,0,0:0:0:0:
256,192,109003,1,8,0:0:0:0:
256,192,109071,1,8,0:0:0:0:
256,192,109139,1,8,0:0:0:0:
256,192,109275,1,4,0:0:0:0:
256,192,109685,1,4,0:0:0:0:
256,192,109957,1,4,0:0:0:0:
256,192,110230,1,4,0:0:0:0:
256,192,110366,1,4,0:0:0:0:
