osu file format v14

[General]
AudioFilename: audio.mp3
AudioLeadIn: 0
PreviewTime: 45935
Countdown: 0
SampleSet: Normal
StackLeniency: 0.7
Mode: 1
LetterboxInBreaks: 0
WidescreenStoryboard: 1

[Editor]
DistanceSpacing: 0.9
BeatDivisor: 4
GridSize: 32
TimelineZoom: 1.7

[Metadata]
Title:TRICKL4SH 220
TitleUnicode:TRICKL4SH 220
Artist:Lite Show Magic
ArtistUnicode:Lite Show Magic
Creator:Monstrata
Version:Muzukashii
Source:SOUND VOLTEX IV HEAVENLY HAVEN
Tags:tricklash t+pazolite vs C-Show KinomiCandy Midnaait hikikochan TKS MMzz mittenmasterzz SDVX KONAMI BEMANI Don't waste me! E.P. EP M3-36 M3 HARDCORE Happy Hardcore Speedcore Lick Dom Records
BeatmapID:1461319
BeatmapSetID:690470

[Difficulty]
HPDrainRate:6
CircleSize:5
OverallDifficulty:5
ApproachRate:5
SliderMultiplier:1.4
SliderTickRate:1

[Events]
//Background and Video events
0,0,"BG420-.png",0,120
//Break Periods
//Storyboard Layer 0 (Background)
//Storyboard Layer 1 (Fail)
//Storyboard Layer 2 (Pass)
//Storyboard Layer 3 (Foreground)
//Storyboard Sound Samples

[TimingPoints]
185,272.727272727273,4,1,0,100,1,0
46003,-100,4,1,0,100,0,1
63457,-100,4,1,0,100,0,0
85275,-100,4,1,0,100,0,1
102730,-100,4,1,0,100,0,0

[HitObjects]
117,274,185,5,4,0:0:0:0:
152,274,4139,1,12,0:0:0:0:
187,274,4548,1,4,0:0:0:0:
187,274,6730,1,4,0:0:0:0:
222,274,7003,1,4,0:0:0:0:
222,274,7275,1,4,0:0:0:0:
222,274,7548,1,4,0:0:0:0:
222,274,8503,1,12,0:0:0:0:
257,274,8912,1,4,0:0:0:0:
257,274,9321,1,12,0:0:0:0:
257,274,9730,1,4,0:0:0:0:
257,274,10003,1,8,0:0:0:0:
257,274,10275,1,0,0:0:0:0:
257,274,10412,1,0,0:0:0:0:
257,274,10548,1,8,0:0:0:0:
257,274,10821,1,8,0:0:0:0:
257,274,10957,1,8,0:0:0:0:
292,274,11094,1,4,0:0:0:0:
292,274,11503,1,12,0:0:0:0:
292,274,11912,1,4,0:0:0:0:
292,274,12321,1,12,0:0:0:0:
292,274,12730,1,12,0:0:0:0:
327,274,13275,1,4,0:0:0:0:
327,274,13685,1,12,0:0:0:0:
327,274,14094,1,4,0:0:0:0:
257,274,14366,1,8,0:0:0:0:
257,274,14638,1,0,0:0:0:0:
257,274,14775,1,0,0:0:0:0:
257,274,14911,1,8,0:0:0:0:
257,274,15184,1,8,0:0:0:0:
257,274,15320,1,8,0:0:0:0:
292,274,15457,1,4,0:0:0:0:
362,274,15866,1,12,0:0:0:0:
362,274,16275,1,4,0:0:0:0:
362,274,16685,1,12,0:0:0:0:
362,274,17094,1,12,0:0:0:0:
397,274,17639,1,4,0:0:0:0:
397,274,17912,1,8,0:0:0:0:
397,274,18185,1,0,0:0:0:0:
397,274,18321,1,0,0:0:0:0:
397,274,18457,1,8,0:0:0:0:
379,243,18730,1,0,0:0:0:0:
379,243,19003,1,8,0:0:0:0:
379,243,19275,1,8,0:0:0:0:
379,243,19412,1,0,0:0:0:0:
379,243,19548,1,8,0:0:0:0:
362,212,19821,1,0,0:0:0:0:
362,212,20094,1,8,0:0:0:0:
362,212,20366,1,0,0:0:0:0:
362,212,20503,1,0,0:0:0:0:
362,212,20639,1,8,0:0:0:0:
362,212,20775,1,8,0:0:0:0:
344,182,20912,1,0,0:0:0:0:
344,182,21185,1,8,0:0:0:0:
344,182,21457,1,8,0:0:0:0:
344,182,21594,1,8,0:0:0:0:
344,182,21730,1,8,0:0:0:0:
344,182,22003,1,0,0:0:0:0:
344,182,22275,1,8,0:0:0:0:
327,152,22548,1,0,0:0:0:0:
327,152,22685,1,0,0:0:0:0:
327,152,22821,1,8,0:0:0:0:
327,152,23094,1,0,0:0:0:0:
327,152,23366,1,8,0:0:0:0:
309,121,23639,1,8,0:0:0:0:
327,152,23775,1,0,0:0:0:0:
309,121,23912,1,8,0:0:0:0:
309,121,24185,1,0,0:0:0:0:
309,121,24457,1,8,0:0:0:0:
309,121,24730,1,0,0:0:0:0:
309,121,24866,1,0,0:0:0:0:
309,121,25003,1,8,0:0:0:0:
309,121,25139,1,8,0:0:0:0:
309,121,25275,1,0,0:0:0:0:
292,91,25821,1,8,0:0:0:0:
292,91,26366,1,0,0:0:0:0:
292,91,26503,1,0,0:0:0:0:
292,91,26639,1,8,0:0:0:0:
274,61,26912,1,0,0:0:0:0:
274,61,27048,1,8,0:0:0:0:
274,61,27185,1,0,0:0:0:0:
274,61,27457,1,8,0:0:0:0:
274,61,27662,1,8,0:0:0:0:
274,61,27866,1,8,0:0:0:0:
256,31,28275,1,8,0:0:0:0:
256,31,28548,1,0,0:0:0:0:
256,31,28821,1,8,0:0:0:0:
256,31,28957,1,8,0:0:0:0:
256,31,29094,1,0,0:0:0:0:
256,31,29366,1,8,0:0:0:0:
256,31,29639,1,0,0:0:0:0:
256,31,29775,1,0,0:0:0:0:
256,31,29980,1,8,0:0:0:0:
239,61,30253,1,0,0:0:0:0:
239,61,30457,1,8,0:0:0:0:
239,61,30594,1,8,0:0:0:0:
239,61,30730,1,0,0:0:0:0:
239,61,31003,1,8,0:0:0:0:
239,61,31275,1,0,0:0:0:0:
239,61,31412,1,0,0:0:0:0:
239,61,31548,1,8,0:0:0:0:
239,61,31821,1,0,0:0:0:0:
222,92,32094,1,8,0:0:0:0:
222,92,32366,1,8,0:0:0:0:
222,92,32503,1,0,0:0:0:0:
222,92,32639,1,8,0:0:0:0:
222,92,32912,1,0,0:0:0:0:
222,92,33048,1,0,0:0:0:0:
222,92,33185,1,8,0:0:0:0:
204,122,33321,1,8,0:0:0:0:
222,92,33457,1,0,0:0:0:0:
204,122,33594,1,8,0:0:0:0:
204,122,33730,1,8,0:0:0:0:
204,122,33866,1,8,0:0:0:0:
204,122,34003,1,0,0:0:0:0:
204,122,34821,1,8,0:0:0:0:
204,122,35094,1,0,0:0:0:0:
204,122,36185,1,8,0:0:0:0:
187,152,36730,1,8,0:0:0:0:
187,152,37275,1,0,0:0:0:0:
187,152,38366,1,8,0:0:0:0:
187,152,38912,1,0,0:0:0:0:
187,152,39185,1,8,0:0:0:0:
187,152,39457,1,0,0:0:0:0:
187,152,40003,1,8,0:0:0:0:
187,152,40548,1,0,0:0:0:0:
187,152,41094,1,8,0:0:0:0:
169,183,41366,1,0,0:0:0:0:
169,183,41639,1,0,0:0:0:0:
169,183,42185,1,8,0:0:0:0:
169,183,42457,1,8,0:0:0:0:
169,183,42730,1,0,0:0:0:0:
169,183,43275,1,8,0:0:0:0:
169,183,43548,1,0,0:0:0:0:
169,183,43821,1,8,0:0:0:0:
152,213,45457,1,8,0:0:0:0:
152,213,45730,1,8,0:0:0:0:
152,213,46003,1,4,0:0:0:0:
152,213,46275,1,8,0:0:0:0:
152,213,46412,1,0,0:0:0:0:
152,213,46685,1,0,0:0:0:0:
152,213,46821,1,8,0:0:0:0:
152,213,46957,1,8,0:0:0:0:
152,213,47094,1,0,0:0:0:0:
152,213,47366,1,12,0:0:0:0:
152,213,47639,1,0,0:0:0:0:
152,213,47775,1,0,0:0:0:0:
152,213,47912,1,8,0:0:0:0:
134,243,48048,1,8,0:0:0:0:
134,243,48185,1,0,0:0:0:0:
134,243,48730,1,0,0:0:0:0:
134,243,49003,1,8,0:0:0:0:
134,243,49275,1,0,0:0:0:0:
134,243,49548,1,8,0:0:0:0:
134,243,49821,1,0,0:0:0:0:
134,243,49957,1,8,0:0:0:0:
134,243,50025,1,8,0:0:0:0:
134,243,50094,1,8,0:0:0:0:
397,274,50366,1,4,0:0:0:0:
397,274,50639,1,8,0:0:0:0:
397,274,50775,1,0,0:0:0:0:
397,274,51048,1,0,0:0:0:0:
397,274,51185,1,8,0:0:0:0:
397,274,51321,1,8,0:0:0:0:
397,274,51457,1,0,0:0:0:0:
397,274,51730,1,12,0:0:0:0:
397,274,52003,1,0,0:0:0:0:
397,274,52139,1,8,0:0:0:0:
397,274,52275,1,0,0:0:0:0:
397,274,52412,1,0,0:0:0:0:
397,274,52548,1,8,0:0:0:0:
397,274,52957,1,8,0:0:0:0:
397,274,53230,1,8,0:0:0:0:
397,274,53503,1,8,0:0:0:0:
397,274,54185,1,0,0:0:0:0:
397,274,54457,1,8,0:0:0:0:
397,274,54730,1,4,0:0:0:0:
397,274,55003,1,8,0:0:0:0:
397,274,55139,1,0,0:0:0:0:
397,274,55412,1,0,0:0:0:0:
397,274,55548,1,8,0:0:0:0:
397,274,55685,1,8,0:0:0:0:
397,274,55821,1,0,0:0:0:0:
397,274,56094,1,12,0:0:0:0:
256,31,56366,1,8,0:0:0:0:
256,31,56503,1,8,0:0:0:0:
256,31,56639,1,0,0:0:0:0:
256,31,56775,1,8,0:0:0:0:
256,31,56912,1,0,0:0:0:0:
256,31,57457,1,0,0:0:0:0:
134,243,57730,1,8,0:0:0:0:
256,31,58003,1,0,0:0:0:0:
256,31,58275,1,8,0:0:0:0:
256,31,58548,1,0,0:0:0:0:
256,31,58685,1,8,0:0:0:0:
256,31,58753,1,8,0:0:0:0:
256,31,58821,1,8,0:0:0:0:
256,31,59094,1,4,0:0:0:0:
256,31,59366,1,8,0:0:0:0:
256,31,59503,1,0,0:0:0:0:
256,31,59775,1,0,0:0:0:0:
256,31,59912,1,8,0:0:0:0:
256,31,60048,1,8,0:0:0:0:
256,31,60185,1,0,0:0:0:0:
256,31,60457,1,12,0:0:0:0:
256,31,60730,1,8,0:0:0:0:
256,31,60866,1,0,0:0:0:0:
256,31,61003,1,8,0:0:0:0:
256,31,61139,1,8,0:0:0:0:
256,31,61275,1,0,0:0:0:0:
256,31,61685,1,0,0:0:0:0:
256,31,61957,1,0,0:0:0:0:
256,31,62230,1,0,0:0:0:0:
256,192,62912,1,8,0:0:0:0:
256,192,63185,1,8,0:0:0:0:
256,192,63457,1,0,0:0:0:0:
256,192,63730,1,8,0:0:0:0:
256,192,64003,1,0,0:0:0:0:
256,192,64139,1,0,0:0:0:0:
256,192,64275,1,8,0:0:0:0:
256,192,64548,1,0,0:0:0:0:
256,192,64821,1,8,0:0:0:0:
256,192,65094,1,8,0:0:0:0:
256,192,65230,1,0,0:0:0:0:
256,192,65366,1,8,0:0:0:0:
256,192,65639,1,0,0:0:0:0:
256,192,65775,1,0,0:0:0:0:
256,192,65912,1,8,0:0:0:0:
256,192,66185,1,0,0:0:0:0:
256,192,66457,1,8,0:0:0:0:
256,192,66730,1,0,0:0:0:0:
256,192,67275,1,8,0:0:0:0:
256,192,67548,1,8,0:0:0:0:
256,192,67685,1,8,0:0:0:0:
256,192,67821,1,0,0:0:0:0:
256,192,68094,1,8,0:0:0:0:
256,192,68366,1,0,0:0:0:0:
256,192,68503,1,0,0:0:0:0:
256,192,68639,1,8,0:0:0:0:
256,192,68912,1,0,0:0:0:0:
256,192,69185,1,8,0:0:0:0:
256,192,69457,1,8,0:0:0:0:
256,192,69594,1,0,0:0:0:0:
256,192,69730,1,8,0:0:0:0:
256,192,70003,1,0,0:0:0:0:
256,192,70139,1,0,0:0:0:0:
256,192,70275,1,8,0:0:0:0:
256,192,70548,1,0,0:0:0:0:
256,192,70821,1,8,0:0:0:0:
256,192,71094,1,0,0:0:0:0:
256,192,71366,1,0,0:0:0:0:
256,192,71503,1,0,0:0:0:0:
256,192,71639,1,8,0:0:0:0:
256,192,71912,1,8,0:0:0:0:
256,192,72048,1,8,0:0:0:0:
256,192,72185,1,0,0:0:0:0:
256,192,72457,1,8,0:0:0:0:
256,192,73003,1,8,0:0:0:0:
256,192,73275,1,0,0:0:0:0:
256,192,73548,1,8,0:0:0:0:
256,192,73821,1,0,0:0:0:0:
256,192,74094,1,8,0:0:0:0:
256,192,74366,5,0,0:0:0:0:
256,192,74639,1,8,0:0:0:0:
256,192,74912,1,0,0:0:0:0:
256,192,75048,1,0,0:0:0:0:
256,192,75185,1,8,0:0:0:0:
256,192,75321,1,8,0:0:0:0:
256,192,75457,1,0,0:0:0:0:
256,192,75730,1,8,0:0:0:0:
256,192,76003,1,0,0:0:0:0:
256,192,76139,1,0,0:0:0:0:
256,192,76275,1,8,0:0:0:0:
256,192,76548,1,0,0:0:0:0:
256,192,76821,1,8,0:0:0:0:
256,192,77366,1,8,0:0:0:0:
256,192,77639,1,0,0:0:0:0:
256,192,77912,1,8,0:0:0:0:
256,192,78185,1,0,0:0:0:0:
256,192,78457,1,8,0:0:0:0:
256,192,78730,1,0,0:0:0:0:
256,192,78866,1,0,0:0:0:0:
256,192,79003,1,8,0:0:0:0:
256,192,79275,1,0,0:0:0:0:
256,192,79412,1,0,0:0:0:0:
256,192,79548,1,8,0:0:0:0:
256,192,79685,1,8,0:0:0:0:
256,192,79821,1,0,0:0:0:0:
256,192,80366,1,8,0:0:0:0:
256,192,80639,1,8,0:0:0:0:
256,192,80912,1,4,0:0:0:0:
256,192,81185,1,8,0:0:0:0:
256,192,81321,1,0,0:0:0:0:
256,192,81594,1,0,0:0:0:0:
256,192,81730,1,8,0:0:0:0:
256,192,81866,1,8,0:0:0:0:
256,192,82003,1,0,0:0:0:0:
117,274,83094,1,12,0:0:0:0:
117,274,83366,1,0,0:0:0:0:
117,274,83503,1,8,0:0:0:0:
117,274,83775,1,8,0:0:0:0:
117,274,84048,1,0,0:0:0:0:
117,274,84185,1,12,0:0:0:0:
117,274,85003,5,8,0:0:0:0:
117,274,85275,1,4,0:0:0:0:
117,274,85548,1,8,0:0:0:0:
117,274,85685,1,0,0:0:0:0:
117,274,85957,1,8,0:0:0:0:
117,274,86094,1,8,0:0:0:0:
117,274,86230,1,8,0:0:0:0:
117,274,86366,1,0,0:0:0:0:
117,274,86639,1,12,0:0:0:0:
117,274,86912,1,0,0:0:0:0:
117,274,87048,1,0,0:0:0:0:
117,274,87185,1,8,0:0:0:0:
117,274,87321,1,8,0:0:0:0:
117,274,87457,1,0,0:0:0:0:
117,274,87730,1,8,0:0:0:0:
117,274,88003,1,0,0:0:0:0:
117,274,88139,1,0,0:0:0:0:
117,274,88275,1,8,0:0:0:0:
117,274,88548,1,0,0:0:0:0:
117,274,88821,1,8,0:0:0:0:
117,274,89094,1,0,0:0:0:0:
117,274,89230,1,8,0:0:0:0:
117,274,89298,1,8,0:0:0:0:
117,274,89366,1,8,0:0:0:0:
117,274,89639,1,4,0:0:0:0:
117,274,89912,1,8,0:0:0:0:
117,274,90048,1,0,0:0:0:0:
117,274,90321,1,8,0:0:0:0:
117,274,90457,1,8,0:0:0:0:
117,274,90594,1,8,0:0:0:0:
117,274,90730,1,0,0:0:0:0:
117,274,91003,1,12,0:0:0:0:
117,274,91275,1,0,0:0:0:0:
117,274,91412,1,8,0:0:0:0:
117,274,91548,1,0,0:0:0:0:
117,274,91685,1,0,0:0:0:0:
117,274,91821,1,8,0:0:0:0:
117,274,92230,1,8,0:0:0:0:
117,274,92503,1,8,0:0:0:0:
117,274,92775,1,8,0:0:0:0:
256,192,93185,1,8,0:0:0:0:
256,192,93457,1,0,0:0:0:0:
256,192,93730,1,8,0:0:0:0:
256,192,94003,1,0,0:0:0:0:
256,192,94139,1,0,0:0:0:0:
256,192,94275,1,8,0:0:0:0:
256,192,94412,1,0,0:0:0:0:
256,192,94480,1,0,0:0:0:0:
256,192,94548,1,0,0:0:0:0:
256,192,94685,1,0,0:0:0:0:
256,192,94821,1,8,0:0:0:0:
256,192,94957,1,0,0:0:0:0:
256,192,95094,1,0,0:0:0:0:
256,192,95366,1,8,0:0:0:0:
256,192,95503,1,0,0:0:0:0:
256,192,95571,1,0,0:0:0:0:
256,192,95639,1,0,0:0:0:0:
256,192,95775,1,0,0:0:0:0:
256,192,95912,1,8,0:0:0:0:
256,192,96048,1,8,0:0:0:0:
256,192,96185,1,0,0:0:0:0:
256,192,96389,1,0,0:0:0:0:
256,192,96594,1,0,0:0:0:0:
256,192,96730,1,8,0:0:0:0:
256,192,96935,1,8,0:0:0:0:
256,192,97139,1,8,0:0:0:0:
256,192,97275,1,0,0:0:0:0:
256,192,97548,1,8,0:0:0:0:
256,192,97821,1,0,0:0:0:0:
256,192,98366,1,0,0:0:0:0:
256,192,98503,1,0,0:0:0:0:
256,192,98639,1,8,0:0:0:0:
256,192,98775,1,0,0:0:0:0:
256,192,98844,1,0,0:0:0:0:
256,192,98912,1,0,0:0:0:0:
256,192,99048,1,0,0:0:0:0:
256,192,99185,1,8,0:0:0:0:
256,192,99321,1,0,0:0:0:0:
256,192,99457,1,0,0:0:0:0:
256,192,99730,1,8,0:0:0:0:
256,192,99866,1,0,0:0:0:0:
256,192,99935,1,0,0:0:0:0:
256,192,100003,1,0,0:0:0:0:
256,192,100139,1,0,0:0:0:0:
256,192,100275,1,8,0:0:0:0:
256,192,100412,1,8,0:0:0:0:
256,192,100548,1,0,0:0:0:0:
256,192,100957,1,8,0:0:0:0:
256,192,101230,1,8,0:0:0:0:
256,192,101503,1,8,0:0:0:0:
256,192,101912,1,8,0:0:0:0:
256,192,102185,1,0,0:0:0:0:
256,192,102457,1,8,0:0:0:0:
256,192,102594,1,8,0:0:0:0:
256,192,102730,1,4,0:0:0:0:
256,192,103139,1,12,0:0:0:0:
256,192,103548,1,4,0:0:0:0:
257,274,103821,1,8,0:0:0:0:
257,274,104093,1,0,0:0:0:0:
257,274,104230,1,0,0:0:0:0:
257,274,104366,1,8,0:0:0:0:
257,274,104639,1,8,0:0:0:0:
257,274,104775,1,8,0:0:0:0:
292,274,104912,1,4,0:0:0:0:
256,192,105321,1,12,0:0:0:0:
256,192,105730,1,4,0:0:0:0:
256,192,106139,1,12,0:0:0:0:
256,192,106548,1,12,0:0:0:0:
256,192,107094,1,4,0:0:0:0:
256,192,107503,1,12,0:0:0:0:
256,192,107912,1,4,0:0:0:0:
257,274,108321,1,8,0:0:0:0:
257,274,108457,1,0,0:0:0:0:
257,274,108594,1,0,0:0:0:0:
257,274,108730,1,8,0:0:0:0:
257,274,109003,1,8,0:0:0:0:
257,274,109071,1,8,0:0:0:0:
257,274,109139,1,8,0:0:0:0:
292,274,109276,1,4,0:0:0:0:
117,274,109685,1,0,0:0:0:0:
256,31,109957,1,0,0:0:0:0:
397,274,110230,1,0,0:0:0:0:
256,192,110366,1,0,0:0:0:0:
