osu file format v14

[General]
AudioFilename: audio.mp3
AudioLeadIn: 0
PreviewTime: 45935
Countdown: 0
SampleSet: Normal
StackLeniency: 0.7
Mode: 1
LetterboxInBreaks: 0
WidescreenStoryboard: 1

[Editor]
DistanceSpacing: 0.9
BeatDivisor: 4
GridSize: 32
TimelineZoom: 1.7

[Metadata]
Title:TRICKL4SH 220
TitleUnicode:TRICKL4SH 220
Artist:Lite Show Magic
ArtistUnicode:Lite Show Magic
Creator:Monstrata
Version:Futsuu
Source:SOUND VOLTEX IV HEAVENLY HAVEN
Tags:tricklash t+pazolite vs C-Show KinomiCandy Midnaait hikikochan TKS MMzz mittenmasterzz SDVX KONAMI BEMANI Don't waste me! E.P. EP M3-36 M3 HARDCORE Happy Hardcore Speedcore Lick Dom Records
BeatmapID:1461316
BeatmapSetID:690470

[Difficulty]
HPDrainRate:6.5
CircleSize:5
OverallDifficulty:4.5
ApproachRate:5
SliderMultiplier:1.4
SliderTickRate:1

[Events]
//Background and Video events
0,0,"BG420-.png",0,120
//Break Periods
//Storyboard Layer 0 (Background)
//Storyboard Layer 1 (Fail)
//Storyboard Layer 2 (Pass)
//Storyboard Layer 3 (Foreground)
//Storyboard Sound Samples

[TimingPoints]
185,272.727272727273,4,1,0,100,1,0
46003,-100,4,1,0,100,0,1
63457,-100,4,1,0,100,0,0
85275,-100,4,1,0,100,0,1
102730,-100,4,1,0,100,0,0

[HitObjects]
117,274,185,5,4,0:0:0:0:
152,274,4139,1,12,0:0:0:0:
187,274,4548,1,4,0:0:0:0:
187,274,6730,1,4,0:0:0:0:
222,274,7003,1,4,0:0:0:0:
222,274,7275,1,4,0:0:0:0:
222,274,7548,1,4,0:0:0:0:
222,274,8503,1,12,0:0:0:0:
257,274,8912,5,4,0:0:0:0:
257,274,9321,1,4,0:0:0:0:
257,274,9730,1,12,0:0:0:0:
256,192,10275,1,0,0:0:0:0:
256,192,10548,1,8,0:0:0:0:
292,274,11094,1,12,0:0:0:0:
292,274,11503,1,4,0:0:0:0:
292,274,11912,1,12,0:0:0:0:
292,274,12321,1,12,0:0:0:0:
292,274,12730,1,4,0:0:0:0:
327,274,13275,1,4,0:0:0:0:
327,274,13685,1,4,0:0:0:0:
327,274,14094,1,12,0:0:0:0:
256,192,14639,1,0,0:0:0:0:
256,192,14912,1,8,0:0:0:0:
362,274,15457,1,12,0:0:0:0:
362,274,15866,1,4,0:0:0:0:
362,274,16275,1,12,0:0:0:0:
362,274,16685,1,12,0:0:0:0:
362,274,17094,1,4,0:0:0:0:
397,274,17639,5,4,0:0:0:0:
397,274,18185,1,8,0:0:0:0:
379,243,18730,1,0,0:0:0:0:
379,243,19003,1,0,0:0:0:0:
379,243,19275,1,8,0:0:0:0:
362,212,19548,1,8,0:0:0:0:
379,243,19821,1,0,0:0:0:0:
379,243,19957,1,0,0:0:0:0:
379,243,20094,1,0,0:0:0:0:
362,212,20366,1,0,0:0:0:0:
362,212,20639,1,8,0:0:0:0:
344,182,20912,1,0,0:0:0:0:
344,182,21457,1,8,0:0:0:0:
344,182,21594,1,8,0:0:0:0:
344,182,21730,1,8,0:0:0:0:
344,182,22003,5,0,0:0:0:0:
327,152,22548,1,8,0:0:0:0:
327,152,23094,1,0,0:0:0:0:
309,121,23366,1,0,0:0:0:0:
309,121,23639,1,8,0:0:0:0:
309,121,23912,1,8,0:0:0:0:
309,121,24185,1,0,0:0:0:0:
379,243,24321,1,0,0:0:0:0:
379,243,24457,1,0,0:0:0:0:
309,121,24730,1,0,0:0:0:0:
309,121,25003,1,8,0:0:0:0:
309,121,25275,1,0,0:0:0:0:
292,91,26366,5,0,0:0:0:0:
274,61,26912,1,0,0:0:0:0:
274,61,27185,1,8,0:0:0:0:
274,61,27457,1,0,0:0:0:0:
256,31,28003,1,8,0:0:0:0:
256,31,28548,5,0,0:0:0:0:
256,31,29094,1,8,0:0:0:0:
256,31,29366,1,8,0:0:0:0:
256,31,29639,1,0,0:0:0:0:
239,61,30730,5,0,0:0:0:0:
239,61,31275,1,8,0:0:0:0:
379,243,31548,1,8,0:0:0:0:
239,61,31821,1,0,0:0:0:0:
239,61,32094,1,0,0:0:0:0:
239,61,32366,1,8,0:0:0:0:
222,92,32912,1,0,0:0:0:0:
222,92,33185,1,0,0:0:0:0:
222,92,33321,1,0,0:0:0:0:
222,92,33457,1,0,0:0:0:0:
204,122,33730,1,0,0:0:0:0:
204,122,33866,1,0,0:0:0:0:
204,122,34003,1,0,0:0:0:0:
204,122,35094,1,0,0:0:0:0:
204,122,36185,1,8,0:0:0:0:
187,152,36730,1,8,0:0:0:0:
187,152,37275,1,0,0:0:0:0:
187,152,38366,1,8,0:0:0:0:
187,152,38912,1,0,0:0:0:0:
187,152,39185,1,8,0:0:0:0:
187,152,39457,1,0,0:0:0:0:
187,152,40003,1,8,0:0:0:0:
187,152,40548,1,0,0:0:0:0:
187,152,41094,1,8,0:0:0:0:
169,183,41639,1,0,0:0:0:0:
169,183,42185,1,8,0:0:0:0:
169,183,42457,1,0,0:0:0:0:
169,183,42730,1,8,0:0:0:0:
169,183,43275,1,0,0:0:0:0:
169,183,43548,1,8,0:0:0:0:
169,183,43821,1,0,0:0:0:0:
152,213,45457,1,8,0:0:0:0:
152,213,45730,1,8,0:0:0:0:
152,213,46003,5,4,0:0:0:0:
152,213,46412,1,0,0:0:0:0:
152,213,46821,1,0,0:0:0:0:
152,213,47094,1,0,0:0:0:0:
152,213,47366,1,8,0:0:0:0:
222,92,47639,1,0,0:0:0:0:
152,213,47912,1,8,0:0:0:0:
222,92,48048,1,8,0:0:0:0:
134,243,48185,1,0,0:0:0:0:
134,243,48730,1,0,0:0:0:0:
134,243,49003,1,8,0:0:0:0:
134,243,49275,1,0,0:0:0:0:
134,243,49821,1,8,0:0:0:0:
134,243,49957,1,8,0:0:0:0:
134,243,50094,1,8,0:0:0:0:
397,274,50366,5,0,0:0:0:0:
397,274,50775,1,0,0:0:0:0:
397,274,51185,1,8,0:0:0:0:
397,274,51457,1,0,0:0:0:0:
397,274,51730,1,8,0:0:0:0:
222,92,52003,1,0,0:0:0:0:
397,274,52275,1,8,0:0:0:0:
222,92,52412,1,0,0:0:0:0:
397,274,52548,1,8,0:0:0:0:
397,274,52957,1,0,0:0:0:0:
397,274,53230,1,0,0:0:0:0:
397,274,53503,1,0,0:0:0:0:
397,274,54730,5,4,0:0:0:0:
397,274,55139,1,0,0:0:0:0:
397,274,55548,1,0,0:0:0:0:
397,274,55821,1,0,0:0:0:0:
397,274,56094,1,8,0:0:0:0:
397,274,56366,1,0,0:0:0:0:
256,31,56639,1,8,0:0:0:0:
397,274,56775,1,8,0:0:0:0:
256,31,56912,1,0,0:0:0:0:
256,31,57457,1,0,0:0:0:0:
256,31,57730,1,8,0:0:0:0:
256,31,58003,1,0,0:0:0:0:
256,31,58548,1,8,0:0:0:0:
256,31,58685,1,8,0:0:0:0:
256,31,58821,1,8,0:0:0:0:
256,31,59094,5,0,0:0:0:0:
256,31,59503,1,0,0:0:0:0:
256,31,59912,1,8,0:0:0:0:
256,31,60185,1,0,0:0:0:0:
256,31,60457,1,8,0:0:0:0:
256,31,60730,1,0,0:0:0:0:
256,31,61003,1,8,0:0:0:0:
256,31,61139,1,0,0:0:0:0:
256,31,61275,1,8,0:0:0:0:
256,31,61685,1,0,0:0:0:0:
256,31,61957,1,0,0:0:0:0:
256,31,62230,1,0,0:0:0:0:
256,31,63457,5,0,0:0:0:0:
256,31,64003,1,8,0:0:0:0:
256,31,64548,1,0,0:0:0:0:
256,31,64821,1,0,0:0:0:0:
256,31,65094,1,8,0:0:0:0:
256,31,65639,1,8,0:0:0:0:
256,31,65912,1,0,0:0:0:0:
256,31,66185,1,8,0:0:0:0:
256,31,66457,1,8,0:0:0:0:
256,31,66730,1,0,0:0:0:0:
256,31,67275,1,8,0:0:0:0:
256,31,67548,1,8,0:0:0:0:
256,31,67821,5,0,0:0:0:0:
256,31,68366,1,8,0:0:0:0:
256,31,68912,1,0,0:0:0:0:
256,31,69185,1,0,0:0:0:0:
256,31,69457,1,8,0:0:0:0:
256,31,70003,1,0,0:0:0:0:
256,31,70275,1,0,0:0:0:0:
256,31,70548,1,8,0:0:0:0:
256,31,70821,1,0,0:0:0:0:
256,31,71094,1,8,0:0:0:0:
222,92,71366,1,0,0:0:0:0:
222,92,71503,1,0,0:0:0:0:
222,92,71639,1,8,0:0:0:0:
256,192,72185,5,4,0:0:0:0:
256,192,72730,1,8,0:0:0:0:
256,192,73275,1,8,0:0:0:0:
256,192,73821,1,8,0:0:0:0:
256,192,74366,1,0,0:0:0:0:
256,192,74912,1,8,0:0:0:0:
256,192,75185,1,8,0:0:0:0:
256,192,75457,1,0,0:0:0:0:
256,192,76003,1,8,0:0:0:0:
256,192,76139,1,8,0:0:0:0:
256,192,76275,1,8,0:0:0:0:
256,192,76548,5,0,0:0:0:0:
256,192,77094,1,8,0:0:0:0:
256,192,77639,1,8,0:0:0:0:
256,192,78185,1,8,0:0:0:0:
256,192,78730,1,0,0:0:0:0:
256,192,79003,1,0,0:0:0:0:
256,192,79275,1,0,0:0:0:0:
256,192,79548,1,0,0:0:0:0:
256,192,79685,1,0,0:0:0:0:
256,192,79821,1,0,0:0:0:0:
256,192,80912,5,4,0:0:0:0:
256,192,81321,1,0,0:0:0:0:
256,192,81730,1,8,0:0:0:0:
117,274,83094,5,4,0:0:0:0:
117,274,83503,1,8,0:0:0:0:
117,274,83775,1,8,0:0:0:0:
117,274,84048,1,0,0:0:0:0:
117,274,84185,1,8,0:0:0:0:
117,274,85275,5,4,0:0:0:0:
117,274,85685,1,0,0:0:0:0:
117,274,85957,1,0,0:0:0:0:
117,274,86094,1,8,0:0:0:0:
117,274,86366,1,0,0:0:0:0:
117,274,86639,1,8,0:0:0:0:
397,274,86912,1,0,0:0:0:0:
117,274,87185,1,8,0:0:0:0:
117,274,87321,1,8,0:0:0:0:
117,274,87457,1,0,0:0:0:0:
117,274,88003,1,0,0:0:0:0:
256,192,88275,1,8,0:0:0:0:
117,274,88548,1,0,0:0:0:0:
117,274,89094,1,8,0:0:0:0:
117,274,89230,1,8,0:0:0:0:
117,274,89366,1,8,0:0:0:0:
117,274,89639,5,0,0:0:0:0:
117,274,90048,1,0,0:0:0:0:
117,274,90321,1,0,0:0:0:0:
117,274,90457,1,8,0:0:0:0:
117,274,90730,1,0,0:0:0:0:
117,274,91003,1,8,0:0:0:0:
397,274,91275,1,0,0:0:0:0:
117,274,91548,1,8,0:0:0:0:
117,274,91685,1,0,0:0:0:0:
117,274,91821,1,8,0:0:0:0:
117,274,92230,1,0,0:0:0:0:
117,274,92503,1,0,0:0:0:0:
117,274,92775,1,0,0:0:0:0:
256,192,94003,1,4,0:0:0:0:
256,192,94548,1,0,0:0:0:0:
256,192,94821,1,0,0:0:0:0:
256,192,94957,1,0,0:0:0:0:
256,192,95094,1,0,0:0:0:0:
256,192,95366,1,0,0:0:0:0:
256,192,95639,1,8,0:0:0:0:
397,274,95775,1,8,0:0:0:0:
256,192,95912,1,8,0:0:0:0:
256,192,96185,1,0,0:0:0:0:
256,192,96730,1,0,0:0:0:0:
256,192,97275,1,0,0:0:0:0:
256,192,97548,1,8,0:0:0:0:
256,192,97821,1,0,0:0:0:0:
256,192,98366,5,4,0:0:0:0:
256,192,98912,1,0,0:0:0:0:
256,192,99185,1,0,0:0:0:0:
256,192,99321,1,0,0:0:0:0:
256,192,99457,1,0,0:0:0:0:
256,192,99730,1,0,0:0:0:0:
256,192,100003,1,8,0:0:0:0:
397,274,100139,1,8,0:0:0:0:
256,192,100275,1,8,0:0:0:0:
256,192,100548,1,0,0:0:0:0:
256,192,100957,1,0,0:0:0:0:
256,192,101230,1,0,0:0:0:0:
256,192,101503,1,0,0:0:0:0:
256,192,102730,5,4,0:0:0:0:
256,192,103139,1,4,0:0:0:0:
256,192,103548,1,12,0:0:0:0:
256,192,104094,1,0,0:0:0:0:
256,192,104366,1,8,0:0:0:0:
256,192,104912,1,12,0:0:0:0:
256,192,105321,1,4,0:0:0:0:
256,192,105730,1,12,0:0:0:0:
256,192,106139,1,12,0:0:0:0:
256,192,106548,1,4,0:0:0:0:
256,192,107094,5,4,0:0:0:0:
256,192,107503,1,4,0:0:0:0:
256,192,107912,1,12,0:0:0:0:
256,192,108457,1,0,0:0:0:0:
256,192,108730,1,8,0:0:0:0:
256,192,109003,1,8,0:0:0:0:
256,192,109139,1,8,0:0:0:0:
256,192,109275,1,0,0:0:0:0:
117,274,109685,1,0,0:0:0:0:
397,274,110230,1,0,0:0:0:0:
256,192,110366,1,0,0:0:0:0:
