osu file format v14

[General]
AudioFilename: audio.mp3
AudioLeadIn: 0
PreviewTime: 46013
Countdown: 0
SampleSet: Soft
StackLeniency: 0.7
Mode: 2
LetterboxInBreaks: 0
WidescreenStoryboard: 0

[Editor]
DistanceSpacing: 0.9
BeatDivisor: 4
GridSize: 16
TimelineZoom: 1.9

[Metadata]
Title:TRICKL4SH 220
TitleUnicode:TRICKL4SH 220
Artist:Lite Show Magic
ArtistUnicode:Lite Show Magic
Creator:Minato Yukina
Version:HEAVENLY
Source:SOUND VOLTEX IV HEAVENLY HAVEN
Tags:Don't waste me! E.P. C85 t+pazolite 浜田知幸 Hamada Tomoyuki C-Show 道下朗 Michishita Akira Razor Sharp RS Arthas Kyuare light electronic instrumental tricklash
BeatmapID:1300167
BeatmapSetID:616487

[Difficulty]
HPDrainRate:6.4
CircleSize:4.4
OverallDifficulty:9.7
ApproachRate:9.7
SliderMultiplier:1.6
SliderTickRate:2

[Events]
//Background and Video events
0,0,"BG.jpg",0,0
//Break Periods
//Storyboard Layer 0 (Background)
//Storyboard Layer 1 (Fail)
//Storyboard Layer 2 (Pass)
//Storyboard Layer 3 (Foreground)
//Storyboard Layer 4 (Overlay)
//Storyboard Sound Samples

[TimingPoints]
195,272.727272727273,4,2,2,55,1,0
195,-83.3333333333333,4,2,2,55,0,0
7831,-83.3333333333333,4,2,0,55,0,0
8513,-83.3333333333333,4,2,2,55,0,0
8922,-71.4285714285714,4,2,2,55,0,0
9263,-71.4285714285714,4,2,0,55,0,0
9331,-71.4285714285714,4,2,2,55,0,0
9672,-71.4285714285714,4,2,0,55,0,0
9740,-71.4285714285714,4,2,2,55,0,0
9945,-71.4285714285714,4,2,0,55,0,0
10013,-71.4285714285714,4,2,2,55,0,0
11445,-71.4285714285714,4,2,0,55,0,0
11513,-71.4285714285714,4,2,2,55,0,0
11854,-71.4285714285714,4,2,0,55,0,0
11922,-71.4285714285714,4,2,2,55,0,0
12263,-71.4285714285714,4,2,0,55,0,0
12331,-71.4285714285714,4,2,2,55,0,0
12672,-71.4285714285714,4,2,0,55,0,0
12740,-71.4285714285714,4,2,2,55,0,0
12945,-71.4285714285714,4,2,0,55,0,0
13013,-71.4285714285714,4,2,2,55,0,0
13217,-71.4285714285714,4,2,0,55,0,0
13285,-71.4285714285714,4,2,2,55,0,0
13626,-71.4285714285714,4,2,0,55,0,0
13694,-71.4285714285714,4,2,2,55,0,0
14035,-71.4285714285714,4,2,0,55,0,0
14103,-71.4285714285714,4,2,2,55,0,0
14308,-71.4285714285714,4,2,0,55,0,0
14376,-71.4285714285714,4,2,2,55,0,0
15808,-71.4285714285714,4,2,0,55,0,0
15876,-71.4285714285714,4,2,2,55,0,0
16217,-71.4285714285714,4,2,0,55,0,0
16285,-71.4285714285714,4,2,2,55,0,0
16626,-71.4285714285714,4,2,0,55,0,0
16694,-71.4285714285714,4,2,2,55,0,0
17035,-71.4285714285714,4,2,0,55,0,0
17103,-71.4285714285714,4,2,2,55,0,0
17308,-71.4285714285714,4,2,0,55,0,0
17376,-71.4285714285714,4,2,2,55,0,0
17649,-71.4285714285714,4,2,3,55,0,0
34013,-62.5,4,2,0,45,0,0
35104,-125,4,2,2,55,0,0
43831,-125,4,2,0,55,0,0
46013,-71.4285714285714,4,2,99,85,0,1
46149,-71.4285714285714,4,2,1,65,0,1
47376,-55.5555555555556,4,2,1,65,0,1
47649,-71.4285714285714,4,2,1,65,0,1
51740,-55.5555555555556,4,2,1,65,0,1
52013,-71.4285714285714,4,2,1,65,0,1
56104,-55.5555555555556,4,2,1,65,0,1
56376,-71.4285714285714,4,2,1,65,0,1
60467,-55.5555555555556,4,2,1,65,0,1
60740,-71.4285714285714,4,2,1,65,0,1
63467,-71.4285714285714,4,2,2,55,0,0
65581,-71.4285714285714,4,2,0,55,0,0
65649,-71.4285714285714,4,2,2,55,0,0
69945,-71.4285714285714,4,2,0,55,0,0
70013,-71.4285714285714,4,2,2,55,0,0
73217,-71.4285714285714,4,2,0,55,0,0
73285,-62.5,4,2,2,55,0,0
73490,-62.5,4,2,0,55,0,0
73558,-62.5,4,2,2,55,0,0
73763,-62.5,4,2,0,55,0,0
73831,-62.5,4,2,2,55,0,0
74035,-62.5,4,2,0,55,0,0
74103,-62.5,4,2,2,55,0,0
74308,-62.5,4,2,0,55,0,0
74376,-71.4285714285714,4,2,2,55,0,0
77581,-71.4285714285714,4,2,0,55,0,0
77649,-62.5,4,2,2,55,0,0
77854,-62.5,4,2,0,55,0,0
77922,-62.5,4,2,2,55,0,0
78126,-62.5,4,2,0,55,0,0
78194,-62.5,4,2,2,55,0,0
78399,-62.5,4,2,0,55,0,0
78467,-62.5,4,2,2,55,0,0
78672,-62.5,4,2,0,55,0,0
78740,-71.4285714285714,4,2,2,55,0,0
79831,-62.5,4,2,0,45,0,0
80922,-71.4285714285714,4,2,3,55,0,0
82013,-71.4285714285714,4,2,2,55,0,0
83104,-71.4285714285714,4,2,3,55,0,0
85285,-71.4285714285714,4,2,99,85,0,1
85422,-71.4285714285714,4,2,1,65,0,1
86649,-55.5555555555556,4,2,1,65,0,1
86922,-71.4285714285714,4,2,1,65,0,1
91013,-55.5555555555556,4,2,1,65,0,1
91285,-71.4285714285714,4,2,1,65,0,1
102740,-62.5,4,2,2,65,0,0
103081,-62.5,4,2,0,55,0,0
103149,-62.5,4,2,2,55,0,0
103490,-62.5,4,2,0,55,0,0
103558,-62.5,4,2,2,55,0,0
103763,-62.5,4,2,0,55,0,0
103831,-62.5,4,2,2,55,0,0
105263,-62.5,4,2,0,55,0,0
105331,-62.5,4,2,2,55,0,0
105672,-62.5,4,2,0,55,0,0
105740,-62.5,4,2,2,55,0,0
106081,-62.5,4,2,0,55,0,0
106149,-62.5,4,2,2,55,0,0
106490,-62.5,4,2,0,55,0,0
106558,-62.5,4,2,2,55,0,0
106763,-62.5,4,2,0,55,0,0
106831,-62.5,4,2,2,55,0,0
107035,-62.5,4,2,0,55,0,0
107103,-62.5,4,2,2,55,0,0
107445,-62.5,4,2,0,55,0,0
107513,-62.5,4,2,2,55,0,0
107854,-62.5,4,2,0,55,0,0
107922,-62.5,4,2,2,55,0,0
108126,-62.5,4,2,0,55,0,0
108194,-62.5,4,2,2,55,0,0
109626,-62.5,4,2,0,55,0,0
109694,-62.5,4,2,2,55,0,0
109899,-62.5,4,2,0,55,0,0
109967,-62.5,4,2,2,55,0,0
110172,-62.5,4,2,0,55,0,0
110240,-62.5,4,2,2,55,0,0
110308,-62.5,4,2,0,55,0,0
110376,-71.4285714285715,4,2,2,55,0,0
110649,-71.4285714285715,4,2,0,35,0,0

[Colours]
Combo1 : 89,7,226
Combo2 : 231,126,22
Combo3 : 248,52,159
Combo4 : 255,140,179
Combo5 : 187,103,229
Combo6 : 255,255,255

[HitObjects]
148,102,195,5,0,0:0:0:0:
350,105,331,1,0,0:0:0:0:
239,111,467,2,0,L|234:225,1,95.9999970703126
365,207,740,1,0,0:0:0:0:
160,224,876,1,0,0:0:0:0:
269,272,1013,1,0,0:0:0:0:
164,310,1149,1,0,0:0:0:0:
418,348,1285,5,0,0:0:0:0:
216,345,1422,1,0,0:0:0:0:
327,339,1558,2,0,L|332:225,1,95.9999970703126
223,218,1831,1,0,0:0:0:0:
348,182,1967,1,0,0:0:0:0:
121,150,2104,2,2,L|156:115,1,47.9999985351563
231,114,2240,2,2,L|266:79,1,47.9999985351563
191,77,2376,6,0,L|86:78,1,95.9999970703126
306,143,2649,1,0,0:0:0:0:
195,146,2785,1,0,0:0:0:0:
306,143,2922,1,0,0:0:0:0:
95,77,3058,2,0,L|191:77,2,95.9999970703126
307,71,3467,6,2,L|255:71,1,47.9999985351563
205,72,3604,1,2,0:0:0:0:
422,74,3740,1,0,0:0:0:0:
310,153,3876,2,2,L|362:153,1,47.9999985351563
412,154,4013,1,2,0:0:0:0:
152,151,4149,6,0,P|100:187|168:252,1,143.999995605469,2|0,0:3|0:0,0:0:0:0:
205,255,4422,2,0,L|263:257,1,47.9999985351563
62,204,4558,6,0,L|52:313,1,95.9999970703126,2|0,0:3|0:0,0:0:0:0:
280,84,4831,2,0,L|290:193,1,95.9999970703126,2|0,0:0|0:0,0:0:0:0:
158,179,5104,1,2,0:0:0:0:
395,281,5240,2,0,L|286:278,2,95.9999970703126,2|0|2,0:0|0:0|0:0,0:0:0:0:
176,226,5649,5,0,0:0:0:0:
293,223,5785,2,2,L|299:285,2,47.9999985351563
164,273,6058,1,2,0:0:0:0:
297,270,6195,1,0,0:0:0:0:
87,268,6331,1,2,0:0:0:0:
201,305,6467,2,2,L|255:310,1,47.9999985351563
97,344,6604,2,2,L|151:349,1,47.9999985351563
342,313,6740,6,0,L|456:317,1,95.9999970703126,2|0,0:3|0:0,0:0:0:0:
170,313,7013,2,0,L|56:317,1,95.9999970703126,2|0,0:3|0:0,0:0:0:0:
482,243,7285,2,0,L|387:240,1,95.9999970703126,2|0,0:3|0:0,0:0:0:0:
29,243,7558,2,0,L|125:240,1,95.9999970703126,2|0,0:3|0:0,0:0:0:0:
368,128,7831,5,2,0:0:0:0:
256,96,7967,1,2,0:0:0:0:
144,128,8104,1,0,0:0:0:0:
387,240,8240,2,0,P|431:208|409:129,1,143.999995605469,2|0,0:0|0:0,0:0:0:0:
110,266,8513,6,2,L|101:219,5,47.9999985351563,2|2|2|2|2|2,0:3|0:3|0:3|0:3|0:3|0:3,0:3:0:0:
256,320,8922,6,0,B|391:320|391:178|257:169,1,279.999991455078,12|0,0:0|0:0,0:0:0:0:
384,166,9331,6,0,B|519:166|519:24|385:15,1,279.999991455078,8|0,0:0|0:0,0:0:0:0:
256,168,9740,6,0,P|330:143|347:52,1,167.999994873047,8|0,0:0|0:0,0:0:0:0:
192,96,10013,6,0,L|74:95,1,111.999996582031,2|0,0:0|0:0,0:0:0:0:
320,96,10285,2,0,L|438:95,1,111.999996582031,8|0,0:0|0:0,0:0:0:0:
128,176,10558,6,2,L|72:220,1,55.9999982910157
324,172,10695,2,2,L|343:231,1,55.9999982910157
188,172,10831,2,2,L|169:231,1,55.9999982910157
384,176,10967,2,2,L|440:220,1,55.9999982910157
256,320,11104,6,0,B|121:320|121:178|255:169,1,279.999991455078,12|0,0:0|0:0,0:0:0:0:
128,166,11513,6,0,B|-7:166|-7:24|127:15,1,279.999991455078,8|0,0:0|0:0,0:0:0:0:
256,320,11922,6,0,B|391:320|391:178|257:169,1,279.999991455078,8|0,0:0|0:0,0:0:0:0:
384,160,12331,6,0,B|519:160|519:18|385:9,1,279.999991455078,8|0,0:0|0:0,0:0:0:0:
128,14,12740,6,0,L|128:190,1,167.999994873047,8|0,0:0|0:0,0:0:0:0:
384,14,13013,2,0,L|384:190,1,167.999994873047,8|0,0:0|0:0,0:0:0:0:
256,320,13285,6,0,B|121:320|121:178|255:169,1,279.999991455078,12|0,0:0|0:0,0:0:0:0:
384,176,13695,6,0,B|249:176|249:34|383:25,1,279.999991455078,8|0,0:0|0:0,0:0:0:0:
256,168,14104,6,0,P|182:143|165:52,1,167.999994873047,8|0,0:0|0:0,0:0:0:0:
320,64,14376,6,0,L|438:63,1,111.999996582031,2|0,0:0|0:0,0:0:0:0:
192,64,14649,2,0,L|74:63,1,111.999996582031
384,176,14922,6,2,L|440:220,1,55.9999982910157
188,172,15058,2,2,L|169:231,1,55.9999982910157
324,172,15195,2,2,L|343:231,1,55.9999982910157
128,176,15331,2,2,L|72:220,1,55.9999982910157
256,368,15467,6,0,B|391:368|391:226|257:217,1,279.999991455078,12|0,0:0|0:0,0:0:0:0:
384,208,15876,6,0,B|519:208|519:66|385:57,1,279.999991455078,8|0,0:0|0:0,0:0:0:0:
256,176,16285,6,0,B|121:176|121:34|255:25,1,279.999991455078,8|0,0:0|0:0,0:0:0:0:
128,176,16695,6,0,B|-7:176|-7:34|127:25,1,279.999991455078,8|0,0:0|0:0,0:0:0:0:
384,64,17104,6,0,L|384:232,1,167.999994873047,8|0,0:0|0:0,0:0:0:0:
128,224,17376,1,0,0:0:0:0:
331,110,17649,6,0,L|207:105,1,111.999996582031,12|0,0:0|0:0,0:0:0:0:
413,125,17922,2,0,L|421:242,1,111.999996582031,8|0,0:0|0:0,0:0:0:0:
291,246,18195,1,8,0:0:0:0:
499,270,18331,1,0,0:0:0:0:
291,246,18467,2,0,L|155:242,1,111.999996582031,8|0,0:0|0:0,0:0:0:0:
371,151,18740,5,8,0:0:0:0:
259,145,18876,2,0,L|188:142,1,55.9999982910157
156,94,19013,1,8,0:0:0:0:
356,94,19149,1,0,0:0:0:0:
141,151,19285,2,0,L|21:155,1,111.999996582031,8|0,0:0|0:0,0:0:0:0:
255,195,19558,2,0,L|375:199,1,111.999996582031,8|0,0:0|0:0,0:0:0:0:
106,255,19831,5,10,0:0:0:0:
210,252,19967,2,2,L|162:294,1,55.9999982910157
272,291,20172,2,2,L|224:333,2,55.9999982910157
109,313,20376,6,2,L|40:310,1,55.9999982910157,10|2,0:0|0:0,0:0:0:0:
244,245,20513,2,2,L|313:242,1,55.9999982910157
81,273,20649,2,0,L|77:157,1,111.999996582031,10|2,0:0|0:0,0:0:0:0:
423,131,20922,6,0,P|461:161|440:213,1,111.999996582031,8|0,0:0|0:0,0:0:0:0:
369,212,21126,2,0,P|331:242|352:294,1,111.999996582031
423,301,21331,1,0,0:0:0:0:
185,254,21467,2,0,L|56:256,1,111.999996582031,10|2,0:0|0:0,0:0:0:0:
441,188,21740,2,0,L|451:306,1,111.999996582031,8|0,0:0|0:0,0:0:0:0:
181,110,22013,6,0,L|305:105,1,111.999996582031,8|0,0:0|0:0,0:0:0:0:
99,125,22285,2,0,L|91:242,1,111.999996582031,8|0,0:0|0:0,0:0:0:0:
221,246,22558,1,8,0:0:0:0:
13,270,22695,1,0,0:0:0:0:
221,246,22831,2,0,L|357:242,1,111.999996582031,8|0,0:0|0:0,0:0:0:0:
141,151,23104,5,8,0:0:0:0:
253,145,23240,2,0,L|324:142,1,55.9999982910157
356,94,23376,1,8,0:0:0:0:
156,94,23513,1,0,0:0:0:0:
371,151,23649,2,0,L|491:155,1,111.999996582031,8|0,0:0|0:0,0:0:0:0:
257,195,23922,2,0,L|137:199,1,111.999996582031,8|0,0:0|0:0,0:0:0:0:
404,244,24195,5,10,0:0:0:0:
303,250,24331,2,2,L|351:292,1,55.9999982910157
240,291,24535,2,2,L|288:333,2,55.9999982910157
403,313,24740,6,2,L|472:310,1,55.9999982910157,10|2,0:0|0:0,0:0:0:0:
268,245,24876,2,2,L|199:242,1,55.9999982910157
431,273,25013,2,2,L|435:157,1,111.999996582031,10|2,0:0|0:0,0:0:0:0:
109,258,25285,6,0,P|60:237|96:87,1,223.999993164063
193,83,25695,1,0,0:0:0:0:
403,258,25831,2,0,P|452:237|416:87,1,223.999993164063
319,83,26240,1,0,0:0:0:0:
50,158,26376,5,12,0:0:0:0:
165,164,26513,2,0,L|171:227,2,55.9999982910157,0|0|8,0:0|0:0|0:0,0:0:0:0:
27,213,26785,1,0,0:0:0:0:
314,202,26922,1,8,0:0:0:0:
198,202,27058,1,0,0:0:0:0:
325,143,27195,1,8,0:0:0:0:
187,143,27331,1,0,0:0:0:0:
489,237,27467,6,0,L|331:232,1,111.999996582031,12|0,0:0|0:0,0:0:0:0:
207,290,27672,2,0,L|365:285,1,111.999996582031,12|0,0:0|0:0,0:0:0:0:
495,314,27876,2,0,L|433:311,1,55.9999982910157,12|0,0:0|0:0,0:0:0:0:
201,164,28013,5,8,0:0:0:0:
315,154,28149,1,0,0:0:0:0:
98,309,28285,2,0,P|29:276|58:205,1,167.999994873047,4|0,0:0|0:0,0:0:0:0:
313,225,28558,6,0,L|194:223,1,111.999996582031,12|0,0:0|0:0,0:0:0:0:
422,212,28831,2,8,L|426:273,1,55.9999982910157
343,268,28967,2,0,L|339:329,1,55.9999982910157
421,322,29104,1,8,0:0:0:0:
297,318,29240,1,0,0:0:0:0:
501,215,29376,2,0,L|506:97,1,111.999996582031,8|0,0:0|0:0,0:0:0:0:
194,97,29649,5,8,0:0:0:0:
319,100,29785,1,8,0:0:0:0:
22,300,29990,6,0,P|14:242|122:186,1,167.999994873047,12|0,0:0|0:0,0:0:0:0:
260,197,30263,2,8,L|183:195,1,55.9999982910157
446,168,30467,2,0,L|467:283,1,111.999996582031,8|8,0:0|0:0,0:0:0:0:
108,87,30740,6,0,L|235:82,1,111.999996582031,12|0,0:0|0:0,0:0:0:0:
86,120,31013,2,0,L|81:247,1,111.999996582031,8|0,0:0|0:0,0:0:0:0:
404,87,31285,2,0,L|277:82,1,111.999996582031,8|0,0:0|0:0,0:0:0:0:
426,120,31558,2,0,L|431:247,1,111.999996582031,8|0,0:0|0:0,0:0:0:0:
200,162,31831,6,0,L|340:165,3,111.999996582031,8|0|8|0,0:0|0:0|0:0|0:0,0:0:0:0:
108,179,32376,2,0,L|101:299,1,111.999996582031,8|0,0:0|0:0,0:0:0:0:
404,179,32649,2,0,L|411:299,1,111.999996582031,8|0,0:0|0:0,0:0:0:0:
192,50,32922,5,8,0:0:0:0:
320,50,33058,1,8,0:0:0:0:
102,70,33195,1,8,0:0:0:0:
410,70,33331,1,8,0:0:0:0:
192,50,33467,1,8,0:0:0:0:
320,50,33604,1,8,0:0:0:0:
102,70,33740,1,8,0:0:0:0:
410,70,33876,1,8,0:0:0:0:
144,352,34013,6,0,B|144:16|144:16|144:176|144:176|8:176|8:312|144:312,1,768
482,309,35104,6,0,P|478:244|334:120,1,256
161,119,35922,2,0,L|234:121,1,64
101,119,36195,2,0,P|62:159|123:202,1,128
288,208,36740,2,0,P|327:248|266:291,1,128
97,312,37285,6,0,L|254:313,1,128
321,257,37695,2,0,L|164:258,1,128
316,203,38104,2,0,L|381:203,1,64
286,203,38376,6,0,P|243:191|299:170,1,128
383,147,38785,2,0,L|431:151,2,32
199,143,39195,1,0,0:0:0:0:
414,247,39467,5,8,0:0:0:0:
196,180,39740,2,0,L|333:180,1,128
324,180,40285,1,8,0:0:0:0:
98,247,40558,5,8,0:0:0:0:
316,180,40831,2,0,L|179:180,1,128
188,180,41376,1,8,0:0:0:0:
467,208,41649,5,8,0:0:0:0:
247,140,41922,2,0,L|384:140,1,128
375,140,42467,1,8,0:0:0:0:
45,208,42740,5,8,0:0:0:0:
265,140,43013,2,0,L|128:140,1,128
137,140,43558,1,8,0:0:0:0:
380,123,43831,5,0,0:0:0:0:
256,192,43967,12,0,44922,0:0:0:0:
453,184,45467,5,0,0:0:0:0:
59,184,45740,1,0,0:0:0:0:
491,122,46013,6,0,L|499:259,1,111.999996582031,14|8,0:0|0:0,0:0:0:0:
257,193,46285,2,0,L|394:199,1,111.999996582031,2|8,0:0|0:0,0:0:0:0:
141,135,46558,1,2,0:0:0:0:
256,136,46695,2,0,L|263:195,2,55.9999982910157,8|0|2,0:0|0:0|0:0,0:0:0:0:
31,187,46967,1,8,0:0:0:0:
256,246,47104,6,0,L|125:245,1,111.999996582031,2|8,0:0|0:0,0:0:0:0:
409,203,47376,2,0,P|485:174|407:122,1,215.999993408203,2|0,0:0|0:0,0:0:0:0:
146,117,47649,1,2,0:0:0:0:
375,205,47785,2,0,L|309:207,1,55.9999982910157,8|0,0:0|0:0,0:0:0:0:
259,206,47922,1,2,0:0:0:0:
141,203,48058,1,8,0:0:0:0:
482,153,48195,5,2,0:0:0:0:
368,102,48331,2,0,L|434:104,1,55.9999982910157,8|0,0:0|0:0,0:0:0:0:
484,103,48467,1,2,0:0:0:0:
198,87,48604,1,8,0:0:0:0:
314,87,48740,1,2,0:0:0:0:
30,153,48876,1,8,0:0:0:0:
144,102,49013,1,2,0:0:0:0:
28,103,49149,1,8,0:0:0:0:
331,171,49285,6,0,L|457:177,1,111.999996582031,2|8,0:0|0:0,0:0:0:0:
181,171,49558,2,0,L|55:177,1,111.999996582031,2|8,0:0|0:0,0:0:0:0:
313,107,49831,1,2,0:0:0:0:
199,107,49967,2,0,L|195:186,1,55.9999982910157,8|0,0:0|0:0,0:0:0:0:
455,110,50104,2,0,L|470:245,1,111.999996582031,2|0,0:0|0:0,0:0:0:0:
21,122,50376,6,0,L|13:259,1,111.999996582031,2|8,0:0|0:0,0:0:0:0:
255,193,50649,2,0,L|118:199,1,111.999996582031,2|8,0:0|0:0,0:0:0:0:
371,135,50922,1,2,0:0:0:0:
256,136,51058,2,0,L|249:195,2,55.9999982910157,8|0|2,0:0|0:0|0:0,0:0:0:0:
481,187,51331,1,8,0:0:0:0:
256,246,51467,6,0,L|387:245,1,111.999996582031,2|8,0:0|0:0,0:0:0:0:
103,203,51740,2,0,P|27:174|105:122,1,215.999993408203,2|0,0:0|0:0,0:0:0:0:
366,117,52013,1,2,0:0:0:0:
137,205,52149,2,0,L|203:207,1,55.9999982910157,8|0,0:0|0:0,0:0:0:0:
253,206,52285,1,2,0:0:0:0:
371,203,52422,1,8,0:0:0:0:
91,143,52558,6,0,P|34:192|129:278,1,223.999993164063,6|0,0:0|0:0,0:0:0:0:
317,242,52967,2,0,L|185:241,1,111.999996582031,6|0,0:0|0:0,0:0:0:0:
441,136,53240,2,0,L|451:263,1,111.999996582031,6|0,0:0|0:0,0:0:0:0:
53,115,53513,5,6,0:0:0:0:
459,115,53785,1,2,0:0:0:0:
339,113,53922,2,0,L|331:233,1,111.999996582031,0|8,0:0|0:0,0:0:0:0:
463,218,54195,2,0,L|471:338,1,111.999996582031,0|8,0:0|0:0,0:0:0:0:
335,321,54467,1,0,0:0:0:0:
470,329,54604,1,0,0:0:0:0:
42,329,54740,5,6,0:0:0:0:
257,327,54876,2,0,L|266:208,1,111.999996582031,8|2,0:0|0:0,0:0:0:0:
140,213,55149,1,8,0:0:0:0:
380,148,55285,2,0,L|445:158,2,55.9999982910157,2|0|8,0:0|0:0|0:0,0:0:0:0:
258,139,55558,1,2,0:0:0:0:
478,103,55695,1,8,0:0:0:0:
177,86,55831,6,0,L|59:83,1,111.999996582031,2|8,0:0|0:0,0:0:0:0:
409,203,56104,2,0,P|485:174|407:122,1,215.999993408203,2|0,0:0|0:0,0:0:0:0:
140,119,56376,2,0,L|213:119,1,55.9999982910157,2|0,0:0|0:0,0:0:0:0:
259,116,56513,1,8,0:0:0:0:
38,133,56649,2,0,L|29:256,1,111.999996582031,2|8,0:0|0:0,0:0:0:0:
320,214,56922,5,2,0:0:0:0:
202,163,57058,1,8,0:0:0:0:
257,163,57126,1,0,0:0:0:0:
313,163,57195,1,2,0:0:0:0:
192,214,57331,1,8,0:0:0:0:
480,168,57467,2,0,L|352:167,2,111.999996582031,2|8|2,0:0|0:0|0:0,0:0:0:0:
32,168,57876,6,0,L|160:167,2,111.999996582031,8|2|8,0:0|0:0|0:0,0:0:0:0:
311,93,58285,1,2,0:0:0:0:
201,93,58422,1,8,0:0:0:0:
411,138,58558,1,2,0:0:0:0:
101,138,58695,2,0,L|192:142,1,55.9999982910157,8|0,0:0|0:0,0:0:0:0:
312,182,58831,2,0,L|177:181,1,111.999996582031,2|0,0:0|0:0,0:0:0:0:
470,329,59104,5,6,0:0:0:0:
255,327,59240,2,0,L|246:208,1,111.999996582031,8|2,0:0|0:0,0:0:0:0:
372,213,59513,1,8,0:0:0:0:
132,148,59649,2,0,L|67:158,2,55.9999982910157,2|0|8,0:0|0:0|0:0,0:0:0:0:
254,139,59922,1,2,0:0:0:0:
34,103,60058,1,8,0:0:0:0:
335,86,60195,6,0,L|453:83,1,111.999996582031,2|8,0:0|0:0,0:0:0:0:
103,203,60467,2,0,P|27:174|105:122,1,215.999993408203,2|0,0:0|0:0,0:0:0:0:
372,119,60740,2,0,L|299:119,1,55.9999982910157,2|0,0:0|0:0,0:0:0:0:
253,116,60876,1,8,0:0:0:0:
474,133,61013,2,0,L|483:256,1,111.999996582031,2|8,0:0|0:0,0:0:0:0:
142,238,61285,6,0,L|396:235,1,223.999993164063,6|0,0:0|0:0,0:0:0:0:
79,117,61695,1,6,0:0:0:0:
433,117,61967,1,6,0:0:0:0:
100,166,62240,6,0,P|58:211|166:291,1,223.999993164063,6|2,0:0|0:0,0:0:0:0:
264,254,62649,2,0,L|186:155,1,111.999996582031,0|8,0:0|0:0,0:0:0:0:
311,159,62922,2,0,L|389:60,1,111.999996582031,0|8,0:0|0:0,0:0:0:0:
497,70,63195,1,0,0:0:0:0:
256,304,63467,6,0,B|144:304|144:192|256:192|256:192|32:192|32:192|144:192|144:80|32:80|32:80|256:80|256:80|144:80|144:192|256:192|256:192|144:192|144:304|256:304|256:304|368:304|368:192|256:192|256:192|368:192|368:80|258:80,1,1735.99994702149,8|0,0:0|0:0,0:0:0:0:
74,106,65649,5,0,0:0:0:0:
176,102,65785,2,0,L|184:162,2,55.9999982910157
64,158,66058,1,0,0:0:0:0:
288,199,66195,2,0,L|167:194,3,111.999996582031
372,115,66740,6,0,L|383:239,1,111.999996582031
254,230,67013,2,0,L|243:354,1,111.999996582031
468,370,67285,2,2,P|500:295|472:143,1,223.999993164063
256,304,67831,6,0,B|368:304|368:192|256:192|256:192|480:192|480:192|368:192|368:80|480:80|480:80|256:80|256:80|368:80|368:192|256:192|256:192|368:192|368:304|256:304|256:304|144:304|144:192|256:192|256:192|144:192|144:80|254:80,1,1735.99994702149
438,106,70013,5,0,0:0:0:0:
336,102,70149,2,0,L|328:162,2,55.9999982910157
448,158,70422,1,0,0:0:0:0:
241,213,70558,2,0,L|362:208,3,111.999996582031
144,304,71104,5,2,0:0:0:0:
54,242,71240,1,0,0:0:0:0:
23,135,71376,1,0,0:0:0:0:
16,23,71513,1,0,0:0:0:0:
368,304,71649,5,2,0:0:0:0:
457,242,71785,1,0,0:0:0:0:
488,135,71922,1,0,0:0:0:0:
495,23,72058,1,0,0:0:0:0:
256,32,72195,6,0,B|144:32|144:32|256:32|256:32|144:32|144:144|256:144|256:144|368:144|368:144|256:144|256:144|368:144|368:256|259:256,1,839.999974365235,8|0,0:0|0:0,0:0:0:0:
256,336,73285,6,0,B|96:336|96:256|176:256,1,192
192,224,73558,2,0,B|32:224|32:144|112:144,1,192
128,160,73831,2,0,B|288:160|288:80|208:80,1,192
192,128,74104,2,0,B|352:128|352:48|272:48,1,192
112,247,74376,5,2,0:0:0:0:
207,248,74513,2,2,L|164:295,1,55.9999982910157
267,294,74717,2,2,L|227:343,2,55.9999982910157
109,313,74922,6,2,L|40:310,1,55.9999982910157
244,245,75058,2,2,L|313:242,1,55.9999982910157
81,273,75195,2,2,L|77:157,1,111.999996582031
412,115,75467,5,2,0:0:0:0:
306,113,75604,2,0,L|303:192,2,55.9999982910157,2|2|2,0:0|0:0|0:0,0:0:0:0:
430,173,75876,1,2,0:0:0:0:
189,220,76013,2,0,L|301:217,1,111.999996582031,2|0,0:0|0:0,0:0:0:0:
29,215,76285,6,0,L|22:352,1,111.999996582031
256,32,76558,6,0,B|368:32|368:32|256:32|256:32|368:32|368:144|256:144|256:144|144:144|144:144|256:144|256:144|144:144|144:256|253:256,1,839.999974365235,8|0,0:0|0:0,0:0:0:0:
256,320,77649,6,0,B|416:320|416:240|336:240,1,192
320,224,77922,2,0,B|480:224|480:144|400:144,1,192
384,160,78195,2,0,B|224:160|224:80|304:80,1,192
320,128,78468,2,0,B|160:128|160:48|240:48,1,192
362,104,78740,6,0,L|504:103,1,111.999996582031,0|2,0:0|0:0,0:0:0:0:
256,160,79013,1,0,0:0:0:0:
480,168,79149,1,2,0:0:0:0:
150,280,79285,6,0,L|8:281,1,111.999996582031,0|2,0:0|0:0,0:0:0:0:
256,160,79558,1,0,0:0:0:0:
32,168,79694,1,2,0:0:0:0:
368,352,79831,6,0,B|368:16|368:16|368:176|368:176|504:176|504:312|368:312,1,768,0|4,0:0|0:0,0:0:0:0:
30,120,80922,6,0,L|162:126,3,111.999996582031,12|0|0|0,0:0|0:0|0:0|0:0,0:0:0:0:
364,143,81467,2,0,L|434:148,1,55.9999982910157
336,170,81604,2,0,L|266:175,1,55.9999982910157
452,183,81740,2,0,L|465:315,1,111.999996582031
253,299,82013,5,0,0:0:0:0:
150,266,82149,1,0,0:0:0:0:
124,162,82285,1,0,0:0:0:0:
198,85,82422,1,0,0:0:0:0:
320,83,82558,2,0,L|324:153,2,55.9999982910157
204,180,82831,1,0,0:0:0:0:
326,185,82967,1,0,0:0:0:0:
17,222,83104,6,0,L|140:229,2,111.999996582031,12|0|0,0:0|0:0|0:0,0:0:0:0:
313,104,83513,6,0,L|190:111,1,111.999996582031,8|0,0:0|0:0,0:0:0:0:
495,222,83785,6,0,L|372:229,2,111.999996582031,8|0|8,0:0|0:0|0:0,0:0:0:0:
17,222,84195,1,8,0:0:0:0:
256,192,84263,12,0,85013,0:0:0:0:
35,78,85285,5,14,0:0:0:0:
322,71,85422,2,0,L|251:70,1,55.9999982910157,8|0,0:0|0:0,0:0:0:0:
197,70,85558,1,2,0:0:0:0:
480,131,85695,1,8,0:0:0:0:
196,127,85831,2,0,L|136:127,1,55.9999982910157,2|0,0:0|0:0,0:0:0:0:
316,127,85967,2,0,L|376:127,1,55.9999982910157,8|0,0:0|0:0,0:0:0:0:
139,203,86104,2,0,L|14:206,1,111.999996582031,2|8,0:0|0:0,0:0:0:0:
373,203,86376,6,0,L|498:206,1,111.999996582031,2|8,0:0|0:0,0:0:0:0:
103,203,86649,2,0,P|27:174|105:122,1,215.999993408203,2|0,0:0|0:0,0:0:0:0:
408,121,86922,1,2,0:0:0:0:
201,80,87058,2,0,L|121:83,2,55.9999982910157,8|0|2,0:0|0:0|0:0,0:0:0:0:
311,80,87331,1,8,0:0:0:0:
58,220,87467,5,2,0:0:0:0:
311,191,87604,1,8,0:0:0:0:
256,192,87672,1,0,0:0:0:0:
200,193,87740,1,2,0:0:0:0:
454,220,87876,1,8,0:0:0:0:
200,193,88013,1,2,0:0:0:0:
311,191,88149,1,8,0:0:0:0:
58,220,88285,1,2,0:0:0:0:
311,191,88422,1,8,0:0:0:0:
200,193,88558,5,2,0:0:0:0:
454,220,88695,1,8,0:0:0:0:
200,193,88831,1,2,0:0:0:0:
312,193,88967,1,8,0:0:0:0:
58,220,89104,1,2,0:0:0:0:
421,136,89240,2,0,L|495:137,1,55.9999982910157,8|0,0:0|0:0,0:0:0:0:
147,134,89376,2,0,L|23:134,1,111.999996582031,2|8,0:0|0:0,0:0:0:0:
477,134,89649,5,2,0:0:0:0:
195,99,89785,2,0,L|261:102,1,55.9999982910157,8|0,0:0|0:0,0:0:0:0:
320,104,89922,1,2,0:0:0:0:
84,147,90058,1,0,0:0:0:0:
375,204,90195,2,0,L|319:203,1,55.9999982910157,2|0,0:0|0:0,0:0:0:0:
137,204,90331,2,0,L|192:203,1,55.9999982910157,8|0,0:0|0:0,0:0:0:0:
374,176,90467,2,0,L|486:173,1,111.999996582031,2|8,0:0|0:0,0:0:0:0:
138,176,90740,6,0,L|27:173,1,111.999996582031,2|8,0:0|0:0,0:0:0:0:
409,203,91013,2,0,P|485:174|407:122,1,215.999993408203,2|0,0:0|0:0,0:0:0:0:
140,57,91285,1,2,0:0:0:0:
255,55,91422,2,0,L|331:60,2,55.9999982910157,8|0|2,0:0|0:0|0:0,0:0:0:0:
26,162,91695,1,8,0:0:0:0:
364,196,91831,6,0,L|135:190,1,223.999993164063,6|0,0:0|0:0,0:0:0:0:
488,148,92240,2,0,P|478:87|361:66,1,167.999994873047,6|0,0:0|0:0,0:0:0:0:
24,148,92513,2,0,P|34:87|151:66,1,167.999994873047,6|0,0:0|0:0,0:0:0:0:
364,196,92785,6,0,L|135:190,1,223.999993164063,6|0,0:0|0:0,0:0:0:0:
255,191,93195,2,0,L|263:318,1,111.999996582031,0|8,0:0|0:0,0:0:0:0:
140,190,93467,2,0,L|132:317,1,111.999996582031,0|8,0:0|0:0,0:0:0:0:
481,191,93740,1,0,0:0:0:0:
80,240,94013,5,6,0:0:0:0:
288,240,94149,1,10,0:0:0:0:
16,240,94285,1,2,0:0:0:0:
352,240,94422,1,10,0:0:0:0:
144,192,94558,5,2,0:0:0:0:
256,192,94695,1,10,0:0:0:0:
32,192,94831,1,2,0:0:0:0:
368,192,94967,1,10,0:0:0:0:
112,144,95104,5,2,0:0:0:0:
320,144,95240,1,10,0:0:0:0:
48,144,95376,1,2,0:0:0:0:
384,144,95513,2,2,L|320:144,1,55.9999982910157,10|2,0:0|0:0,0:0:0:0:
96,192,95649,5,2,0:0:0:0:
304,192,95785,1,10,0:0:0:0:
32,192,95922,1,2,0:0:0:0:
368,192,96058,1,10,0:0:0:0:
56,240,96195,6,0,L|212:244,1,111.999996582031,6|0,0:0|0:0,0:0:0:0:
336,240,96399,2,0,L|180:244,1,111.999996582031,6|0,0:0|0:0,0:0:0:0:
408,240,96604,2,0,L|490:239,1,55.9999982910157,6|0,0:0|0:0,0:0:0:0:
167,98,96740,6,0,L|56:96,1,111.999996582031,6|0,0:0|0:0,0:0:0:0:
224,96,96945,2,0,L|336:94,1,111.999996582031,6|0,0:0|0:0,0:0:0:0:
463,95,97149,2,0,L|408:96,1,55.9999982910157,6|0,0:0|0:0,0:0:0:0:
202,127,97285,5,6,0:0:0:0:
310,127,97422,1,6,0:0:0:0:
97,148,97558,1,6,0:0:0:0:
415,148,97695,1,6,0:0:0:0:
144,193,97831,5,2,0:0:0:0:
368,193,97967,2,8,L|386:262,1,55.9999982910157
131,249,98104,2,0,P|66:244|106:171,1,167.999994873047,8|0,0:0|0:0,0:0:0:0:
432,240,98376,5,6,0:0:0:0:
224,240,98513,1,10,0:0:0:0:
496,240,98649,1,2,0:0:0:0:
160,240,98785,1,10,0:0:0:0:
368,192,98922,5,2,0:0:0:0:
256,192,99058,1,10,0:0:0:0:
480,192,99195,1,2,0:0:0:0:
144,192,99331,1,10,0:0:0:0:
400,144,99467,5,2,0:0:0:0:
192,144,99604,1,10,0:0:0:0:
464,144,99740,1,2,0:0:0:0:
128,144,99876,2,2,L|192:144,1,55.9999982910157,10|2,0:0|0:0,0:0:0:0:
416,192,100013,5,2,0:0:0:0:
208,192,100149,1,10,0:0:0:0:
485,32,100285,2,0,L|264:31,1,167.999994873047
146,121,100558,6,0,L|400:123,1,223.999993164063,6|0,0:0|0:0,0:0:0:0:
34,140,100967,2,0,L|30:253,1,111.999996582031,6|0,0:0|0:0,0:0:0:0:
478,140,101240,2,0,L|482:253,1,111.999996582031,6|0,0:0|0:0,0:0:0:0:
150,92,101513,6,0,L|406:95,1,223.999993164063,6|2,0:0|0:0,0:0:0:0:
256,96,101922,2,0,L|250:214,1,111.999996582031,0|8,0:0|0:0,0:0:0:0:
480,208,102195,2,0,L|486:326,1,111.999996582031,0|8,0:0|0:0,0:0:0:0:
33,187,102467,2,0,L|27:305,1,111.999996582031
256,336,102740,6,0,B|416:336|416:176|256:176,1,320,12|0,0:0|0:0,0:0:0:0:
120,208,103149,6,0,B|280:208|280:48|120:48,1,320,12|0,0:0|0:0,0:0:0:0:
256,168,103558,6,0,P|344:152|376:48,1,192,12|0,0:0|0:0,0:0:0:0:
192,64,103831,6,0,L|40:64,1,128,2|0,0:0|0:0,0:0:0:0:
320,64,104104,2,0,L|464:64,1,128
101,171,104376,6,2,L|28:177,1,64
324,172,104513,2,2,L|359:226,1,64
188,172,104649,2,2,L|153:226,1,64
411,171,104785,2,2,L|484:177,1,64
256,336,104922,6,0,B|96:336|96:176|256:176,1,320,12|0,0:0|0:0,0:0:0:0:
120,208,105331,6,0,B|-40:208|-40:48|120:48,1,320,12|0,0:0|0:0,0:0:0:0:
256,336,105740,6,0,B|416:336|416:176|256:176,1,320,12|0,0:0|0:0,0:0:0:0:
392,208,106149,6,0,B|552:208|552:48|392:48,1,320,12|0,0:0|0:0,0:0:0:0:
128,96,106558,6,0,L|128:288,1,192,12|0,0:0|0:0,0:0:0:0:
384,96,106831,2,0,L|384:296,1,192,8|0,0:0|0:0,0:0:0:0:
256,344,107104,6,0,B|96:344|96:184|256:184,1,320,12|0,0:0|0:0,0:0:0:0:
392,200,107513,6,0,B|232:200|232:40|392:40,1,320,12|0,0:0|0:0,0:0:0:0:
256,168,107922,6,0,P|168:152|136:48,1,192,12|0,0:0|0:0,0:0:0:0:
320,64,108195,6,0,L|472:64,1,128,2|0,0:0|0:0,0:0:0:0:
192,64,108467,2,0,L|48:64,1,128
320,128,108740,5,2,0:0:0:0:
192,128,108876,1,2,0:0:0:0:
405,176,109013,2,2,L|488:176,1,64
107,176,109149,2,2,L|16:176,1,64
256,272,109285,6,0,B|416:272|416:112|256:112,1,320,12|0,0:0|0:0,0:0:0:0:
336,112,109695,6,0,L|336:312,1,192,12|0,0:0|0:0,0:0:0:0:
416,112,109967,6,0,L|416:312,1,192,12|0,0:0|0:0,0:0:0:0:
496,112,110240,6,0,L|496:200,1,64,12|0,0:0|0:0,0:0:0:0:
192,384,110376,6,0,B|32:384|0:384|0:32,1,447.999986328125,12|0,0:0|0:0,0:0:0:0:
