osu file format v14

[General]
AudioFilename: Trickl4sh 220-.mp3
AudioLeadIn: 0
PreviewTime: 45467
Countdown: 1
SampleSet: Normal
StackLeniency: 0.7
Mode: 0
LetterboxInBreaks: 0
WidescreenStoryboard: 1

[Editor]
Bookmarks: 195,4558,8922,13285,17649,22013,26376,28558,32922,35104,39467,46013,54740,63467,67831,72195,76558,80922,83104,85285,89649,98376,102740,107104
DistanceSpacing: 1
BeatDivisor: 4
GridSize: 4
TimelineZoom: 2.1

[Metadata]
Title:TRICKL4SH 220
TitleUnicode:TRICKL4SH 220
Artist:Lite Show Magic
ArtistUnicode:Lite Show Magic
Creator:Cubzy
Version:TERR0R 220
Source:SOUND VOLTEX IV HEAVENLY HAVEN
Tags:don't waste me! e.p. c.h.s c85 comiket 85 fabiojhon Ataraxia Anxient RyoKazuka Tarrasky Marianna SnowNiNo_ Skull Kid Yoratama -TheHateD- zeroallies Kyshiro Akali microism LukerMaster
BeatmapID:965562
BeatmapSetID:436795

[Difficulty]
HPDrainRate:7
CircleSize:4.2
OverallDifficulty:9
ApproachRate:9.8
SliderMultiplier:2.1
SliderTickRate:2

[Events]
//Background and Video events
0,0,"BG.jpg",0,0
//Break Periods
//Storyboard Layer 0 (Background)
//Storyboard Layer 1 (Fail)
//Storyboard Layer 2 (Pass)
//Storyboard Layer 3 (Foreground)
//Storyboard Sound Samples

[TimingPoints]
195,272.727272727273,4,1,0,65,1,0
195,-100,4,1,0,65,0,0
7013,-133.333333333333,4,1,0,65,0,0
7285,-100,4,1,0,65,0,0
7558,-133.333333333333,4,1,0,65,0,0
7831,-100,4,1,0,40,0,0
8240,-166.666666666667,4,1,0,40,0,0
8513,-100,4,1,0,65,0,0
8922,-166.666666666667,4,1,0,60,0,0
9331,-125,4,1,0,60,0,0
9740,-100,4,1,0,60,0,0
9945,-100,4,1,0,15,0,0
10013,-100,4,1,0,50,0,0
11104,-166.666666666667,4,1,0,60,0,0
11513,-125,4,1,0,60,0,0
11922,-100,4,1,0,60,0,0
12331,-83.3333333333333,4,1,0,60,0,0
12740,-100,4,1,0,60,0,0
13695,-125,4,1,0,60,0,0
14104,-83.3333333333333,4,1,0,60,0,0
14376,-83.3333333333333,4,1,0,50,0,0
15467,-100,4,1,0,60,0,0
15876,-125,4,1,0,60,0,0
16287,-166.666666666667,4,1,0,60,0,0
16695,-100,4,1,0,60,0,0
17376,-71.4285714285714,4,1,0,60,0,0
17547,-83.3333333333333,4,1,0,30,0,0
17649,-100,4,1,0,65,0,0
18467,-83.3333333333333,4,1,0,65,0,0
18740,-100,4,1,0,65,0,0
20649,-83.3333333333333,4,1,0,65,0,0
20785,-71.4285714285714,4,1,0,65,0,0
20922,-100,4,1,0,65,0,0
21126,-90.9090909090909,4,1,0,65,0,0
21331,-83.3333333333333,4,1,0,65,0,0
21467,-125,4,1,0,65,0,0
21604,-100,4,1,0,65,0,0
21740,-66.6666666666667,4,1,0,65,0,0
22013,-100,4,1,0,65,0,0
22558,-83.3333333333333,4,1,0,65,0,0
22831,-100,4,1,0,65,0,0
25285,-133.333333333333,4,1,0,40,0,0
26376,-100,4,1,0,65,0,0
27467,-100,4,1,0,50,0,0
28558,-100,4,1,0,65,0,0
29104,-83.3333333333333,4,1,0,50,0,0
30740,-100,4,1,0,65,0,0
34013,-100,4,2,0,40,0,0
34251,-100,4,1,0,65,0,0
34320,-100,4,2,0,40,0,0
34388,-100,4,1,0,65,0,0
34456,-100,4,2,0,40,0,0
34524,-100,4,2,0,40,0,0
34660,-100,4,1,0,65,0,0
34729,-100,4,2,0,60,0,0
34797,-100,4,2,0,60,0,0
35104,-133.333333333333,4,2,0,60,0,0
45433,-133.333333333333,4,2,0,15,0,0
45467,-71.4285714285714,4,2,0,45,0,0
46013,-83.3333333333333,4,1,0,70,0,1
52558,-100,4,1,0,60,0,0
54740,-90.9090909090909,4,1,0,70,0,1
55831,-125,4,1,0,70,0,1
56104,-83.3333333333333,4,1,0,70,0,1
56376,-90.9090909090909,4,1,0,70,0,1
60195,-125,4,1,0,70,0,1
60467,-83.3333333333333,4,1,0,70,0,1
60740,-90.9090909090909,4,1,0,70,0,1
61285,-142.857142857143,4,1,0,60,0,0
61626,-142.857142857143,4,1,0,10,0,0
61695,-111.111111111111,4,1,0,60,0,0
61899,-111.111111111111,4,1,0,10,0,0
61967,-90.9090909090909,4,1,0,60,0,0
62172,-90.9090909090909,4,1,0,10,0,0
62240,-76.9230769230769,4,1,0,60,0,0
62445,-76.9230769230769,4,1,0,10,0,0
62513,-100,4,1,0,60,0,0
63467,-100,4,1,0,65,0,0
67285,-100,4,1,0,40,0,0
67831,-100,4,1,0,65,0,0
68649,-83.3333333333333,4,1,0,65,0,0
68922,-100,4,1,0,65,0,0
71104,-100,4,1,0,40,0,0
71308,-100,4,1,0,10,0,0
71376,-100,4,1,0,40,0,0
71581,-100,4,1,0,10,0,0
71649,-100,4,1,0,40,0,0
71854,-100,4,1,0,10,0,0
71922,-100,4,1,0,40,0,0
72126,-100,4,1,0,10,0,0
72195,-100,4,1,0,60,0,0
74922,-71.4285714285714,4,1,0,60,0,0
75331,-83.3333333333333,4,1,0,60,0,0
75467,-111.111111111111,4,1,0,60,0,0
76013,-100,4,1,0,60,0,0
76285,-200,4,1,0,60,0,0
76558,-100,4,1,0,60,0,0
77376,-83.3333333333333,4,1,0,60,0,0
77649,-100,4,1,0,60,0,0
79831,-100,4,1,0,40,0,0
80922,-83.3333333333333,4,1,0,60,0,0
82013,-100,4,2,0,45,0,0
83104,-100,4,1,0,60,0,0
84195,-133.333333333333,4,1,0,60,0,0
85285,-83.3333333333333,4,1,0,70,0,1
90740,-125,4,1,0,70,0,1
91013,-83.3333333333333,4,1,0,70,0,1
91831,-142.857142857143,4,1,0,60,0,0
92172,-142.857142857143,4,1,0,10,0,0
92240,-111.111111111111,4,1,0,60,0,0
92445,-111.111111111111,4,1,0,10,0,0
92513,-90.9090909090909,4,1,0,60,0,0
92717,-90.9090909090909,4,1,0,10,0,0
92785,-76.9230769230769,4,1,0,60,0,0
92990,-76.9230769230769,4,1,0,10,0,0
93058,-100,4,1,0,60,0,0
93740,-76.9230769230769,4,1,0,60,0,0
94013,-83.3333333333333,4,1,0,70,0,1
96331,-83.3333333333333,4,1,0,10,0,1
96399,-83.3333333333333,4,1,0,70,0,1
96535,-83.3333333333333,4,1,0,10,0,1
96604,-83.3333333333333,4,1,0,70,0,1
96876,-83.3333333333333,4,1,0,10,0,1
96945,-83.3333333333333,4,1,0,70,0,1
97081,-83.3333333333333,4,1,0,10,0,1
97149,-83.3333333333333,4,1,0,70,0,1
98104,-76.9230769230769,4,1,0,70,0,1
98376,-71.4285714285714,4,1,0,70,0,1
100558,-100,4,1,0,60,0,0
102740,-166.666666666667,4,1,0,60,0,0
103149,-125,4,1,0,60,0,0
103558,-100,4,1,0,60,0,0
103763,-100,4,1,0,10,0,0
103831,-100,4,1,0,50,0,0
104922,-166.666666666667,4,1,0,60,0,0
105331,-125,4,1,0,60,0,0
105740,-100,4,1,0,60,0,0
106149,-83.3333333333333,4,1,0,60,0,0
106558,-100,4,1,0,60,0,0
107513,-125,4,1,0,60,0,0
107922,-83.3333333333333,4,1,0,60,0,0
108195,-100,4,1,0,50,0,0
109285,-100,4,1,0,60,0,0
110376,-100,4,1,0,40,0,0

[Colours]
Combo1 : 89,7,226
Combo2 : 231,126,22
Combo3 : 248,52,159
Combo4 : 255,140,179
Combo5 : 187,103,229
Combo6 : 255,255,255

[HitObjects]
188,153,195,6,0,P|287:169|344:71,1,210,8|0,0:0|0:0,0:0:0:0:
63,103,604,1,2,0:0:0:0:
63,103,672,1,0,0:0:0:0:
63,103,740,1,8,0:0:0:0:
161,296,876,1,0,0:0:0:0:
249,83,1013,1,0,0:0:0:0:
31,184,1149,1,0,0:0:0:0:
253,267,1285,6,0,B|309:271|309:271|398:244|398:244|466:251,1,210,8|0,0:0|0:0,0:0:0:0:
296,154,1695,1,2,0:0:0:0:
296,154,1763,1,0,0:0:0:0:
296,154,1831,1,8,0:0:0:0:
408,348,1967,1,0,0:0:0:0:
183,339,2104,1,0,0:0:0:0:
156,293,2172,1,0,0:0:0:0:
156,240,2240,1,0,0:0:0:0:
181,194,2308,1,0,0:0:0:0:
225,166,2376,6,0,P|136:171|103:153,1,105,8|0,0:0|0:0,0:0:0:0:
298,27,2649,1,0,0:0:0:0:
343,245,2785,1,2,0:0:0:0:
343,245,2854,1,0,0:0:0:0:
343,245,2922,1,8,0:0:0:0:
300,39,3058,1,0,0:0:0:0:
254,264,3195,2,0,P|205:288|151:292,1,105
35,104,3467,6,0,B|65:98|87:74|87:74|176:84|176:84|187:112|226:133,1,210,8|0,0:0|0:0,0:0:0:0:
155,292,3876,1,2,0:0:0:0:
155,292,3945,1,0,0:0:0:0:
155,292,4013,1,8,0:0:0:0:
261,50,4149,1,0,0:0:0:0:
407,197,4285,5,0,0:0:0:0:
411,249,4354,1,0,0:0:0:0:
383,305,4422,1,2,0:0:0:0:
326,332,4490,1,0,0:0:0:0:
264,320,4558,6,0,B|212:296|212:296|280:232|280:232|304:300,1,210,8|0,0:0|0:0,0:0:0:0:
352,380,4967,5,0,0:0:0:0:
328,200,5104,1,0,0:0:0:0:
480,308,5240,1,0,0:0:0:0:
272,288,5376,5,0,0:0:0:0:
396,132,5513,1,0,0:0:0:0:
424,328,5649,1,8,0:0:0:0:
324,192,5785,2,0,P|272:184|228:211,2,105
152,288,6195,1,0,0:0:0:0:
137,88,6331,2,0,P|196:90|233:127,1,105
184,292,6604,1,0,0:0:0:0:
80,220,6740,6,0,P|80:152|148:84,1,157.5,8|0,0:0|0:0,0:0:0:0:
176,184,7013,6,0,B|216:152|216:152|232:152|232:152|296:104,1,118.125004506111
240,44,7285,6,0,P|304:20|384:64,1,157.5,8|0,0:0|0:0,0:0:0:0:
416,136,7558,6,0,P|404:203|336:244,1,118.125004506111
156,112,7831,5,8,0:0:0:0:
216,292,7967,1,0,0:0:0:0:
306,118,8104,5,8,0:0:0:0:
216,292,8240,2,0,P|200:248|212:204,1,94.499997116089
332,144,8513,1,0,0:0:0:0:
344,136,8581,1,0,0:0:0:0:
332,112,8649,5,8,0:0:0:0:
344,104,8717,1,0,0:0:0:0:
336,84,8785,5,0,0:0:0:0:
348,76,8854,1,0,0:0:0:0:
329,48,8922,6,0,P|273:40|192:64,1,125.999996154785,8|0,0:0|0:0,0:0:0:0:
183,336,9331,6,0,P|266:346|354:299,1,168,8|0,0:0|0:0,0:0:0:0:
329,48,9740,6,0,P|247:43|145:103,1,157.5,8|0,0:0|0:0,0:0:0:0:
98,181,10013,5,0,0:0:0:0:
225,317,10149,1,0,0:0:0:0:
384,176,10285,1,0,0:0:0:0:
201,342,10422,1,0,0:0:0:0:
408,151,10558,1,0,0:0:0:0:
230,76,10695,2,4,P|180:71|146:79,1,52.5
46,185,10831,2,4,P|72:185|97:180,1,52.5
234,271,10967,2,4,P|184:266|150:274,1,52.5
331,345,11104,6,0,P|356:282|340:206,1,125.999996154785,8|0,0:0|0:0,0:0:0:0:
181,39,11513,6,0,P|156:102|180:198,1,168,8|0,0:0|0:0,0:0:0:0:
348,352,11922,6,0,P|373:251|344:150,1,210,8|0,0:0|0:0,0:0:0:0:
164,32,12331,6,0,P|139:133|192:275,1,251.999992309571,8|0,0:0|0:0,0:0:0:0:
389,90,12740,6,4,P|326:79|276:104,1,105,4|4,0:0|0:0,0:0:0:0:
138,327,13013,2,4,P|201:338|251:313,1,105,4|4,0:0|0:0,0:0:0:0:
436,232,13285,6,0,P|408:168|288:92,1,210,8|0,0:0|0:0,0:0:0:0:
88,184,13695,6,0,P|116:248|224:312,1,168,8|0,0:0|0:0,0:0:0:0:
376,208,14104,6,0,P|376:136|352:88,1,125.999996154785,8|0,0:0|0:0,0:0:0:0:
216,52,14376,2,0,P|144:96|120:152,2,125.999996154785,0|0|8,0:0|0:0|0:0,0:0:0:0:
288,176,14785,1,0,0:0:0:0:
280,312,14922,2,4,L|320:256,1,62.9999980773926
444,244,15058,6,4,L|404:300,1,62.9999980773926
288,176,15195,6,4,L|328:120,1,62.9999980773926
472,112,15331,6,4,L|432:168,1,62.9999980773926
376,52,15467,6,0,P|288:32|184:92,1,210,8|0,0:0|0:0,0:0:0:0:
104,300,15876,6,0,P|192:320|268:280,1,168,8|0,0:0|0:0,0:0:0:0:
352,164,16285,6,0,B|284:156|284:156|248:192|248:192|176:180,1,168,8|0,0:0|0:0,0:0:0:0:
80,284,16695,6,0,P|56:208|104:84,1,210,8|0,0:0|0:0,0:0:0:0:
352,156,17104,2,0,L|324:260,1,105,8|0,0:0|0:0,0:0:0:0:
322,153,17376,6,0,P|290:113|350:149,1,220.499993270874,2|0,0:0|0:0,0:0:0:0:
248,192,17649,6,0,P|212:94|301:3,1,210,0|8,0:0|0:0,0:0:0:0:
437,143,18058,1,0,0:0:0:0:
285,286,18195,2,0,L|151:270,1,105
16,339,18467,6,0,P|60:228|9:132,1,188.999994232178,8|0,0:0|0:0,0:0:0:0:
5,93,18740,6,0,L|121:105,1,105
342,130,19013,1,8,0:0:0:0:
144,15,19149,1,0,0:0:0:0:
142,202,19285,2,0,L|147:332,1,105
440,323,19558,2,0,P|345:298|282:351,1,157.5,8|0,0:0|0:0,0:0:0:0:
277,354,19831,5,0,0:0:0:0:
350,97,19967,5,0,0:0:0:0:
353,81,20035,1,8,0:0:0:0:
159,81,20172,5,8,0:0:0:0:
162,97,20240,1,0,0:0:0:0:
194,142,20308,1,0,0:0:0:0:
197,158,20376,6,0,L|200:237,1,52.5,8|0,0:0|0:0,0:0:0:0:
105,357,20513,2,0,P|98:317|102:288,1,52.5,8|0,0:0|0:0,0:0:0:0:
270,94,20649,6,0,L|277:189,1,62.9999980773926,8|0,0:0|0:0,0:0:0:0:
360,346,20785,6,0,L|355:273,1,73.4999977569581,8|0,0:0|0:0,0:0:0:0:
363,55,20922,6,0,P|316:87|232:84,1,105
77,93,21126,6,0,P|124:61|221:67,1,115.50000352478
67,186,21331,6,0,P|20:218|-34:214,1,62.9999980773926
198,210,21467,6,0,B|220:196|220:196|263:193,1,42
407,275,21604,6,0,L|315:270,1,52.5
120,297,21740,6,0,B|108:347|157:381|157:381|213:341|213:398|300:359,1,236.250009012223,8|0,0:0|0:0,0:0:0:0:
312,352,22013,6,0,P|340:328|304:340,1,105
332,137,22285,2,0,P|271:73|230:70,1,105,8|0,0:0|0:0,0:0:0:0:
98,272,22558,2,0,P|184:201|296:190,1,188.999994232178
296,232,22831,2,0,P|380:204|400:168,1,105,8|0,0:0|0:0,0:0:0:0:
240,128,23104,5,0,0:0:0:0:
240,128,23240,1,0,0:0:0:0:
456,168,23376,1,8,0:0:0:0:
456,168,23513,1,0,0:0:0:0:
336,40,23649,5,0,0:0:0:0:
304,216,23785,1,0,0:0:0:0:
336,40,23922,1,8,0:0:0:0:
236,232,24058,1,0,0:0:0:0:
354,63,24195,5,0,0:0:0:0:
432,260,24331,1,0,0:0:0:0:
452,244,24399,1,0,0:0:0:0:
296,220,24535,6,0,P|280:196|272:160,1,52.5,0|8,0:0|0:0,0:0:0:0:
364,40,24672,6,0,L|356:100,1,52.5,0|8,0:0|0:0,0:0:0:0:
321,181,24808,1,0,0:0:0:0:
340,186,24876,1,8,0:0:0:0:
371,227,24945,5,0,0:0:0:0:
388,228,25013,2,0,P|412:240|440:268,1,52.5,8|0,0:0|0:0,0:0:0:0:
316,344,25149,2,0,P|308:312|316:280,1,52.5,8|0,0:0|0:0,0:0:0:0:
216,256,25285,6,0,P|232:192|196:116,1,118.125004506111
108,170,25558,6,0,P|173:168|238:114,1,118.125004506111
162,44,25831,6,0,P|180:107|249:155,1,118.125004506111
297,63,26104,6,0,P|240:96|212:176,1,118.125004506111
339,185,26376,5,0,0:0:0:0:
162,44,26513,1,0,0:0:0:0:
101,49,26581,1,0,0:0:0:0:
40,54,26649,2,0,B|24:107|24:107|49:187,1,105,8|0,0:0|0:0,0:0:0:0:
210,344,26922,2,0,B|226:291|226:291|201:211,1,105
162,44,27195,6,0,P|276:68|324:40,1,157.5,8|0,0:0|0:0,0:0:0:0:
401,13,27467,6,0,B|391:79|391:79|428:120,1,105
356,231,27672,6,0,B|366:165|366:165|329:124,1,105
428,260,27876,6,0,B|418:326|418:326,1,52.5
496,122,28013,5,8,0:0:0:0:
272,190,28149,1,2,0:0:0:0:
420,311,28285,5,8,0:0:0:0:
401,13,28421,1,2,0:0:0:0:
356,231,28558,5,8,0:0:0:0:
496,122,28695,1,0,0:0:0:0:
443,111,28763,1,0,0:0:0:0:
392,100,28831,2,0,B|328:88|328:88|280:100,1,105
249,246,29104,5,8,0:0:0:0:
253,209,29173,1,0,0:0:0:0:
229,236,29241,1,8,0:0:0:0:
265,229,29309,1,0,0:0:0:0:
231,214,29376,2,0,P|177:187|153:116,1,125.999996154785,8|0,0:0|0:0,0:0:0:0:
255,44,29649,6,0,L|289:98,1,62.9999980773926
426,140,29785,6,0,L|460:194,1,62.9999980773926
280,235,29990,5,0,0:0:0:0:
280,235,30058,1,0,0:0:0:0:
280,235,30126,1,0,0:0:0:0:
213,117,30263,5,0,0:0:0:0:
213,117,30331,1,0,0:0:0:0:
63,154,30467,6,0,B|69:170|69:170|109:190,1,62.9999980773926,8|0,0:0|0:0,0:0:0:0:
427,194,30604,2,0,B|420:177|420:177|380:157,1,62.9999980773926
252,104,30740,6,0,P|216:164|232:308,1,210,0|8,0:0|0:0,0:0:0:0:
380,312,31149,1,0,0:0:0:0:
360,151,31285,2,0,B|347:86|347:86|289:49,1,105
128,188,31558,2,0,B|140:252|140:252|198:289,1,105,8|0,0:0|0:0,0:0:0:0:
344,348,31831,5,0,0:0:0:0:
392,96,31967,1,0,0:0:0:0:
432,344,32104,5,8,0:0:0:0:
300,92,32240,1,0,0:0:0:0:
264,328,32376,2,0,P|236:272|236:224,2,105,0|0|8,0:0|0:0|0:0,0:0:0:0:
476,124,32785,1,0,0:0:0:0:
102,65,32922,5,8,0:0:0:0:
117,320,33058,1,0,0:0:0:0:
196,38,33195,5,8,0:0:0:0:
206,333,33331,1,0,0:0:0:0:
316,38,33467,5,8,0:0:0:0:
306,333,33603,1,0,0:0:0:0:
410,65,33740,5,8,0:0:0:0:
395,320,33876,1,0,0:0:0:0:
352,120,34013,6,2,B|224:136|184:232|216:256|256:288|256:288|295:256|328:232|288:136|160:120,1,525,2|0,0:1|0:0,0:0:0:0:
256,364,34831,1,2,0:0:0:0:
280,52,35104,6,0,B|320:104|352:108|412:68|412:68|404:116|436:132|436:132|456:156|440:180|440:180|416:200|412:236|436:288,1,393.750015020371,2|0,0:0|0:0,0:0:0:0:
300,288,35922,1,2,0:0:0:0:
488,228,36058,1,2,0:0:0:0:
224,308,36195,2,0,P|242:237|373:275,1,236.250009012223,2|0,0:0|0:0,0:0:0:0:
300,288,36740,6,0,B|256:256|252:208|252:208|256:164|256:164|260:112|200:72,1,236.250009012223,2|0,0:0|0:0,0:0:0:0:
96,124,37285,2,0,P|48:216|96:280,1,157.500006008148,2|0,0:0|0:0,0:0:0:0:
160,188,37695,2,0,P|228:144|312:192,1,157.500006008148,2|0,0:0|0:0,0:0:0:0:
232,244,38104,2,0,P|280:296|384:280,2,157.500006008148,2|0|0,0:0|0:0|0:0,0:0:0:0:
332,76,38785,5,2,0:0:0:0:
352,128,38854,1,0,0:0:0:0:
376,176,38922,2,0,P|392:220|396:256,1,78.7500030040742,2|0,0:0|0:0,0:0:0:0:
232,244,39195,6,0,L|224:288,1,39.3750015020371,2|0,0:0|0:0,0:0:0:0:
250,159,39331,2,0,L|257:120,1,39.3750015020371,2|0,0:0|0:0,0:0:0:0:
194,49,39467,6,0,P|262:93|352:55,1,157.500006008148,2|0,0:0|0:0,0:0:0:0:
473,291,40013,2,0,B|425:304|425:304|367:273|367:273|300:285,1,157.500006008148
199,293,40422,1,0,0:0:0:0:
42,311,40558,6,0,L|223:290,1,157.500006008148,2|0,0:0|0:0,0:0:0:0:
470,73,41104,2,0,L|289:94,1,157.500006008148,2|0,0:0|0:0,0:0:0:0:
470,73,41513,1,0,0:0:0:0:
404,191,41649,6,0,L|223:212,1,157.500006008148,2|0,0:0|0:0,0:0:0:0:
49,157,42058,2,0,P|116:114|193:140,1,157.500006008148,2|0,0:0|0:0,0:0:0:0:
160,307,42467,2,0,P|123:262|129:205,1,118.125004506111,2|0,0:0|0:0,0:0:0:0:
129,205,42740,5,2,0:0:0:0:
355,69,43013,1,2,0:0:0:0:
355,69,43149,2,0,L|342:237,1,157.500006008148,2|0,0:0|0:0,0:0:0:0:
181,138,43558,1,2,0:0:0:0:
417,266,43831,5,2,0:0:0:0:
256,192,43865,12,0,45433,0:0:0:0:
126,188,45467,6,0,P|211:184|280:331,1,220.499993270874
59,273,45740,6,0,P|19:185|109:84,1,220.499993270874
136,80,46013,5,0,0:0:0:0:
312,172,46149,2,0,P|324:248|288:284,1,125.999996154785,0|8,0:0|0:0,0:0:0:0:
60,268,46422,2,0,L|4:236,1,62.9999980773926,2|0,0:0|0:0,0:0:0:0:
120,228,46558,2,0,L|64:196,1,62.9999980773926,2|0,0:0|0:0,0:0:0:0:
180,192,46694,1,0,0:0:0:0:
400,52,46831,5,8,0:0:0:0:
184,188,46967,2,0,P|134:189|170:223,1,125.999996154785,2|0,0:0|0:0,0:0:0:0:
364,106,47240,1,0,0:0:0:0:
200,212,47376,2,0,L|147:334,1,125.999996154785,8|0,0:0|0:0,0:0:0:0:
52,204,47649,2,0,L|80:140,1,62.9999980773926,2|0,0:0|0:0,0:0:0:0:
72,24,47785,2,0,L|44:88,1,62.9999980773926,2|0,0:0|0:0,0:0:0:0:
152,128,47922,2,0,P|252:140|288:164,1,125.999996154785,8|0,0:0|0:0,0:0:0:0:
396,212,48195,5,2,0:0:0:0:
360,352,48331,1,0,0:0:0:0:
504,112,48467,1,8,0:0:0:0:
252,232,48604,1,2,0:0:0:0:
512,296,48740,1,0,0:0:0:0:
344,88,48876,1,0,0:0:0:0:
360,352,49013,5,10,0:0:0:0:
502,164,49149,1,0,0:0:0:0:
264,145,49285,1,2,0:0:0:0:
360,352,49422,5,0,0:0:0:0:
464,220,49558,1,10,0:0:0:0:
292,204,49695,1,0,0:0:0:0:
360,352,49831,5,2,0:0:0:0:
368,264,49967,5,2,0:0:0:0:
368,264,50035,1,0,0:0:0:0:
368,264,50104,2,0,P|308:312|252:308,1,125.999996154785,8|0,0:0|0:0,0:0:0:0:
260,76,50376,6,0,P|321:80|366:123,2,125.999996154785,0|0|8,0:0|0:0|0:0,0:0:0:0:
284,236,50785,1,0,0:0:0:0:
88,64,50922,2,0,L|160:80,1,62.9999980773926,2|0,0:0|0:0,0:0:0:0:
108,136,51058,2,0,L|180:152,1,62.9999980773926,2|0,0:0|0:0,0:0:0:0:
52,184,51194,1,8,0:0:0:0:
284,236,51331,1,0,0:0:0:0:
169,149,51467,6,2,P|145:133|161:181,1,125.999996154785
284,236,51740,2,0,P|308:220|292:268,1,125.999996154785,8|0,0:0|0:0,0:0:0:0:
160,280,52013,2,0,B|156:248|156:248|164:212,1,62.9999980773926
276,48,52149,2,0,B|280:80|280:80|272:116,1,62.9999980773926
344,312,52285,1,10,0:0:0:0:
356,252,52353,1,0,0:0:0:0:
368,192,52422,1,2,0:0:0:0:
456,132,52558,6,0,B|424:72|376:96|376:96|356:52|304:60|304:60|296:24|300:8|300:8,1,210
162,217,52967,6,0,P|150:301|194:337,1,105
452,248,53240,6,0,P|456:164|408:124,1,105
228,8,53513,2,0,P|292:32|324:164,1,210
266,324,53922,2,0,P|202:300|170:174,1,157.5
197,137,54195,2,0,P|261:161|293:287,1,157.5
380,272,54467,2,0,P|408:212|408:168,1,105
256,36,54740,5,0,0:0:0:0:
173,237,54876,1,0,0:0:0:0:
28,132,55013,5,8,0:0:0:0:
331,156,55149,1,0,0:0:0:0:
163,334,55285,5,2,0:0:0:0:
98,298,55353,1,0,0:0:0:0:
76,228,55421,1,2,0:0:0:0:
106,161,55489,1,0,0:0:0:0:
176,130,55558,1,8,0:0:0:0:
430,170,55695,1,0,0:0:0:0:
159,97,55831,6,0,P|145:49|221:38,1,126
331,156,56104,6,0,B|330:200|295:228|295:228|179:208,1,188.999994232178,8|0,0:0|0:0,0:0:0:0:
76,180,56376,5,0,0:0:0:0:
277,82,56513,1,0,0:0:0:0:
261,305,56649,1,8,0:0:0:0:
281,46,56785,1,0,0:0:0:0:
50,184,56922,5,2,0:0:0:0:
358,251,57058,1,2,0:0:0:0:
159,168,57195,5,10,0:0:0:0:
467,235,57331,1,2,0:0:0:0:
189,347,57467,5,2,0:0:0:0:
244,44,57604,1,2,0:0:0:0:
244,44,57672,1,0,0:0:0:0:
244,44,57740,1,10,0:0:0:0:
358,251,57876,1,2,0:0:0:0:
123,231,58013,6,2,L|6:217,1,115.50000352478
8,217,58217,1,0,0:0:0:0:
8,217,58285,1,10,0:0:0:0:
256,350,58422,1,2,0:0:0:0:
389,231,58558,1,2,0:0:0:0:
123,231,58695,1,2,0:0:0:0:
123,231,58763,1,0,0:0:0:0:
123,231,58831,1,10,0:0:0:0:
256,378,58967,1,0,0:0:0:0:
398,224,59104,5,0,0:0:0:0:
231,25,59240,1,0,0:0:0:0:
210,282,59376,5,8,0:0:0:0:
378,104,59513,1,0,0:0:0:0:
157,199,59649,5,2,0:0:0:0:
86,176,59717,1,0,0:0:0:0:
86,101,59785,1,2,0:0:0:0:
157,78,59854,1,0,0:0:0:0:
201,139,59922,1,8,0:0:0:0:
130,346,60058,1,0,0:0:0:0:
315,364,60195,6,0,L|455:357,1,126
430,224,60467,6,0,P|316:232|276:161,1,188.999994232178,8|0,0:0|0:0,0:0:0:0:
252,57,60740,5,0,0:0:0:0:
260,312,60876,1,0,0:0:0:0:
368,154,61013,1,8,0:0:0:0:
256,342,61149,1,0,0:0:0:0:
164,144,61285,6,0,P|103:115|18:187,1,183.749994392395
251,208,61695,6,0,L|228:38,1,141.749995674133
101,200,61967,6,0,B|88:283|88:283|190:266,1,173.250005287171
318,342,62240,6,0,B|251:356|251:356|192:336|192:336|93:352,1,204.749990627289
256,279,62513,6,0,L|366:256,1,105
448,202,62785,1,0,0:0:0:0:
445,97,62921,1,0,0:0:0:0:
354,46,63058,1,0,0:0:0:0:
264,100,63194,1,0,0:0:0:0:
266,205,63331,1,0,0:0:0:0:
360,256,63467,6,0,P|308:304|252:312,1,105
156,272,63740,1,8,0:0:0:0:
152,152,63876,1,0,0:0:0:0:
264,100,64013,2,0,P|268:164|264:208,2,105,0|0|8,0:0|0:0|0:0,0:0:0:0:
444,96,64422,5,0,0:0:0:0:
336,244,64558,1,0,0:0:0:0:
356,24,64695,5,0,0:0:0:0:
424,296,64831,1,8,0:0:0:0:
264,104,64967,2,0,P|200:88|144:96,2,105
336,244,65376,1,8,0:0:0:0:
196,304,65513,5,0,0:0:0:0:
264,104,65649,1,0,0:0:0:0:
120,224,65785,1,0,0:0:0:0:
120,224,65853,1,0,0:0:0:0:
120,224,65921,1,8,0:0:0:0:
292,208,66058,5,0,0:0:0:0:
144,96,66195,2,0,P|68:108|48:126,1,105
264,104,66467,1,8,0:0:0:0:
120,224,66604,1,0,0:0:0:0:
264,104,66740,2,0,P|338:122|356:143,1,105
324,320,67013,1,8,0:0:0:0:
220,324,67149,1,0,0:0:0:0:
132,280,67285,5,0,0:0:0:0:
264,104,67422,1,0,0:0:0:0:
220,324,67558,5,0,0:0:0:0:
144,96,67695,1,0,0:0:0:0:
308,258,67831,6,0,P|407:278|468:178,1,210,0|8,0:0|0:0,0:0:0:0:
264,104,68240,1,0,0:0:0:0:
131,181,68376,2,0,B|113:236|113:236|140:300,1,105
40,205,68649,6,0,B|84:86|84:86|64:56|74:5,1,188.999994232178,8|0,0:0|0:0,0:0:0:0:
151,43,68922,6,0,P|197:70|262:59,1,105
424,13,69195,1,8,0:0:0:0:
210,173,69331,1,0,0:0:0:0:
504,94,69467,2,0,L|497:206,1,105
390,347,69740,2,0,P|373:254|411:189,1,157.5,8|0,0:0|0:0,0:0:0:0:
431,172,70013,6,0,P|366:193|317:176,1,105
292,170,70217,1,0,0:0:0:0:
251,158,70285,2,0,P|199:150|152:170,1,105,8|0,0:0|0:0,0:0:0:0:
39,305,70558,1,0,0:0:0:0:
254,345,70695,1,0,0:0:0:0:
155,133,70831,1,8,0:0:0:0:
10,314,70967,1,0,0:0:0:0:
287,368,71104,6,0,L|450:355,1,157.5,2|0,2:0|2:0,2:0:0:0:
232,263,71376,6,0,L|69:250,1,157.5,2|0,2:0|2:0,2:0:0:0:
302,160,71649,6,0,L|465:147,1,157.5,2|0,2:0|2:0,2:0:0:0:
247,55,71921,6,0,L|84:42,1,157.5,2|0,2:0|2:0,2:0:0:0:
48,124,72195,6,0,P|35:185|63:229,1,105
302,160,72467,1,8,0:0:0:0:
233,292,72604,1,0,0:0:0:0:
158,205,72740,5,0,0:0:0:0:
97,238,72876,1,0,0:0:0:0:
100,168,73013,2,0,P|148:128|200:132,1,105,8|0,0:0|0:0,0:0:0:0:
352,232,73285,5,0,0:0:0:0:
304,32,73422,1,0,0:0:0:0:
280,192,73558,5,8,0:0:0:0:
404,8,73695,1,0,0:0:0:0:
480,216,73831,2,8,P|468:288|424:320,2,105,0|0|8,0:0|0:0|0:0,0:0:0:0:
424,112,74240,1,0,0:0:0:0:
324,196,74376,1,0,0:0:0:0:
308,168,74445,1,0,0:0:0:0:
176,120,74581,5,0,0:0:0:0:
192,152,74649,1,8,0:0:0:0:
196,300,74785,5,0,0:0:0:0:
212,268,74854,1,0,0:0:0:0:
232,236,74922,2,0,B|256:192|256:192|284:172,1,73.4999977569581
424,52,75058,6,0,B|400:96|400:96|372:116,1,73.4999977569581
196,132,75195,6,0,B|242:112|242:112|276:113,1,73.4999977569581,8|0,0:0|0:0,0:0:0:0:
464,156,75331,6,0,B|417:175|417:175|384:172,1,62.9999980773926
212,104,75467,6,0,P|264:64|336:92,1,141.749995674133
348,209,75740,2,0,P|296:249|224:221,1,141.749995674133,8|0,0:0|0:0,0:0:0:0:
184,200,76013,1,0,0:0:0:0:
76,284,76149,1,0,0:0:0:0:
108,104,76285,2,0,P|136:80|180:76,1,78.75,8|0,0:0|0:0,0:0:0:0:
433,115,76558,6,0,P|335:146|234:83,1,210,0|8,0:0|0:0,0:0:0:0:
433,23,76967,1,0,0:0:0:0:
424,227,77104,2,0,L|419:343,1,105
274,202,77376,6,0,P|307:313|236:369,1,188.999994232178,8|0,0:0|0:0,0:0:0:0:
264,359,77649,6,0,L|141:351,1,105
139,69,77922,1,8,0:0:0:0:
31,289,78058,1,0,0:0:0:0:
266,131,78195,1,0,0:0:0:0:
21,148,78331,1,0,0:0:0:0:
276,272,78467,2,0,P|376:270|419:219,1,157.5,8|0,0:0|0:0,0:0:0:0:
422,203,78740,5,8,3:0:0:0:
132,169,78876,1,8,0:0:0:0:
446,204,79013,5,8,3:0:0:0:
113,165,79149,1,8,0:0:0:0:
475,206,79285,5,8,3:0:0:0:
92,161,79421,1,8,0:0:0:0:
507,208,79558,5,8,3:0:0:0:
67,157,79694,1,8,0:0:0:0:
319,278,79831,6,2,P|366:190|317:93,1,210
255,283,80240,1,0,2:0:0:0:
189,96,80376,2,2,P|145:188|193:278,1,210,2|2,2:0|2:0,2:0:0:0:
364,56,80922,6,0,B|404:104|404:104|420:168,1,125.999996154785
184,304,81195,2,0,B|144:256|144:256|128:192,1,125.999996154785,8|0,0:0|0:0,0:0:0:0:
410,248,81467,2,0,L|338:268,1,62.9999980773926,2|0,0:0|0:0,0:0:0:0:
144,128,81604,2,0,L|216:108,1,62.9999980773926,2|0,0:0|0:0,0:0:0:0:
320,140,81740,1,10,0:0:0:0:
172,340,81876,6,0,B|240:316|240:316|272:264,1,125.999996154785,0|2,0:0|0:0,0:0:0:0:
340,104,82149,1,0,0:0:0:0:
212,140,82285,1,2,0:0:0:0:
340,104,82422,5,2,0:0:0:0:
340,104,82558,1,2,0:0:0:0:
268,272,82695,1,0,0:0:0:0:
212,140,82831,1,2,0:0:0:0:
296,24,82967,1,2,0:0:0:0:
256,308,83104,5,0,0:0:0:0:
66,192,83376,1,0,0:0:0:0:
446,192,83513,1,0,0:0:0:0:
256,76,83785,5,0,0:0:0:0:
256,308,84058,1,0,0:0:0:0:
120,72,84195,6,0,B|168:168|168:168|256:76|256:76|344:168|344:168|396:64,1,472.500018024445,0|0,0:0|0:0,0:1:0:0:
393,69,85285,6,0,B|441:113|441:113|465:189,1,125.999996154785
232,272,85558,1,8,0:0:0:0:
352,93,85695,2,0,L|388:33,1,62.9999980773926
175,110,85831,2,0,L|211:50,1,62.9999980773926,2|0,0:0|0:0,0:0:0:0:
232,272,85967,1,2,0:0:0:0:
352,93,86104,5,8,0:0:0:0:
232,272,86240,2,0,B|181:313|181:313|120:330,2,125.999996154785
343,49,86649,2,0,P|392:61|352:93,1,125.999996154785,8|0,0:0|0:0,0:0:0:0:
230,103,86922,2,0,L|193:156,1,62.9999980773926
148,235,87058,2,0,L|120:178,1,62.9999980773926
74,96,87195,2,0,L|136:99,1,62.9999980773926,8|0,0:0|0:0,0:0:0:0:
343,49,87331,6,0,B|395:95|395:95|423:169,1,125.999996154785,0|2,0:0|0:0,0:0:0:0:
344,376,87604,1,2,0:0:0:0:
267,141,87740,1,10,0:0:0:0:
456,280,87876,1,2,0:0:0:0:
218,286,88013,1,2,0:0:0:0:
415,147,88149,1,2,0:0:0:0:
324,366,88285,5,10,0:0:0:0:
166,246,88422,1,2,0:0:0:0:
283,96,88558,1,2,0:0:0:0:
295,327,88695,5,2,0:0:0:0:
150,203,88831,1,10,0:0:0:0:
303,58,88967,1,2,0:0:0:0:
396,232,89104,6,2,B|376:296|376:296|324:332,1,125.999996154785
288,336,89308,1,0,0:0:0:0:
248,344,89376,1,8,0:0:0:0:
192,216,89513,1,0,0:0:0:0:
437,240,89649,5,0,0:0:0:0:
147,213,89785,1,0,0:0:0:0:
347,57,89922,5,8,0:0:0:0:
389,337,90058,1,0,0:0:0:0:
82,302,90195,5,2,0:0:0:0:
39,234,90263,1,0,0:0:0:0:
53,155,90331,1,2,0:0:0:0:
117,107,90399,1,0,0:0:0:0:
196,115,90467,1,8,0:0:0:0:
451,162,90604,1,0,0:0:0:0:
256,220,90740,6,0,B|147:213|147:213|182:193,1,126
302,117,91013,6,0,B|344:86|354:39|354:39|380:80|442:93,1,188.999994232178,8|0,0:0|0:0,0:0:0:0:
255,24,91285,5,0,0:0:0:0:
122,136,91422,1,0,0:0:0:0:
451,93,91558,1,8,0:0:0:0:
246,10,91695,1,0,0:0:0:0:
101,149,91831,6,0,L|109:335,1,183.749994392395
206,301,92240,6,0,B|232:280|277:276|313:291|313:291|287:305,1,141.749995674133
262,205,92513,6,0,B|290:192|329:207|329:207|372:192|372:192|409:207|460:201,1,173.250005287171
477,91,92785,6,0,P|414:132|406:24,1,204.749990627289
512,178,93058,6,0,B|519:231|501:231|512:283,1,105
411,342,93331,1,0,0:0:0:0:
322,192,93467,1,0,0:0:0:0:
256,343,93604,1,0,0:0:0:0:
190,192,93740,6,0,B|175:179|158:128|158:128|177:218|135:287,1,204.749990627289,8|0,0:0|0:0,0:0:0:0:
37,186,94013,5,0,0:0:0:0:
298,96,94149,1,0,0:0:0:0:
48,28,94285,5,8,0:0:0:0:
132,288,94422,1,0,0:0:0:0:
379,192,94558,5,2,0:0:0:0:
379,192,94626,1,0,0:0:0:0:
379,192,94695,1,2,0:0:0:0:
133,192,94831,1,8,0:0:0:0:
380,288,94967,1,0,0:0:0:0:
464,28,95104,5,0,0:0:0:0:
214,96,95240,1,0,0:0:0:0:
452,133,95376,5,8,0:0:0:0:
256,240,95513,1,0,0:0:0:0:
256,240,95581,1,0,0:0:0:0:
256,240,95649,1,2,0:0:0:0:
60,133,95785,1,2,0:0:0:0:
465,112,95922,1,8,0:0:0:0:
256,274,96058,1,0,0:0:0:0:
47,112,96195,6,8,B|129:95|129:95|193:113,1,125.999996154785
317,192,96399,2,8,B|256:208|256:208|195:192,1,125.999996154785
342,106,96604,2,0,B|382:95|382:95|454:111,1,62.9999980773926,0|8,0:0|0:0,0:0:0:0:
465,112,96740,6,8,L|448:269,1,125.999996154785
256,333,96945,2,8,L|256:180,1,125.999996154785
47,112,97149,2,0,L|59:232,1,62.9999980773926,0|8,0:0|0:0,0:0:0:0:
60,237,97285,6,8,P|116:226|170:168,1,125.999996154785
347,179,97558,2,0,P|391:223|452:237,1,125.999996154785,8|0,0:0|0:0,0:0:0:0:
256,55,97831,1,0,0:0:0:0:
256,329,97967,1,0,0:0:0:0:
347,179,98104,6,0,B|296:153|296:153|256:172|256:172|212:153|212:153|164:179,1,204.749990627289,8|0,0:0|0:0,0:0:0:0:
116,320,98376,6,0,B|88:256|88:256|104:156,1,146.999995513916
291,122,98649,1,8,0:0:0:0:
248,263,98785,1,0,0:0:0:0:
253,215,98854,1,0,0:0:0:0:
221,250,98922,1,0,0:0:0:0:
268,241,98990,1,0,0:0:0:0:
224,221,99058,1,2,0:0:0:0:
41,150,99195,6,0,B|-4:86|-4:86|7:15,2,146.999995513916,8|0|0,0:0|0:0|0:0,0:0:0:0:
379,153,99604,1,0,0:0:0:0:
216,152,99740,1,8,0:0:0:0:
236,224,99808,1,0,0:0:0:0:
260,296,99876,1,0,0:0:0:0:
422,153,100013,5,2,0:0:0:0:
224,160,100149,1,2,0:0:0:0:
224,160,100217,1,0,0:0:0:0:
224,160,100285,1,8,0:0:0:0:
360,44,100422,1,0,0:0:0:0:
372,292,100558,6,0,P|305:340|197:223,1,262.5,0|0,0:0|2:0,0:0:0:0:
286,252,100967,6,0,P|296:181|217:124,1,157.5,0|0,0:0|2:0,0:0:0:0:
86,84,101240,6,0,L|250:130,1,157.5,0|0,0:0|2:0,0:0:0:0:
286,252,101513,6,0,P|266:311|230:227,1,210
256,192,101820,12,0,102604,0:0:0:0:
361,295,102740,6,0,L|371:150,1,125.999996154785,8|0,0:0|0:0,0:0:0:0:
151,89,103149,6,0,L|136:272,1,168,8|0,0:0|0:0,0:0:0:0:
361,295,103558,6,0,L|374:93,1,157.5,8|0,0:0|0:0,0:0:0:0:
256,42,103831,5,0,0:0:0:0:
137,256,103967,1,0,0:0:0:0:
95,42,104104,1,0,0:0:0:0:
142,276,104240,1,0,0:0:0:0:
91,19,104377,1,0,0:0:0:0:
179,158,104513,2,4,P|203:174|233:181,1,52.5
428,116,104649,2,4,P|402:128|381:151,1,52.5
337,353,104785,2,4,P|338:324|329:294,1,52.5
64,288,104922,6,0,P|97:342|166:353,1,125.999996154785,8|0,0:0|0:0,0:0:0:0:
385,146,105331,6,0,B|278:115|278:115|207:156,1,168,8|0,0:0|0:0,0:0:0:0:
454,348,105740,6,0,L|478:106,1,210,8|0,0:0|0:0,0:0:0:0:
174,23,106149,6,0,L|198:280,1,251.999992309571,8|0,0:0|0:0,0:0:0:0:
474,139,106558,6,4,P|414:127|363:122,1,105
233,357,106831,2,4,P|285:350|336:340,1,105
368,124,107104,6,0,P|277:162|196:246,1,210,8|0,0:0|0:0,0:0:0:0:
404,324,107513,6,0,B|431:277|431:277|419:251|419:251|446:197|428:160,1,168,8|0,0:0|0:0,0:0:0:0:
142,16,107922,6,0,B|97:168|97:168|112:260,1,251.999992309571,8|0,0:0|0:0,0:0:0:0:
340,212,108331,5,0,0:0:0:0:
228,24,108467,2,4,P|270:39|287:40,1,52.5
448,36,108604,2,4,P|413:64|404:79,1,52.5
328,212,108740,2,4,P|320:168|312:152,1,52.5,12|4,0:0|0:0,0:0:0:0:
336,88,108876,1,0,0:0:0:0:
476,152,109013,5,8,0:0:0:0:
460,224,109081,1,0,0:0:0:0:
416,280,109149,1,0,0:0:0:0:
356,320,109217,2,4,P|316:320|304:316,1,52.5
476,152,109695,5,2,0:0:0:0:
460,224,109967,5,2,0:0:0:0:
416,280,110240,5,2,0:0:0:0:
356,320,110376,1,8,0:0:0:0:
416,280,110649,5,2,0:0:0:0:
300,160,110786,1,2,0:0:0:0:
260,320,110922,1,8,0:0:0:0:
