osu file format v14

[General]
AudioFilename: audio.mp3
AudioLeadIn: 0
PreviewTime: 19911
Countdown: 0
SampleSet: Soft
StackLeniency: 0.7
Mode: 3
LetterboxInBreaks: 0
SpecialStyle: 0
WidescreenStoryboard: 0

[Editor]
DistanceSpacing: 0.8
BeatDivisor: 4
GridSize: 8
TimelineZoom: 1.6

[Metadata]
Title:Stronghold
TitleUnicode:Stronghold
Artist:Lite Show Magic
ArtistUnicode:Lite Show Magic
Creator:Verniy_Chan
Version:NOVICE
Source:
Tags:t+pazolite C-Show Tomoyuki Hamada Akira Michi Raise Blaze in Fiction Movement on the FLOOR Adinata28 Ichigaki
BeatmapID:985015
BeatmapSetID:459853

[Difficulty]
HPDrainRate:7
CircleSize:4
OverallDifficulty:7
ApproachRate:5
SliderMultiplier:1.4
SliderTickRate:1

[Events]
//Background and Video events
0,0,"BG.jpg",0,0
//Break Periods
//Storyboard Layer 0 (Background)
//Storyboard Layer 1 (Fail)
//Storyboard Layer 2 (Pass)
//Storyboard Layer 3 (Foreground)
//Storyboard Sound Samples

[TimingPoints]
786,300,4,2,1,50,1,0
22386,-100,4,2,1,50,0,1
40386,-100,4,2,1,50,0,0
79986,-100,4,2,1,50,0,1
99186,-100,4,2,1,50,0,0

[HitObjects]
64,192,786,5,2,0:0:0:0:
320,192,786,1,4,0:0:0:0:
192,192,1236,1,0,0:0:0:0:
448,192,1386,1,0,0:0:0:0:
320,192,1536,1,0,0:0:0:0:
64,192,1686,1,0,0:0:0:0:
320,192,1836,1,0,0:0:0:0:
192,192,1986,1,0,0:0:0:0:
448,192,2136,1,0,0:0:0:0:
192,192,2286,1,0,0:0:0:0:
320,192,2436,1,0,0:0:0:0:
64,192,2586,128,0,2886:0:0:0:0:
448,192,2886,128,0,3186:0:0:0:0:
64,192,3186,1,2,0:0:0:0:
192,192,3186,1,4,0:0:0:0:
320,192,3636,1,0,0:0:0:0:
64,192,3786,1,0,0:0:0:0:
192,192,3936,1,0,0:0:0:0:
448,192,4086,1,0,0:0:0:0:
320,192,4236,1,0,0:0:0:0:
64,192,4386,1,0,0:0:0:0:
448,192,4536,1,0,0:0:0:0:
192,192,4686,1,0,0:0:0:0:
320,192,4836,1,0,0:0:0:0:
64,192,4986,1,0,0:0:0:0:
448,192,5136,128,0,5361:0:0:0:0:
192,192,5361,1,0,0:0:0:0:
320,192,5586,1,2,0:0:0:0:
64,192,5586,1,4,0:0:0:0:
448,192,6036,1,0,0:0:0:0:
192,192,6186,1,0,0:0:0:0:
320,192,6336,1,0,0:0:0:0:
64,192,6486,1,0,0:0:0:0:
448,192,6636,1,0,0:0:0:0:
192,192,6786,1,0,0:0:0:0:
320,192,6936,1,0,0:0:0:0:
448,192,7086,1,0,0:0:0:0:
64,192,7236,1,0,0:0:0:0:
192,192,7386,128,0,7686:0:0:0:0:
320,192,7686,1,0,0:0:0:0:
320,192,7836,1,0,0:0:0:0:
64,192,7986,1,2,0:0:0:0:
448,192,7986,1,4,0:0:0:0:
192,192,8436,1,0,0:0:0:0:
320,192,8586,1,0,0:0:0:0:
64,192,8736,1,0,0:0:0:0:
448,192,8886,1,0,0:0:0:0:
192,192,9036,1,0,0:0:0:0:
320,192,9186,1,0,0:0:0:0:
64,192,9336,1,0,0:0:0:0:
192,192,9486,1,0,0:0:0:0:
448,192,9636,1,0,0:0:0:0:
320,192,9786,1,0,0:0:0:0:
64,192,9936,128,0,10386:0:0:0:0:
448,192,10386,1,2,0:0:0:0:
320,192,10386,1,4,0:0:0:0:
192,192,10836,1,0,0:0:0:0:
320,192,10986,1,0,0:0:0:0:
448,192,11136,1,0,0:0:0:0:
64,192,11286,1,0,0:0:0:0:
320,192,11436,1,0,0:0:0:0:
192,192,11586,1,0,0:0:0:0:
64,192,11736,1,0,0:0:0:0:
448,192,11886,1,0,0:0:0:0:
192,192,12036,1,0,0:0:0:0:
320,192,12186,1,0,0:0:0:0:
64,192,12336,1,0,0:0:0:0:
192,192,12486,1,0,0:0:0:0:
320,192,12636,1,0,0:0:0:0:
64,192,12786,1,4,0:0:0:0:
448,192,12786,1,2,0:0:0:0:
320,192,13236,1,0,0:0:0:0:
192,192,13386,1,0,0:0:0:0:
448,192,13536,1,0,0:0:0:0:
64,192,13686,1,0,0:0:0:0:
320,192,13836,1,0,0:0:0:0:
448,192,13986,1,0,0:0:0:0:
192,192,14136,1,0,0:0:0:0:
320,192,14286,1,0,0:0:0:0:
64,192,14436,1,0,0:0:0:0:
448,192,14586,1,0,0:0:0:0:
192,192,14736,128,0,15186:0:0:0:0:
448,192,15186,1,4,0:0:0:0:
64,192,15186,1,2,0:0:0:0:
320,192,15636,1,0,0:0:0:0:
64,192,15786,1,0,0:0:0:0:
448,192,15936,1,0,0:0:0:0:
192,192,16086,1,0,0:0:0:0:
320,192,16236,1,0,0:0:0:0:
64,192,16386,1,4,0:0:0:0:
192,192,16386,1,2,0:0:0:0:
448,192,16536,1,0,0:0:0:0:
320,192,16686,1,0,0:0:0:0:
192,192,16836,1,0,0:0:0:0:
448,192,16986,1,0,0:0:0:0:
64,192,17136,1,0,0:0:0:0:
320,192,17286,1,0,0:0:0:0:
192,192,17436,1,0,0:0:0:0:
448,192,17586,1,2,0:0:0:0:
64,192,17586,1,4,0:0:0:0:
320,192,17736,1,0,0:0:0:0:
192,192,17886,1,0,0:0:0:0:
448,192,18036,1,0,0:0:0:0:
64,192,18186,1,4,0:0:0:0:
192,192,18186,1,2,0:0:0:0:
320,192,18336,1,0,0:0:0:0:
64,192,18486,1,0,0:0:0:0:
448,192,18636,1,0,0:0:0:0:
64,192,18786,1,0,0:0:0:0:
192,192,18936,1,0,0:0:0:0:
320,192,19086,1,0,0:0:0:0:
448,192,19236,1,0,0:0:0:0:
192,192,19386,1,0,0:0:0:0:
320,192,19536,1,0,0:0:0:0:
192,192,19686,1,0,0:0:0:0:
320,192,19836,1,0,0:0:0:0:
64,192,19986,1,2,0:0:0:0:
192,192,19986,1,4,0:0:0:0:
448,192,20286,1,0,0:0:0:0:
448,192,20586,1,0,0:0:0:0:
64,192,21186,1,2,0:0:0:0:
192,192,21186,1,0,0:0:0:0:
448,192,21336,1,2,0:0:0:0:
320,192,21336,1,0,0:0:0:0:
64,192,21486,1,2,0:0:0:0:
192,192,21486,1,0,0:0:0:0:
448,192,21636,1,2,0:0:0:0:
320,192,21636,1,0,0:0:0:0:
448,192,21936,1,2,0:0:0:0:
192,192,21936,1,0,0:0:0:0:
64,192,22386,1,2,0:0:0:0:
448,192,22386,1,4,0:0:0:0:
192,192,22536,1,0,0:0:0:0:
320,192,22686,1,2,0:0:0:0:
64,192,22836,1,0,0:0:0:0:
448,192,22986,1,2,0:0:0:0:
192,192,23136,1,0,0:0:0:0:
320,192,23286,1,2,0:0:0:0:
64,192,23436,1,0,0:0:0:0:
448,192,23586,1,2,0:0:0:0:
192,192,23736,1,0,0:0:0:0:
320,192,23886,1,2,0:0:0:0:
448,192,24036,1,0,0:0:0:0:
64,192,24186,1,2,0:0:0:0:
192,192,24336,1,0,0:0:0:0:
448,192,24486,128,2,24786:0:0:0:0:
64,192,24786,1,2,0:0:0:0:
320,192,24936,1,0,0:0:0:0:
192,192,25086,1,2,0:0:0:0:
448,192,25236,1,0,0:0:0:0:
64,192,25386,1,2,0:0:0:0:
320,192,25536,1,0,0:0:0:0:
192,192,25686,1,2,0:0:0:0:
448,192,25836,1,0,0:0:0:0:
320,192,25986,1,2,0:0:0:0:
64,192,26136,1,0,0:0:0:0:
192,192,26286,1,2,0:0:0:0:
448,192,26436,1,0,0:0:0:0:
320,192,26586,1,2,0:0:0:0:
64,192,26736,1,0,0:0:0:0:
192,192,26811,1,0,0:0:0:0:
320,192,26886,1,2,0:0:0:0:
64,192,27036,1,0,0:0:0:0:
448,192,27186,1,2,0:0:0:0:
192,192,27336,1,0,0:0:0:0:
320,192,27486,1,2,0:0:0:0:
64,192,27636,1,0,0:0:0:0:
192,192,27786,1,2,0:0:0:0:
448,192,27936,1,0,0:0:0:0:
64,192,28086,1,2,0:0:0:0:
320,192,28236,1,0,0:0:0:0:
192,192,28386,1,2,0:0:0:0:
448,192,28536,1,0,0:0:0:0:
64,192,28686,1,2,0:0:0:0:
192,192,28836,1,0,0:0:0:0:
320,192,28986,1,2,0:0:0:0:
448,192,29136,1,0,0:0:0:0:
64,192,29286,128,2,29586:0:0:0:0:
320,192,29586,1,2,0:0:0:0:
192,192,29736,1,0,0:0:0:0:
448,192,29886,1,2,0:0:0:0:
64,192,30036,1,0,0:0:0:0:
192,192,30186,1,2,0:0:0:0:
448,192,30336,1,0,0:0:0:0:
64,192,30486,1,2,0:0:0:0:
320,192,30636,1,0,0:0:0:0:
192,192,30786,1,2,0:0:0:0:
448,192,30936,1,0,0:0:0:0:
192,192,31086,1,8,0:0:0:0:
448,192,31236,1,0,0:0:0:0:
64,192,31386,128,2,31686:0:0:0:0:
320,192,31686,1,0,0:0:0:0:
320,192,31836,1,0,0:0:0:0:
448,192,31986,1,2,0:0:0:0:
64,192,31986,1,4,0:0:0:0:
192,192,32136,1,0,0:0:0:0:
320,192,32286,1,2,0:0:0:0:
64,192,32436,1,0,0:0:0:0:
448,192,32586,1,2,0:0:0:0:
320,192,32736,1,0,0:0:0:0:
64,192,32886,1,2,0:0:0:0:
192,192,33036,1,0,0:0:0:0:
448,192,33186,1,2,0:0:0:0:
320,192,33336,1,0,0:0:0:0:
64,192,33486,1,2,0:0:0:0:
448,192,33636,1,0,0:0:0:0:
192,192,33786,1,2,0:0:0:0:
64,192,33936,1,0,0:0:0:0:
320,192,34086,128,2,34386:0:0:0:0:
192,192,34386,1,2,0:0:0:0:
448,192,34536,1,0,0:0:0:0:
64,192,34686,1,2,0:0:0:0:
320,192,34836,1,0,0:0:0:0:
192,192,34986,1,2,0:0:0:0:
448,192,35136,1,0,0:0:0:0:
64,192,35286,1,2,0:0:0:0:
192,192,35436,1,0,0:0:0:0:
448,192,35586,1,2,0:0:0:0:
64,192,35736,1,0,0:0:0:0:
448,192,35886,1,2,0:0:0:0:
64,192,36036,1,0,0:0:0:0:
448,192,36186,1,2,0:0:0:0:
192,192,36336,1,0,0:0:0:0:
320,192,36411,1,0,0:0:0:0:
448,192,36486,1,2,0:0:0:0:
64,192,36636,1,0,0:0:0:0:
192,192,36786,1,2,0:0:0:0:
448,192,36936,1,0,0:0:0:0:
320,192,37086,1,2,0:0:0:0:
64,192,37236,1,0,0:0:0:0:
448,192,37386,1,2,0:0:0:0:
192,192,37536,1,0,0:0:0:0:
320,192,37686,1,2,0:0:0:0:
64,192,37836,1,0,0:0:0:0:
448,192,37986,1,2,0:0:0:0:
320,192,38136,1,0,0:0:0:0:
64,192,38286,1,2,0:0:0:0:
192,192,38436,1,0,0:0:0:0:
448,192,38586,1,2,0:0:0:0:
320,192,38736,1,0,0:0:0:0:
192,192,38886,128,2,39186:0:0:0:0:
448,192,39186,1,2,0:0:0:0:
64,192,39336,1,0,0:0:0:0:
320,192,39486,1,2,0:0:0:0:
192,192,39636,1,0,0:0:0:0:
320,192,39786,1,2,0:0:0:0:
64,192,39936,1,0,0:0:0:0:
448,192,40086,1,2,0:0:0:0:
192,192,40236,1,0,0:0:0:0:
320,192,40386,1,2,0:0:0:0:
320,192,40686,1,2,0:0:0:0:
320,192,40986,1,2,0:0:0:0:
64,192,41586,1,2,0:0:0:0:
192,192,41736,1,0,0:0:0:0:
448,192,41886,1,2,0:0:0:0:
64,192,42036,1,0,0:0:0:0:
320,192,42186,1,2,0:0:0:0:
192,192,42336,1,0,0:0:0:0:
448,192,42486,1,2,0:0:0:0:
192,192,42636,1,0,0:0:0:0:
64,192,42786,1,2,0:0:0:0:
448,192,42936,1,2,0:0:0:0:
320,192,43011,1,2,0:0:0:0:
64,192,43086,1,2,0:0:0:0:
192,192,43236,1,2,0:0:0:0:
320,192,43386,1,2,0:0:0:0:
192,192,43611,128,0,43986:0:0:0:0:
448,192,43986,1,2,0:0:0:0:
320,192,44136,1,0,0:0:0:0:
64,192,44286,1,2,0:0:0:0:
192,192,44436,1,0,0:0:0:0:
448,192,44586,1,2,0:0:0:0:
192,192,44736,1,0,0:0:0:0:
320,192,44886,1,2,0:0:0:0:
64,192,45036,1,0,0:0:0:0:
448,192,45186,1,2,0:0:0:0:
192,192,45336,1,0,0:0:0:0:
320,192,45486,1,2,0:0:0:0:
448,192,45636,1,0,0:0:0:0:
64,192,45786,1,2,0:0:0:0:
320,192,45936,1,0,0:0:0:0:
192,192,46011,1,0,0:0:0:0:
64,192,46086,1,2,0:0:0:0:
448,192,46236,1,0,0:0:0:0:
320,192,46386,1,2,0:0:0:0:
192,192,46536,1,0,0:0:0:0:
448,192,46686,1,2,0:0:0:0:
64,192,46836,1,0,0:0:0:0:
320,192,46986,1,2,0:0:0:0:
192,192,47136,1,0,0:0:0:0:
448,192,47286,1,2,0:0:0:0:
320,192,47436,1,0,0:0:0:0:
64,192,47586,1,2,0:0:0:0:
192,192,47736,1,2,0:0:0:0:
448,192,47886,1,2,0:0:0:0:
64,192,48036,128,0,48186:0:0:0:0:
320,192,48186,128,2,48486:0:0:0:0:
192,192,48486,1,2,0:0:0:0:
448,192,48786,1,2,0:0:0:0:
192,192,48936,1,0,0:0:0:0:
64,192,49086,1,2,0:0:0:0:
320,192,49236,1,0,0:0:0:0:
192,192,49386,1,2,0:0:0:0:
448,192,49536,1,0,0:0:0:0:
64,192,49686,1,2,0:0:0:0:
192,192,49836,1,0,0:0:0:0:
320,192,49986,1,2,0:0:0:0:
320,192,50286,1,2,0:0:0:0:
64,192,50586,1,2,0:0:0:0:
192,192,50736,1,0,0:0:0:0:
320,192,50886,1,0,0:0:0:0:
448,192,51036,1,0,0:0:0:0:
192,192,51186,1,8,0:0:0:0:
64,192,51186,1,4,0:0:0:0:
64,192,51486,1,0,0:0:0:0:
320,192,51486,1,8,0:0:0:0:
192,192,51786,1,8,0:0:0:0:
448,192,51786,1,0,0:0:0:0:
320,192,52086,1,0,0:0:0:0:
448,192,52086,1,8,0:0:0:0:
192,192,52386,1,8,0:0:0:0:
64,192,52386,1,0,0:0:0:0:
64,192,52686,1,0,0:0:0:0:
320,192,52686,1,8,0:0:0:0:
448,192,52986,1,8,0:0:0:0:
320,192,52986,1,0,0:0:0:0:
448,192,53286,1,8,0:0:0:0:
192,192,53286,1,0,0:0:0:0:
320,192,53436,1,8,0:0:0:0:
64,192,53586,1,8,0:0:0:0:
448,192,53586,1,0,0:0:0:0:
64,192,53886,1,0,0:0:0:0:
192,192,53886,1,8,0:0:0:0:
448,192,54186,1,8,0:0:0:0:
192,192,54186,1,0,0:0:0:0:
448,192,54486,1,8,0:0:0:0:
64,192,54486,1,0,0:0:0:0:
320,192,54786,1,8,0:0:0:0:
192,192,54786,1,0,0:0:0:0:
448,192,55086,1,8,0:0:0:0:
320,192,55086,1,0,0:0:0:0:
64,192,55386,1,8,0:0:0:0:
192,192,55386,1,0,0:0:0:0:
320,192,55536,1,0,0:0:0:0:
192,192,55611,1,0,0:0:0:0:
64,192,55686,1,8,0:0:0:0:
448,192,55686,1,0,0:0:0:0:
320,192,55836,1,0,0:0:0:0:
192,192,55986,1,8,0:0:0:0:
448,192,55986,128,0,56286:0:0:0:0:
64,192,56286,1,8,0:0:0:0:
320,192,56286,1,0,0:0:0:0:
192,192,56436,1,0,0:0:0:0:
64,192,56586,128,0,56886:0:0:0:0:
448,192,56586,1,8,0:0:0:0:
320,192,56886,1,8,0:0:0:0:
192,192,56886,1,0,0:0:0:0:
448,192,57036,1,0,0:0:0:0:
64,192,57186,1,8,0:0:0:0:
320,192,57186,128,0,57486:0:0:0:0:
192,192,57486,128,0,57786:0:0:0:0:
448,192,57486,1,8,0:0:0:0:
64,192,57786,1,8,0:0:0:0:
448,192,57786,128,0,58086:0:0:0:0:
192,192,58086,1,8,0:0:0:0:
320,192,58236,1,0,0:0:0:0:
448,192,58386,1,2,0:0:0:0:
64,192,58386,1,0,0:0:0:0:
320,192,58536,1,0,0:0:0:0:
64,192,58686,1,2,0:0:0:0:
192,192,58686,1,0,0:0:0:0:
448,192,58836,1,0,0:0:0:0:
192,192,58986,1,2,0:0:0:0:
320,192,58986,1,0,0:0:0:0:
64,192,59136,1,0,0:0:0:0:
448,192,59286,1,2,0:0:0:0:
320,192,59286,1,0,0:0:0:0:
192,192,59436,1,0,0:0:0:0:
64,192,59586,1,2,0:0:0:0:
64,192,59886,1,2,0:0:0:0:
64,192,60186,1,2,0:0:0:0:
448,192,60486,1,8,0:0:0:0:
320,192,60486,1,0,0:0:0:0:
448,192,60786,1,2,0:0:0:0:
192,192,60786,1,4,0:0:0:0:
64,192,61086,128,0,61536:0:0:0:0:
192,192,61236,128,0,61536:0:0:0:0:
448,192,61536,1,0,0:0:0:0:
320,192,61836,1,0,0:0:0:0:
64,192,62136,1,0,0:0:0:0:
320,192,62286,128,0,62586:0:0:0:0:
448,192,62586,128,0,62886:0:0:0:0:
64,192,62886,1,0,0:0:0:0:
192,192,63036,1,0,0:0:0:0:
320,192,63186,128,0,63486:0:0:0:0:
64,192,63486,1,0,0:0:0:0:
448,192,63636,128,0,64986:0:0:0:0:
448,192,65886,128,0,66336:0:0:0:0:
320,192,66036,128,0,66336:0:0:0:0:
64,192,66336,1,0,0:0:0:0:
192,192,66636,1,0,0:0:0:0:
448,192,66936,1,0,0:0:0:0:
64,192,67086,128,0,67386:0:0:0:0:
320,192,67386,128,0,67686:0:0:0:0:
192,192,67686,128,0,67986:0:0:0:0:
448,192,67986,128,0,68286:0:0:0:0:
64,192,68286,1,0,0:0:0:0:
320,192,68436,128,0,69786:0:0:0:0:
64,192,70386,1,8,0:0:0:0:
192,192,70386,1,0,0:0:0:0:
64,192,70686,1,0,0:0:0:0:
192,192,70686,1,8,0:0:0:0:
320,192,70986,1,8,0:0:0:0:
448,192,70986,1,0,0:0:0:0:
320,192,71286,1,8,0:0:0:0:
448,192,71286,1,0,0:0:0:0:
448,192,71586,1,0,0:0:0:0:
192,192,71586,1,8,0:0:0:0:
448,192,71886,1,8,0:0:0:0:
192,192,71886,1,0,0:0:0:0:
64,192,72186,1,8,0:0:0:0:
320,192,72186,1,0,0:0:0:0:
64,192,72486,1,8,0:0:0:0:
320,192,72486,1,0,0:0:0:0:
192,192,72636,1,8,0:0:0:0:
64,192,72786,1,8,0:0:0:0:
448,192,72786,1,8,0:0:0:0:
64,192,73086,1,8,0:0:0:0:
448,192,73086,1,0,0:0:0:0:
192,192,73386,1,8,0:0:0:0:
320,192,73386,1,0,0:0:0:0:
320,192,73686,1,8,0:0:0:0:
192,192,73686,1,0,0:0:0:0:
192,192,73986,1,0,0:0:0:0:
64,192,73986,1,8,0:0:0:0:
192,192,74286,1,8,0:0:0:0:
64,192,74286,1,0,0:0:0:0:
448,192,74586,1,8,0:0:0:0:
320,192,74586,1,0,0:0:0:0:
448,192,74886,1,0,0:0:0:0:
320,192,74886,1,8,0:0:0:0:
192,192,75036,1,8,0:0:0:0:
448,192,75186,1,8,0:0:0:0:
64,192,75186,128,0,76386:0:0:0:0:
320,192,75486,1,0,0:0:0:0:
192,192,75486,1,8,0:0:0:0:
320,192,75786,1,8,0:0:0:0:
448,192,75786,1,0,0:0:0:0:
192,192,76086,1,8,0:0:0:0:
448,192,76086,1,0,0:0:0:0:
320,192,76386,1,8,0:0:0:0:
448,192,76386,128,0,77586:0:0:0:0:
192,192,76686,1,8,0:0:0:0:
64,192,76686,1,0,0:0:0:0:
192,192,76986,1,8,0:0:0:0:
320,192,76986,1,0,0:0:0:0:
320,192,77286,1,8,0:0:0:0:
64,192,77286,1,0,0:0:0:0:
64,192,77586,1,2,0:0:0:0:
192,192,77736,1,0,0:0:0:0:
320,192,77886,1,2,0:0:0:0:
448,192,78036,1,0,0:0:0:0:
320,192,78186,1,2,0:0:0:0:
192,192,78336,1,0,0:0:0:0:
64,192,78486,1,2,0:0:0:0:
192,192,78636,1,0,0:0:0:0:
320,192,78786,1,2,0:0:0:0:
320,192,79086,1,2,0:0:0:0:
320,192,79386,1,2,0:0:0:0:
192,192,79686,1,8,0:0:0:0:
448,192,79686,1,0,0:0:0:0:
64,192,79986,1,2,0:0:0:0:
320,192,79986,1,4,0:0:0:0:
192,192,80136,1,0,0:0:0:0:
320,192,80286,1,2,0:0:0:0:
448,192,80436,1,0,0:0:0:0:
192,192,80586,1,2,0:0:0:0:
192,192,80811,1,0,0:0:0:0:
64,192,81036,1,0,0:0:0:0:
320,192,81186,1,2,0:0:0:0:
192,192,81336,1,0,0:0:0:0:
64,192,81486,1,2,0:0:0:0:
320,192,81636,1,0,0:0:0:0:
448,192,81786,1,2,0:0:0:0:
448,192,82011,1,0,0:0:0:0:
192,192,82236,1,0,0:0:0:0:
320,192,82386,1,2,0:0:0:0:
448,192,82536,1,0,0:0:0:0:
192,192,82686,1,2,0:0:0:0:
320,192,82836,1,0,0:0:0:0:
64,192,82986,1,2,0:0:0:0:
64,192,83211,1,0,0:0:0:0:
448,192,83436,1,0,0:0:0:0:
192,192,83586,1,2,0:0:0:0:
448,192,83736,1,0,0:0:0:0:
192,192,83886,1,2,0:0:0:0:
320,192,84036,1,0,0:0:0:0:
64,192,84186,1,2,0:0:0:0:
448,192,84411,128,0,84636:0:0:0:0:
192,192,84786,1,2,0:0:0:0:
320,192,84936,1,0,0:0:0:0:
448,192,85086,1,2,0:0:0:0:
320,192,85236,1,0,0:0:0:0:
64,192,85386,1,2,0:0:0:0:
64,192,85611,1,0,0:0:0:0:
448,192,85836,1,0,0:0:0:0:
192,192,85986,1,2,0:0:0:0:
320,192,86136,1,0,0:0:0:0:
64,192,86286,1,2,0:0:0:0:
448,192,86436,1,0,0:0:0:0:
320,192,86586,1,2,0:0:0:0:
320,192,86811,1,0,0:0:0:0:
64,192,87036,1,0,0:0:0:0:
192,192,87186,1,2,0:0:0:0:
320,192,87336,1,0,0:0:0:0:
448,192,87486,1,2,0:0:0:0:
192,192,87636,1,0,0:0:0:0:
64,192,87786,1,2,0:0:0:0:
64,192,88011,1,0,0:0:0:0:
320,192,88236,1,0,0:0:0:0:
192,192,88386,1,2,0:0:0:0:
192,192,88611,1,0,0:0:0:0:
192,192,88836,1,0,0:0:0:0:
448,192,88986,1,2,0:0:0:0:
320,192,89136,1,0,0:0:0:0:
192,192,89286,1,0,0:0:0:0:
64,192,89436,1,0,0:0:0:0:
448,192,89586,1,4,0:0:0:0:
320,192,89586,1,2,0:0:0:0:
64,192,89736,1,0,0:0:0:0:
320,192,89886,1,2,0:0:0:0:
192,192,90036,1,0,0:0:0:0:
448,192,90186,1,2,0:0:0:0:
448,192,90411,1,0,0:0:0:0:
64,192,90636,1,0,0:0:0:0:
192,192,90786,1,2,0:0:0:0:
448,192,90936,1,0,0:0:0:0:
320,192,91086,1,2,0:0:0:0:
64,192,91236,1,0,0:0:0:0:
448,192,91386,1,2,0:0:0:0:
448,192,91611,1,0,0:0:0:0:
320,192,91836,1,0,0:0:0:0:
64,192,91986,1,2,0:0:0:0:
192,192,92136,1,0,0:0:0:0:
320,192,92286,1,2,0:0:0:0:
448,192,92436,1,0,0:0:0:0:
192,192,92586,1,2,0:0:0:0:
192,192,92811,1,0,0:0:0:0:
64,192,93036,1,0,0:0:0:0:
320,192,93186,1,2,0:0:0:0:
64,192,93336,1,0,0:0:0:0:
320,192,93486,1,2,0:0:0:0:
192,192,93636,1,0,0:0:0:0:
448,192,93786,1,2,0:0:0:0:
64,192,94011,128,0,94236:0:0:0:0:
320,192,94386,1,2,0:0:0:0:
192,192,94536,1,0,0:0:0:0:
448,192,94686,1,2,0:0:0:0:
192,192,94836,1,0,0:0:0:0:
64,192,94986,1,2,0:0:0:0:
64,192,95211,1,0,0:0:0:0:
320,192,95436,1,0,0:0:0:0:
192,192,95586,1,2,0:0:0:0:
320,192,95736,1,0,0:0:0:0:
448,192,95886,1,2,0:0:0:0:
64,192,96036,1,0,0:0:0:0:
320,192,96186,1,2,0:0:0:0:
320,192,96411,1,0,0:0:0:0:
64,192,96636,1,0,0:0:0:0:
448,192,96786,1,2,0:0:0:0:
320,192,96936,1,0,0:0:0:0:
192,192,97086,1,2,0:0:0:0:
448,192,97236,1,0,0:0:0:0:
320,192,97386,1,2,0:0:0:0:
320,192,97611,1,0,0:0:0:0:
448,192,97836,1,2,0:0:0:0:
64,192,97986,1,2,0:0:0:0:
64,192,98211,1,0,0:0:0:0:
64,192,98436,1,0,0:0:0:0:
448,192,98586,128,0,98886:0:0:0:0:
64,192,98886,128,0,99186:0:0:0:0:
192,192,99186,1,4,0:0:0:0:
320,192,99186,1,2,0:0:0:0:
448,192,99486,128,2,99936:0:0:0:0:
64,192,99786,1,2,0:0:0:0:
192,192,99936,1,0,0:0:0:0:
320,192,100086,1,2,0:0:0:0:
64,192,100236,1,0,0:0:0:0:
448,192,100386,1,2,0:0:0:0:
192,192,100536,1,0,0:0:0:0:
320,192,100686,128,2,100986:0:0:0:0:
64,192,100986,1,2,0:0:0:0:
64,192,101136,1,0,0:0:0:0:
448,192,101286,1,2,0:0:0:0:
192,192,101586,128,2,101886:0:0:0:0:
448,192,101886,1,2,0:0:0:0:
64,192,102036,128,0,103386:0:0:0:0:
320,192,102186,1,2,0:0:0:0:
448,192,102486,1,2,0:0:0:0:
192,192,102786,1,2,0:0:0:0:
320,192,103086,1,2,0:0:0:0:
448,192,103386,1,2,0:0:0:0:
192,192,103686,1,2,0:0:0:0:
320,192,103986,1,2,0:0:0:0:
64,192,104286,128,2,104736:0:0:0:0:
448,192,104586,1,2,0:0:0:0:
320,192,104736,1,0,0:0:0:0:
192,192,104886,1,2,0:0:0:0:
448,192,105036,1,0,0:0:0:0:
64,192,105186,1,2,0:0:0:0:
320,192,105336,1,0,0:0:0:0:
448,192,105486,128,2,105786:0:0:0:0:
192,192,105786,1,2,0:0:0:0:
192,192,105936,1,0,0:0:0:0:
320,192,106086,128,2,106386:0:0:0:0:
64,192,106386,128,2,106686:0:0:0:0:
448,192,106686,1,2,0:0:0:0:
192,192,106836,128,0,107586:0:0:0:0:
320,192,106986,1,2,0:0:0:0:
64,192,107286,1,2,0:0:0:0:
448,192,107586,1,2,0:0:0:0:
448,192,107811,1,2,0:0:0:0:
448,192,108036,1,2,0:0:0:0:
64,192,108186,128,0,108786:0:0:0:0:
320,192,108786,1,8,0:0:0:0:
192,192,108786,1,4,0:0:0:0:
448,192,109086,128,8,109536:0:0:0:0:
192,192,109386,1,8,0:0:0:0:
64,192,109536,1,0,0:0:0:0:
320,192,109686,1,8,0:0:0:0:
192,192,109836,1,0,0:0:0:0:
64,192,109986,1,8,0:0:0:0:
448,192,110136,1,0,0:0:0:0:
192,192,110286,128,8,110586:0:0:0:0:
320,192,110586,1,8,0:0:0:0:
320,192,110736,1,0,0:0:0:0:
64,192,110886,1,8,0:0:0:0:
448,192,111186,128,8,111486:0:0:0:0:
192,192,111486,1,8,0:0:0:0:
64,192,111636,128,0,112986:0:0:0:0:
320,192,111786,1,8,0:0:0:0:
448,192,112086,1,8,0:0:0:0:
192,192,112386,1,8,0:0:0:0:
448,192,112686,1,8,0:0:0:0:
320,192,112986,1,8,0:0:0:0:
192,192,113286,1,8,0:0:0:0:
448,192,113586,1,8,0:0:0:0:
320,192,113886,128,8,114336:0:0:0:0:
64,192,114186,1,8,0:0:0:0:
192,192,114336,1,0,0:0:0:0:
448,192,114486,1,8,0:0:0:0:
64,192,114636,1,0,0:0:0:0:
320,192,114786,1,8,0:0:0:0:
192,192,114936,1,0,0:0:0:0:
64,192,115086,128,8,115386:0:0:0:0:
320,192,115386,1,8,0:0:0:0:
192,192,115536,1,0,0:0:0:0:
448,192,115686,1,8,0:0:0:0:
320,192,115836,1,0,0:0:0:0:
448,192,115986,1,2,0:0:0:0:
64,192,115986,1,0,0:0:0:0:
192,192,116136,1,0,0:0:0:0:
320,192,116286,1,2,0:0:0:0:
448,192,116286,1,0,0:0:0:0:
64,192,116436,1,0,0:0:0:0:
192,192,116586,1,2,0:0:0:0:
320,192,116586,1,0,0:0:0:0:
448,192,116736,1,0,0:0:0:0:
192,192,116886,1,0,0:0:0:0:
64,192,116886,1,2,0:0:0:0:
320,192,117036,1,0,0:0:0:0:
448,192,117186,1,2,0:0:0:0:
448,192,117486,1,2,0:0:0:0:
448,192,117786,1,2,0:0:0:0:
64,192,118086,1,8,0:0:0:0:
320,192,118086,1,0,0:0:0:0:
192,192,118386,1,2,0:0:0:0:
448,192,118386,1,4,0:0:0:0:
64,192,118686,1,0,0:0:0:0:
64,192,118986,1,0,0:0:0:0:
320,192,119586,1,2,0:0:0:0:
448,192,119586,1,0,0:0:0:0:
192,192,119736,1,2,0:0:0:0:
64,192,119736,1,0,0:0:0:0:
320,192,119886,1,2,0:0:0:0:
448,192,119886,1,0,0:0:0:0:
192,192,120036,1,2,0:0:0:0:
64,192,120036,1,0,0:0:0:0:
320,192,120336,1,2,0:0:0:0:
64,192,120336,1,0,0:0:0:0:
64,192,120786,1,4,0:0:0:0:
448,192,120786,1,2,0:0:0:0:
