osu file format v14

[General]
AudioFilename: audio.mp3
AudioLeadIn: 0
PreviewTime: 19911
Countdown: 0
SampleSet: Soft
StackLeniency: 0.7
Mode: 3
LetterboxInBreaks: 0
SpecialStyle: 0
WidescreenStoryboard: 0

[Editor]
DistanceSpacing: 0.8
BeatDivisor: 4
GridSize: 8
TimelineZoom: 1.6

[Metadata]
Title:Stronghold
TitleUnicode:Stronghold
Artist:Lite Show Magic
ArtistUnicode:Lite Show Magic
Creator:Verniy_Chan
Version:EXHAUST
Source:
Tags:t+pazolite C-Show Tomoyuki Hamada Akira Michi Raise Blaze in Fiction Movement on the FLOOR Adinata28 Ichigaki
BeatmapID:985014
BeatmapSetID:459853

[Difficulty]
HPDrainRate:8
CircleSize:4
OverallDifficulty:8
ApproachRate:5
SliderMultiplier:1.4
SliderTickRate:1

[Events]
//Background and Video events
0,0,"BG.jpg",0,0
//Break Periods
//Storyboard Layer 0 (Background)
//Storyboard Layer 1 (Fail)
//Storyboard Layer 2 (Pass)
//Storyboard Layer 3 (Foreground)
//Storyboard Sound Samples

[TimingPoints]
786,300,4,2,1,50,1,0
22386,-100,4,2,1,50,0,1
40386,-100,4,2,1,50,0,0
79986,-100,4,2,1,50,0,1
99186,-100,4,2,1,50,0,0

[HitObjects]
64,192,786,5,4,0:0:0:0:
448,192,786,1,0,0:0:0:0:
320,192,786,1,2,0:0:0:0:
192,192,1236,1,0,0:0:0:0:
448,192,1386,1,0,0:0:0:0:
320,192,1461,1,0,0:0:0:0:
64,192,1536,1,0,0:0:0:0:
192,192,1686,1,0,0:0:0:0:
320,192,1836,1,0,0:0:0:0:
64,192,1986,1,0,0:0:0:0:
448,192,2136,1,0,0:0:0:0:
192,192,2286,1,0,0:0:0:0:
320,192,2436,1,0,0:0:0:0:
64,192,2586,128,0,2886:0:0:0:0:
192,192,2886,1,0,0:0:0:0:
448,192,3186,1,4,0:0:0:0:
320,192,3186,1,0,0:0:0:0:
64,192,3186,1,2,0:0:0:0:
192,192,3636,1,0,0:0:0:0:
64,192,3786,1,0,0:0:0:0:
320,192,3861,1,0,0:0:0:0:
192,192,3936,1,0,0:0:0:0:
448,192,4086,1,0,0:0:0:0:
192,192,4236,1,0,0:0:0:0:
320,192,4386,1,0,0:0:0:0:
64,192,4536,1,0,0:0:0:0:
448,192,4686,1,0,0:0:0:0:
192,192,4761,1,0,0:0:0:0:
320,192,4836,1,0,0:0:0:0:
192,192,4986,1,0,0:0:0:0:
448,192,5061,1,0,0:0:0:0:
64,192,5136,128,0,5361:0:0:0:0:
320,192,5361,1,0,0:0:0:0:
448,192,5586,1,4,0:0:0:0:
192,192,5586,1,0,0:0:0:0:
64,192,5586,1,2,0:0:0:0:
448,192,6036,1,0,0:0:0:0:
192,192,6186,1,0,0:0:0:0:
320,192,6261,1,0,0:0:0:0:
64,192,6336,1,0,0:0:0:0:
320,192,6486,1,0,0:0:0:0:
448,192,6636,1,0,0:0:0:0:
192,192,6786,1,0,0:0:0:0:
320,192,6936,1,0,0:0:0:0:
64,192,7086,1,0,0:0:0:0:
448,192,7236,1,0,0:0:0:0:
192,192,7386,128,0,7686:0:0:0:0:
320,192,7686,1,0,0:0:0:0:
320,192,7836,1,0,0:0:0:0:
64,192,7986,1,2,0:0:0:0:
448,192,7986,1,4,0:0:0:0:
192,192,7986,1,0,0:0:0:0:
320,192,8436,1,0,0:0:0:0:
448,192,8586,1,0,0:0:0:0:
192,192,8661,1,0,0:0:0:0:
64,192,8736,1,0,0:0:0:0:
320,192,8886,1,0,0:0:0:0:
448,192,9036,1,0,0:0:0:0:
192,192,9186,1,0,0:0:0:0:
320,192,9336,1,0,0:0:0:0:
64,192,9486,1,0,0:0:0:0:
448,192,9561,1,0,0:0:0:0:
192,192,9636,1,0,0:0:0:0:
320,192,9786,1,0,0:0:0:0:
448,192,9861,1,0,0:0:0:0:
192,192,9936,128,0,10386:0:0:0:0:
64,192,10386,1,2,0:0:0:0:
448,192,10386,1,4,0:0:0:0:
320,192,10386,1,0,0:0:0:0:
192,192,10536,1,0,0:0:0:0:
320,192,10686,1,0,0:0:0:0:
192,192,10836,1,0,0:0:0:0:
64,192,10836,1,0,0:0:0:0:
448,192,10911,1,0,0:0:0:0:
320,192,10986,1,0,0:0:0:0:
192,192,11061,1,0,0:0:0:0:
64,192,11136,1,0,0:0:0:0:
448,192,11136,1,0,0:0:0:0:
320,192,11286,1,0,0:0:0:0:
64,192,11436,1,0,0:0:0:0:
192,192,11436,1,0,0:0:0:0:
448,192,11586,1,0,0:0:0:0:
192,192,11736,1,0,0:0:0:0:
320,192,11736,1,0,0:0:0:0:
64,192,11886,1,0,0:0:0:0:
320,192,12036,1,0,0:0:0:0:
448,192,12036,1,0,0:0:0:0:
192,192,12186,1,0,0:0:0:0:
64,192,12186,1,0,0:0:0:0:
448,192,12336,128,0,12486:0:0:0:0:
192,192,12486,128,0,12636:0:0:0:0:
320,192,12636,128,0,12786:0:0:0:0:
448,192,12786,1,4,0:0:0:0:
192,192,12786,1,2,0:0:0:0:
64,192,12786,128,0,12936:0:0:0:0:
320,192,12936,1,0,0:0:0:0:
192,192,13086,1,0,0:0:0:0:
320,192,13236,1,0,0:0:0:0:
448,192,13236,1,0,0:0:0:0:
64,192,13311,1,0,0:0:0:0:
192,192,13386,1,0,0:0:0:0:
320,192,13461,1,0,0:0:0:0:
64,192,13536,1,0,0:0:0:0:
448,192,13536,1,0,0:0:0:0:
192,192,13686,1,0,0:0:0:0:
320,192,13836,1,0,0:0:0:0:
448,192,13836,1,0,0:0:0:0:
64,192,13986,1,0,0:0:0:0:
192,192,14136,1,0,0:0:0:0:
320,192,14136,1,0,0:0:0:0:
448,192,14286,1,0,0:0:0:0:
64,192,14436,1,0,0:0:0:0:
192,192,14436,1,0,0:0:0:0:
320,192,14586,1,0,0:0:0:0:
192,192,14661,1,0,0:0:0:0:
320,192,14736,1,0,0:0:0:0:
448,192,14736,1,0,0:0:0:0:
64,192,14886,1,0,0:0:0:0:
192,192,14886,1,0,0:0:0:0:
320,192,15036,1,0,0:0:0:0:
448,192,15186,1,0,0:0:0:0:
64,192,15186,1,2,0:0:0:0:
192,192,15186,1,4,0:0:0:0:
320,192,15336,1,0,0:0:0:0:
192,192,15486,1,0,0:0:0:0:
64,192,15636,1,0,0:0:0:0:
320,192,15636,1,0,0:0:0:0:
192,192,15711,1,0,0:0:0:0:
448,192,15786,1,0,0:0:0:0:
320,192,15861,1,0,0:0:0:0:
192,192,15936,1,0,0:0:0:0:
448,192,15936,1,0,0:0:0:0:
64,192,16086,1,0,0:0:0:0:
320,192,16236,1,0,0:0:0:0:
448,192,16236,1,0,0:0:0:0:
64,192,16386,1,0,0:0:0:0:
192,192,16386,1,2,0:0:0:0:
448,192,16386,1,4,0:0:0:0:
320,192,16536,1,0,0:0:0:0:
64,192,16536,1,0,0:0:0:0:
192,192,16686,1,0,0:0:0:0:
64,192,16836,1,0,0:0:0:0:
320,192,16836,1,0,0:0:0:0:
192,192,16911,1,0,0:0:0:0:
448,192,16986,1,0,0:0:0:0:
320,192,17061,1,0,0:0:0:0:
192,192,17136,1,0,0:0:0:0:
64,192,17136,128,0,17286:0:0:0:0:
320,192,17286,128,0,17436:0:0:0:0:
448,192,17286,1,0,0:0:0:0:
192,192,17436,128,0,17586:0:0:0:0:
64,192,17586,1,2,0:0:0:0:
320,192,17586,1,4,0:0:0:0:
448,192,17586,128,0,17736:0:0:0:0:
64,192,17736,1,0,0:0:0:0:
192,192,17736,1,0,0:0:0:0:
320,192,17886,1,0,0:0:0:0:
192,192,18036,1,0,0:0:0:0:
64,192,18036,1,0,0:0:0:0:
320,192,18111,1,0,0:0:0:0:
448,192,18186,1,4,0:0:0:0:
64,192,18186,1,2,0:0:0:0:
448,192,18336,1,0,0:0:0:0:
192,192,18336,1,0,0:0:0:0:
320,192,18486,1,0,0:0:0:0:
64,192,18486,1,0,0:0:0:0:
64,192,18636,1,0,0:0:0:0:
192,192,18636,1,0,0:0:0:0:
448,192,18786,1,0,0:0:0:0:
320,192,18786,1,0,0:0:0:0:
64,192,18861,1,0,0:0:0:0:
320,192,18936,1,0,0:0:0:0:
192,192,19011,1,0,0:0:0:0:
448,192,19086,1,0,0:0:0:0:
64,192,19086,1,0,0:0:0:0:
320,192,19161,1,0,0:0:0:0:
192,192,19236,1,0,0:0:0:0:
448,192,19311,1,0,0:0:0:0:
320,192,19386,1,0,0:0:0:0:
64,192,19386,1,0,0:0:0:0:
192,192,19461,1,0,0:0:0:0:
448,192,19536,1,0,0:0:0:0:
320,192,19536,1,0,0:0:0:0:
64,192,19611,1,0,0:0:0:0:
192,192,19611,1,0,0:0:0:0:
320,192,19686,1,0,0:0:0:0:
448,192,19686,1,0,0:0:0:0:
64,192,19761,1,0,0:0:0:0:
192,192,19761,1,0,0:0:0:0:
320,192,19836,1,0,0:0:0:0:
448,192,19836,1,0,0:0:0:0:
64,192,19986,1,2,0:0:0:0:
448,192,19986,1,4,0:0:0:0:
192,192,19986,1,0,0:0:0:0:
320,192,20286,1,0,0:0:0:0:
320,192,20586,1,0,0:0:0:0:
192,192,21036,1,0,0:0:0:0:
320,192,21111,1,0,0:0:0:0:
448,192,21186,1,2,0:0:0:0:
64,192,21186,1,0,0:0:0:0:
192,192,21261,1,2,0:0:0:0:
320,192,21336,1,2,0:0:0:0:
448,192,21336,1,0,0:0:0:0:
64,192,21411,1,2,0:0:0:0:
192,192,21486,1,2,0:0:0:0:
320,192,21486,1,0,0:0:0:0:
448,192,21561,1,2,0:0:0:0:
64,192,21636,1,2,0:0:0:0:
192,192,21636,1,0,0:0:0:0:
320,192,21936,1,2,0:0:0:0:
64,192,21936,1,0,0:0:0:0:
64,192,22386,1,2,0:0:0:0:
448,192,22386,1,4,0:0:0:0:
192,192,22386,1,0,0:0:0:0:
320,192,22461,1,0,0:0:0:0:
192,192,22536,1,0,0:0:0:0:
320,192,22611,1,0,0:0:0:0:
448,192,22686,1,2,0:0:0:0:
64,192,22686,1,0,0:0:0:0:
192,192,22836,1,0,0:0:0:0:
320,192,22911,1,0,0:0:0:0:
192,192,22986,1,0,0:0:0:0:
64,192,22986,1,2,0:0:0:0:
448,192,23061,1,0,0:0:0:0:
320,192,23136,1,0,0:0:0:0:
192,192,23211,1,0,0:0:0:0:
320,192,23286,1,2,0:0:0:0:
448,192,23286,1,0,0:0:0:0:
64,192,23436,1,0,0:0:0:0:
448,192,23586,1,0,0:0:0:0:
192,192,23586,1,2,0:0:0:0:
320,192,23661,1,0,0:0:0:0:
192,192,23736,1,0,0:0:0:0:
64,192,23811,1,0,0:0:0:0:
320,192,23886,1,0,0:0:0:0:
448,192,23886,1,2,0:0:0:0:
192,192,24036,1,0,0:0:0:0:
320,192,24111,1,0,0:0:0:0:
64,192,24186,1,2,0:0:0:0:
448,192,24186,1,0,0:0:0:0:
192,192,24261,1,0,0:0:0:0:
320,192,24336,1,0,0:0:0:0:
192,192,24411,1,0,0:0:0:0:
64,192,24486,1,2,0:0:0:0:
448,192,24486,128,0,24786:0:0:0:0:
192,192,24786,1,0,0:0:0:0:
320,192,24786,1,2,0:0:0:0:
64,192,24861,1,0,0:0:0:0:
192,192,24936,1,0,0:0:0:0:
320,192,25011,1,0,0:0:0:0:
448,192,25086,1,0,0:0:0:0:
64,192,25086,1,2,0:0:0:0:
320,192,25236,1,0,0:0:0:0:
192,192,25311,1,0,0:0:0:0:
320,192,25386,1,2,0:0:0:0:
64,192,25386,1,0,0:0:0:0:
448,192,25461,1,0,0:0:0:0:
192,192,25536,1,0,0:0:0:0:
320,192,25611,1,0,0:0:0:0:
64,192,25686,1,0,0:0:0:0:
192,192,25686,1,2,0:0:0:0:
448,192,25836,1,0,0:0:0:0:
64,192,25986,1,0,0:0:0:0:
320,192,25986,1,2,0:0:0:0:
192,192,26061,1,0,0:0:0:0:
448,192,26136,1,0,0:0:0:0:
320,192,26211,1,0,0:0:0:0:
64,192,26286,1,2,0:0:0:0:
192,192,26286,1,0,0:0:0:0:
320,192,26436,1,0,0:0:0:0:
192,192,26511,1,0,0:0:0:0:
320,192,26586,1,2,0:0:0:0:
448,192,26586,128,0,26661:0:0:0:0:
64,192,26661,1,0,0:0:0:0:
192,192,26736,128,0,26811:0:0:0:0:
320,192,26811,128,0,26886:0:0:0:0:
448,192,26886,1,2,0:0:0:0:
64,192,26886,128,0,26961:0:0:0:0:
192,192,27036,128,0,27111:0:0:0:0:
448,192,27186,1,0,0:0:0:0:
64,192,27186,1,2,0:0:0:0:
192,192,27261,1,0,0:0:0:0:
320,192,27336,1,0,0:0:0:0:
192,192,27411,1,0,0:0:0:0:
64,192,27486,1,0,0:0:0:0:
448,192,27486,1,2,0:0:0:0:
320,192,27636,1,0,0:0:0:0:
192,192,27711,1,0,0:0:0:0:
320,192,27786,1,2,0:0:0:0:
448,192,27786,1,0,0:0:0:0:
64,192,27861,1,0,0:0:0:0:
192,192,27936,1,0,0:0:0:0:
320,192,28011,1,0,0:0:0:0:
192,192,28086,1,2,0:0:0:0:
64,192,28086,1,0,0:0:0:0:
448,192,28236,1,0,0:0:0:0:
64,192,28386,1,2,0:0:0:0:
320,192,28386,1,0,0:0:0:0:
192,192,28461,1,0,0:0:0:0:
320,192,28536,1,0,0:0:0:0:
448,192,28611,1,0,0:0:0:0:
192,192,28686,1,2,0:0:0:0:
64,192,28686,1,0,0:0:0:0:
320,192,28836,1,0,0:0:0:0:
192,192,28911,1,0,0:0:0:0:
448,192,28986,1,2,0:0:0:0:
64,192,28986,1,0,0:0:0:0:
320,192,29061,1,0,0:0:0:0:
192,192,29136,1,0,0:0:0:0:
320,192,29211,1,0,0:0:0:0:
448,192,29286,1,2,0:0:0:0:
64,192,29286,128,0,29586:0:0:0:0:
320,192,29586,1,0,0:0:0:0:
192,192,29586,1,2,0:0:0:0:
448,192,29661,1,0,0:0:0:0:
320,192,29736,1,0,0:0:0:0:
192,192,29811,1,0,0:0:0:0:
64,192,29886,1,0,0:0:0:0:
448,192,29886,1,2,0:0:0:0:
192,192,30036,1,0,0:0:0:0:
320,192,30111,1,0,0:0:0:0:
192,192,30186,1,2,0:0:0:0:
448,192,30186,1,0,0:0:0:0:
64,192,30261,1,0,0:0:0:0:
320,192,30336,1,0,0:0:0:0:
192,192,30411,1,0,0:0:0:0:
448,192,30486,1,2,0:0:0:0:
64,192,30486,1,0,0:0:0:0:
320,192,30636,1,0,0:0:0:0:
192,192,30786,1,2,0:0:0:0:
64,192,30786,1,0,0:0:0:0:
448,192,30861,1,0,0:0:0:0:
320,192,30936,1,0,0:0:0:0:
192,192,31011,1,0,0:0:0:0:
448,192,31086,1,0,0:0:0:0:
64,192,31086,1,8,0:0:0:0:
320,192,31236,1,0,0:0:0:0:
192,192,31311,1,0,0:0:0:0:
448,192,31386,1,2,0:0:0:0:
64,192,31386,128,0,31461:0:0:0:0:
192,192,31461,128,0,31536:0:0:0:0:
320,192,31536,128,0,31611:0:0:0:0:
448,192,31611,128,0,31686:0:0:0:0:
64,192,31686,128,0,31761:0:0:0:0:
64,192,31836,128,0,31911:0:0:0:0:
448,192,31986,1,4,0:0:0:0:
192,192,31986,1,0,0:0:0:0:
320,192,31986,1,2,0:0:0:0:
64,192,32061,1,0,0:0:0:0:
192,192,32136,1,0,0:0:0:0:
320,192,32211,1,0,0:0:0:0:
448,192,32286,1,0,0:0:0:0:
64,192,32286,1,2,0:0:0:0:
192,192,32436,1,0,0:0:0:0:
320,192,32511,1,0,0:0:0:0:
448,192,32586,1,2,0:0:0:0:
64,192,32586,1,0,0:0:0:0:
192,192,32661,1,0,0:0:0:0:
320,192,32736,1,0,0:0:0:0:
192,192,32811,1,0,0:0:0:0:
64,192,32886,1,2,0:0:0:0:
448,192,32886,1,0,0:0:0:0:
320,192,33036,1,0,0:0:0:0:
64,192,33186,1,0,0:0:0:0:
192,192,33186,1,2,0:0:0:0:
448,192,33261,1,0,0:0:0:0:
320,192,33336,1,0,0:0:0:0:
192,192,33411,1,0,0:0:0:0:
320,192,33486,1,2,0:0:0:0:
448,192,33486,1,0,0:0:0:0:
64,192,33636,1,0,0:0:0:0:
192,192,33711,1,0,0:0:0:0:
320,192,33786,1,0,0:0:0:0:
448,192,33786,1,2,0:0:0:0:
64,192,33861,1,0,0:0:0:0:
192,192,33936,1,0,0:0:0:0:
320,192,34011,1,0,0:0:0:0:
448,192,34086,1,2,0:0:0:0:
64,192,34086,128,0,34386:0:0:0:0:
320,192,34386,1,0,0:0:0:0:
192,192,34386,1,2,0:0:0:0:
448,192,34461,1,0,0:0:0:0:
320,192,34536,1,0,0:0:0:0:
64,192,34611,1,0,0:0:0:0:
192,192,34686,1,0,0:0:0:0:
448,192,34686,1,2,0:0:0:0:
320,192,34836,1,0,0:0:0:0:
192,192,34911,1,0,0:0:0:0:
448,192,34986,1,0,0:0:0:0:
64,192,34986,1,2,0:0:0:0:
320,192,35061,1,0,0:0:0:0:
192,192,35136,1,0,0:0:0:0:
320,192,35211,1,0,0:0:0:0:
64,192,35286,1,0,0:0:0:0:
192,192,35286,1,2,0:0:0:0:
448,192,35436,1,0,0:0:0:0:
192,192,35586,1,0,0:0:0:0:
320,192,35586,1,2,0:0:0:0:
64,192,35661,1,0,0:0:0:0:
448,192,35736,1,0,0:0:0:0:
320,192,35736,1,0,0:0:0:0:
192,192,35811,1,0,0:0:0:0:
64,192,35886,1,0,0:0:0:0:
448,192,35886,1,2,0:0:0:0:
320,192,35961,1,0,0:0:0:0:
192,192,36036,1,0,0:0:0:0:
64,192,36036,1,0,0:0:0:0:
448,192,36111,1,0,0:0:0:0:
320,192,36186,1,0,0:0:0:0:
192,192,36186,1,2,0:0:0:0:
64,192,36261,1,0,0:0:0:0:
192,192,36336,1,0,0:0:0:0:
320,192,36411,1,0,0:0:0:0:
64,192,36486,1,0,0:0:0:0:
448,192,36486,1,2,0:0:0:0:
192,192,36636,1,0,0:0:0:0:
320,192,36786,1,0,0:0:0:0:
64,192,36786,1,2,0:0:0:0:
448,192,36861,1,0,0:0:0:0:
320,192,36936,1,0,0:0:0:0:
192,192,37011,1,0,0:0:0:0:
448,192,37086,1,2,0:0:0:0:
64,192,37086,1,0,0:0:0:0:
320,192,37236,1,0,0:0:0:0:
192,192,37311,1,0,0:0:0:0:
448,192,37386,1,0,0:0:0:0:
64,192,37386,1,2,0:0:0:0:
320,192,37461,1,0,0:0:0:0:
192,192,37536,1,0,0:0:0:0:
320,192,37611,1,0,0:0:0:0:
64,192,37686,1,0,0:0:0:0:
448,192,37686,1,2,0:0:0:0:
192,192,37836,1,0,0:0:0:0:
320,192,37986,1,2,0:0:0:0:
448,192,37986,1,0,0:0:0:0:
64,192,38061,1,0,0:0:0:0:
192,192,38136,1,0,0:0:0:0:
320,192,38211,1,0,0:0:0:0:
64,192,38286,1,0,0:0:0:0:
192,192,38286,1,2,0:0:0:0:
448,192,38436,1,0,0:0:0:0:
320,192,38511,1,0,0:0:0:0:
64,192,38586,1,2,0:0:0:0:
192,192,38586,1,0,0:0:0:0:
448,192,38661,1,0,0:0:0:0:
320,192,38736,1,0,0:0:0:0:
192,192,38811,1,0,0:0:0:0:
448,192,38886,128,0,39186:0:0:0:0:
64,192,38886,1,2,0:0:0:0:
320,192,39186,1,0,0:0:0:0:
192,192,39186,1,2,0:0:0:0:
64,192,39261,1,0,0:0:0:0:
192,192,39336,1,0,0:0:0:0:
448,192,39411,1,0,0:0:0:0:
64,192,39486,1,0,0:0:0:0:
320,192,39486,1,2,0:0:0:0:
192,192,39636,1,0,0:0:0:0:
320,192,39711,1,0,0:0:0:0:
448,192,39786,1,0,0:0:0:0:
64,192,39786,1,2,0:0:0:0:
192,192,39861,1,0,0:0:0:0:
320,192,39936,1,0,0:0:0:0:
192,192,40011,1,0,0:0:0:0:
320,192,40086,1,0,0:0:0:0:
448,192,40086,1,2,0:0:0:0:
64,192,40236,1,0,0:0:0:0:
192,192,40386,1,2,0:0:0:0:
448,192,40386,1,0,0:0:0:0:
320,192,40536,1,0,0:0:0:0:
448,192,40686,1,2,0:0:0:0:
64,192,40686,1,0,0:0:0:0:
192,192,40836,1,0,0:0:0:0:
64,192,40986,1,0,0:0:0:0:
320,192,40986,1,2,0:0:0:0:
192,192,41136,1,0,0:0:0:0:
64,192,41586,1,2,0:0:0:0:
448,192,41586,1,0,0:0:0:0:
320,192,41661,1,0,0:0:0:0:
192,192,41736,1,0,0:0:0:0:
64,192,41811,1,0,0:0:0:0:
320,192,41886,1,0,0:0:0:0:
448,192,41886,1,2,0:0:0:0:
192,192,42036,1,0,0:0:0:0:
320,192,42111,1,0,0:0:0:0:
64,192,42186,1,2,0:0:0:0:
448,192,42186,1,0,0:0:0:0:
192,192,42261,1,0,0:0:0:0:
320,192,42336,1,0,0:0:0:0:
448,192,42411,1,0,0:0:0:0:
64,192,42486,1,0,0:0:0:0:
192,192,42486,1,2,0:0:0:0:
320,192,42636,1,0,0:0:0:0:
64,192,42786,1,2,0:0:0:0:
192,192,42786,1,0,0:0:0:0:
448,192,42936,1,0,0:0:0:0:
320,192,42936,1,2,0:0:0:0:
64,192,43011,1,0,0:0:0:0:
192,192,43011,1,2,0:0:0:0:
448,192,43086,1,0,0:0:0:0:
320,192,43086,1,2,0:0:0:0:
320,192,43236,1,0,0:0:0:0:
192,192,43236,1,2,0:0:0:0:
64,192,43386,1,2,0:0:0:0:
192,192,43386,1,0,0:0:0:0:
448,192,43536,1,0,0:0:0:0:
192,192,43611,1,0,0:0:0:0:
320,192,43686,1,0,0:0:0:0:
192,192,43761,1,0,0:0:0:0:
320,192,43836,1,0,0:0:0:0:
192,192,43911,1,0,0:0:0:0:
320,192,43986,1,2,0:0:0:0:
448,192,43986,1,0,0:0:0:0:
64,192,44061,1,0,0:0:0:0:
192,192,44136,1,0,0:0:0:0:
320,192,44211,1,0,0:0:0:0:
64,192,44286,1,2,0:0:0:0:
448,192,44286,1,0,0:0:0:0:
320,192,44436,1,0,0:0:0:0:
192,192,44511,1,0,0:0:0:0:
64,192,44586,1,0,0:0:0:0:
320,192,44586,1,2,0:0:0:0:
448,192,44661,1,0,0:0:0:0:
192,192,44736,1,0,0:0:0:0:
320,192,44811,1,0,0:0:0:0:
192,192,44886,1,2,0:0:0:0:
64,192,44886,1,0,0:0:0:0:
448,192,45036,1,0,0:0:0:0:
320,192,45186,1,2,0:0:0:0:
64,192,45186,1,0,0:0:0:0:
192,192,45261,1,0,0:0:0:0:
448,192,45336,1,0,0:0:0:0:
320,192,45411,1,0,0:0:0:0:
448,192,45486,1,0,0:0:0:0:
64,192,45486,1,2,0:0:0:0:
192,192,45636,1,0,0:0:0:0:
320,192,45711,1,0,0:0:0:0:
64,192,45786,128,0,45861:0:0:0:0:
192,192,45786,1,2,0:0:0:0:
448,192,45861,1,0,0:0:0:0:
320,192,45936,128,0,46011:0:0:0:0:
192,192,46011,128,0,46086:0:0:0:0:
448,192,46086,128,0,46161:0:0:0:0:
64,192,46086,1,2,0:0:0:0:
320,192,46236,128,0,46311:0:0:0:0:
64,192,46386,1,0,0:0:0:0:
448,192,46386,1,2,0:0:0:0:
192,192,46461,1,0,0:0:0:0:
320,192,46536,1,0,0:0:0:0:
192,192,46611,1,0,0:0:0:0:
64,192,46686,1,2,0:0:0:0:
448,192,46686,1,0,0:0:0:0:
320,192,46836,1,0,0:0:0:0:
192,192,46911,1,0,0:0:0:0:
320,192,46986,1,2,0:0:0:0:
448,192,46986,1,0,0:0:0:0:
64,192,47061,1,0,0:0:0:0:
192,192,47136,1,0,0:0:0:0:
320,192,47211,1,0,0:0:0:0:
192,192,47286,1,2,0:0:0:0:
64,192,47286,1,0,0:0:0:0:
448,192,47436,1,0,0:0:0:0:
320,192,47586,1,2,0:0:0:0:
64,192,47586,1,0,0:0:0:0:
192,192,47736,1,2,0:0:0:0:
320,192,47811,1,2,0:0:0:0:
64,192,47886,1,0,0:0:0:0:
192,192,47886,1,2,0:0:0:0:
448,192,48036,1,0,0:0:0:0:
320,192,48073,1,0,0:0:0:0:
192,192,48111,1,0,0:0:0:0:
64,192,48148,1,0,0:0:0:0:
448,192,48186,1,0,0:0:0:0:
320,192,48186,1,2,0:0:0:0:
192,192,48261,1,2,0:0:0:0:
64,192,48261,1,0,0:0:0:0:
320,192,48336,1,2,0:0:0:0:
448,192,48336,1,0,0:0:0:0:
192,192,48411,1,0,0:0:0:0:
64,192,48411,1,2,0:0:0:0:
320,192,48486,1,2,0:0:0:0:
448,192,48486,1,0,0:0:0:0:
192,192,48636,1,0,0:0:0:0:
64,192,48786,1,2,0:0:0:0:
448,192,48786,1,0,0:0:0:0:
320,192,48861,1,0,0:0:0:0:
192,192,48936,1,0,0:0:0:0:
320,192,49011,1,0,0:0:0:0:
192,192,49086,1,2,0:0:0:0:
64,192,49086,1,0,0:0:0:0:
448,192,49236,1,0,0:0:0:0:
192,192,49311,1,0,0:0:0:0:
64,192,49386,1,0,0:0:0:0:
320,192,49386,1,2,0:0:0:0:
448,192,49461,1,0,0:0:0:0:
192,192,49536,1,0,0:0:0:0:
64,192,49611,1,0,0:0:0:0:
448,192,49686,1,2,0:0:0:0:
320,192,49686,1,0,0:0:0:0:
192,192,49836,1,0,0:0:0:0:
64,192,49986,1,2,0:0:0:0:
320,192,49986,128,0,50136:0:0:0:0:
192,192,50136,1,0,0:0:0:0:
448,192,50286,1,2,0:0:0:0:
320,192,50286,128,0,50436:0:0:0:0:
64,192,50436,1,0,0:0:0:0:
192,192,50586,1,2,0:0:0:0:
448,192,50586,128,0,50736:0:0:0:0:
320,192,50736,128,0,50886:0:0:0:0:
192,192,50886,128,0,51036:0:0:0:0:
64,192,51036,128,0,51186:0:0:0:0:
448,192,51186,1,4,0:0:0:0:
320,192,51186,1,0,0:0:0:0:
192,192,51186,1,8,0:0:0:0:
64,192,51261,1,0,0:0:0:0:
192,192,51336,1,0,0:0:0:0:
320,192,51411,1,0,0:0:0:0:
448,192,51486,1,0,0:0:0:0:
64,192,51486,1,8,0:0:0:0:
192,192,51636,1,0,0:0:0:0:
320,192,51711,1,0,0:0:0:0:
192,192,51786,1,8,0:0:0:0:
64,192,51786,1,0,0:0:0:0:
448,192,51861,1,0,0:0:0:0:
320,192,51936,1,0,0:0:0:0:
192,192,52011,1,0,0:0:0:0:
320,192,52086,1,0,0:0:0:0:
448,192,52086,1,8,0:0:0:0:
64,192,52236,1,0,0:0:0:0:
192,192,52386,1,8,0:0:0:0:
448,192,52386,1,0,0:0:0:0:
320,192,52461,1,0,0:0:0:0:
64,192,52536,1,0,0:0:0:0:
192,192,52611,1,0,0:0:0:0:
64,192,52686,1,0,0:0:0:0:
448,192,52686,1,8,0:0:0:0:
320,192,52836,1,0,0:0:0:0:
192,192,52911,1,0,0:0:0:0:
64,192,52986,1,8,0:0:0:0:
448,192,52986,1,0,0:0:0:0:
192,192,53061,1,0,0:0:0:0:
320,192,53136,1,0,0:0:0:0:
192,192,53211,1,0,0:0:0:0:
64,192,53286,1,8,0:0:0:0:
448,192,53286,128,0,53586:0:0:0:0:
192,192,53436,1,0,0:0:0:0:
64,192,53586,1,8,0:0:0:0:
320,192,53661,1,0,0:0:0:0:
192,192,53736,1,0,0:0:0:0:
448,192,53811,1,0,0:0:0:0:
64,192,53886,1,0,0:0:0:0:
320,192,53886,1,8,0:0:0:0:
192,192,54036,1,0,0:0:0:0:
320,192,54111,1,0,0:0:0:0:
448,192,54186,1,8,0:0:0:0:
64,192,54186,1,0,0:0:0:0:
192,192,54261,1,0,0:0:0:0:
448,192,54336,1,0,0:0:0:0:
320,192,54411,1,0,0:0:0:0:
64,192,54486,1,0,0:0:0:0:
192,192,54486,1,8,0:0:0:0:
448,192,54636,1,0,0:0:0:0:
64,192,54786,1,0,0:0:0:0:
320,192,54786,1,8,0:0:0:0:
192,192,54861,1,0,0:0:0:0:
64,192,54936,1,0,0:0:0:0:
320,192,55011,1,0,0:0:0:0:
448,192,55086,1,0,0:0:0:0:
192,192,55086,1,8,0:0:0:0:
64,192,55236,1,0,0:0:0:0:
192,192,55311,1,0,0:0:0:0:
320,192,55386,1,8,0:0:0:0:
448,192,55386,128,0,55461:0:0:0:0:
64,192,55461,1,0,0:0:0:0:
192,192,55536,128,0,55611:0:0:0:0:
320,192,55611,128,0,55686:0:0:0:0:
448,192,55686,1,8,0:0:0:0:
64,192,55686,128,0,55761:0:0:0:0:
192,192,55836,128,0,55911:0:0:0:0:
448,192,55986,1,0,0:0:0:0:
320,192,55986,1,8,0:0:0:0:
64,192,56061,1,0,0:0:0:0:
192,192,56136,1,0,0:0:0:0:
320,192,56211,1,0,0:0:0:0:
448,192,56286,1,0,0:0:0:0:
64,192,56286,1,8,0:0:0:0:
320,192,56436,1,0,0:0:0:0:
192,192,56511,1,0,0:0:0:0:
448,192,56586,1,0,0:0:0:0:
320,192,56586,1,8,0:0:0:0:
64,192,56661,1,0,0:0:0:0:
192,192,56736,1,0,0:0:0:0:
320,192,56811,1,0,0:0:0:0:
64,192,56886,1,8,0:0:0:0:
448,192,56886,1,0,0:0:0:0:
320,192,57036,1,0,0:0:0:0:
64,192,57186,1,0,0:0:0:0:
448,192,57186,1,8,0:0:0:0:
192,192,57261,1,0,0:0:0:0:
320,192,57336,1,0,0:0:0:0:
448,192,57411,1,0,0:0:0:0:
64,192,57486,1,0,0:0:0:0:
192,192,57486,1,8,0:0:0:0:
320,192,57561,1,0,0:0:0:0:
192,192,57636,1,0,0:0:0:0:
64,192,57711,1,0,0:0:0:0:
448,192,57786,1,0,0:0:0:0:
320,192,57786,1,8,0:0:0:0:
192,192,57861,1,0,0:0:0:0:
320,192,57936,1,0,0:0:0:0:
192,192,58011,1,0,0:0:0:0:
448,192,58086,1,8,0:0:0:0:
64,192,58086,1,0,0:0:0:0:
320,192,58161,1,0,0:0:0:0:
192,192,58236,1,0,0:0:0:0:
448,192,58386,1,2,0:0:0:0:
64,192,58386,128,0,59586:0:0:0:0:
320,192,58461,1,0,0:0:0:0:
192,192,58536,1,0,0:0:0:0:
448,192,58611,1,0,0:0:0:0:
320,192,58686,1,2,0:0:0:0:
192,192,58761,1,0,0:0:0:0:
320,192,58836,1,0,0:0:0:0:
448,192,58911,1,0,0:0:0:0:
192,192,58986,1,2,0:0:0:0:
320,192,59061,1,0,0:0:0:0:
448,192,59136,1,0,0:0:0:0:
320,192,59211,1,0,0:0:0:0:
192,192,59286,1,2,0:0:0:0:
448,192,59361,1,0,0:0:0:0:
320,192,59436,1,0,0:0:0:0:
192,192,59511,1,0,0:0:0:0:
320,192,59586,1,0,0:0:0:0:
448,192,59586,1,2,0:0:0:0:
192,192,59886,1,0,0:0:0:0:
320,192,59886,1,2,0:0:0:0:
192,192,60186,1,2,0:0:0:0:
64,192,60186,1,0,0:0:0:0:
64,192,60486,1,8,0:0:0:0:
448,192,60486,1,0,0:0:0:0:
320,192,60486,1,0,0:0:0:0:
192,192,60786,1,2,0:0:0:0:
64,192,60786,1,4,0:0:0:0:
448,192,60786,128,0,61986:0:0:0:0:
64,192,61086,128,0,61386:0:0:0:0:
192,192,61236,128,0,61536:0:0:0:0:
320,192,61536,128,0,61686:0:0:0:0:
192,192,61836,128,0,61986:0:0:0:0:
64,192,61986,128,0,63186:0:0:0:0:
192,192,62136,128,0,62286:0:0:0:0:
320,192,62286,128,0,62586:0:0:0:0:
448,192,62586,128,0,62886:0:0:0:0:
192,192,62886,128,0,63036:0:0:0:0:
320,192,63036,128,0,63186:0:0:0:0:
448,192,63186,128,0,63486:0:0:0:0:
192,192,63186,128,0,65586:0:0:0:0:
64,192,63486,128,0,63636:0:0:0:0:
320,192,63636,128,0,64986:0:0:0:0:
64,192,65586,128,0,66786:0:0:0:0:
448,192,65886,128,0,66186:0:0:0:0:
320,192,66036,128,0,66336:0:0:0:0:
192,192,66336,128,0,66486:0:0:0:0:
320,192,66636,128,0,66786:0:0:0:0:
448,192,66786,128,0,67986:0:0:0:0:
320,192,66936,128,0,67086:0:0:0:0:
192,192,67086,128,0,67386:0:0:0:0:
64,192,67386,128,0,67686:0:0:0:0:
320,192,67686,128,0,67986:0:0:0:0:
64,192,67986,128,0,68286:0:0:0:0:
192,192,67986,128,0,69786:0:0:0:0:
448,192,68286,128,0,68436:0:0:0:0:
320,192,68436,128,0,69786:0:0:0:0:
448,192,69786,128,0,70386:0:0:0:0:
64,192,70386,1,8,0:0:0:0:
192,192,70386,1,0,0:0:0:0:
64,192,70686,1,0,0:0:0:0:
192,192,70686,1,8,0:0:0:0:
320,192,70836,1,0,0:0:0:0:
192,192,70986,1,0,0:0:0:0:
448,192,70986,1,8,0:0:0:0:
192,192,71286,1,8,0:0:0:0:
448,192,71286,1,0,0:0:0:0:
320,192,71586,1,0,0:0:0:0:
64,192,71586,1,8,0:0:0:0:
320,192,71886,1,8,0:0:0:0:
64,192,71886,1,0,0:0:0:0:
448,192,72186,1,8,0:0:0:0:
320,192,72186,1,0,0:0:0:0:
448,192,72486,1,0,0:0:0:0:
320,192,72486,1,8,0:0:0:0:
192,192,72636,1,0,0:0:0:0:
64,192,72636,1,8,0:0:0:0:
64,192,72786,1,0,0:0:0:0:
448,192,72786,1,8,0:0:0:0:
64,192,73086,1,8,0:0:0:0:
448,192,73086,1,0,0:0:0:0:
192,192,73386,1,8,0:0:0:0:
320,192,73386,1,0,0:0:0:0:
320,192,73686,1,8,0:0:0:0:
192,192,73686,1,0,0:0:0:0:
320,192,73986,1,0,0:0:0:0:
64,192,73986,1,8,0:0:0:0:
320,192,74286,1,8,0:0:0:0:
64,192,74286,1,0,0:0:0:0:
448,192,74586,1,8,0:0:0:0:
192,192,74586,1,0,0:0:0:0:
448,192,74886,1,0,0:0:0:0:
192,192,74886,1,8,0:0:0:0:
320,192,75036,1,8,0:0:0:0:
64,192,75036,1,0,0:0:0:0:
64,192,75186,1,8,0:0:0:0:
448,192,75186,1,0,0:0:0:0:
192,192,75336,1,0,0:0:0:0:
64,192,75486,1,0,0:0:0:0:
320,192,75486,1,8,0:0:0:0:
448,192,75636,1,0,0:0:0:0:
192,192,75786,1,8,0:0:0:0:
320,192,75786,1,0,0:0:0:0:
448,192,75936,1,0,0:0:0:0:
192,192,76086,1,8,0:0:0:0:
64,192,76086,1,0,0:0:0:0:
320,192,76236,1,0,0:0:0:0:
448,192,76386,1,8,0:0:0:0:
64,192,76386,1,0,0:0:0:0:
192,192,76536,1,0,0:0:0:0:
320,192,76686,1,8,0:0:0:0:
64,192,76686,1,0,0:0:0:0:
448,192,76836,1,0,0:0:0:0:
192,192,76986,1,8,0:0:0:0:
320,192,76986,1,0,0:0:0:0:
64,192,77136,1,0,0:0:0:0:
448,192,77286,1,8,0:0:0:0:
320,192,77286,1,0,0:0:0:0:
192,192,77436,1,0,0:0:0:0:
448,192,77586,1,0,0:0:0:0:
64,192,77586,1,2,0:0:0:0:
320,192,77661,1,0,0:0:0:0:
192,192,77736,1,0,0:0:0:0:
320,192,77811,1,0,0:0:0:0:
448,192,77886,1,2,0:0:0:0:
64,192,77886,1,0,0:0:0:0:
192,192,77961,1,0,0:0:0:0:
320,192,78036,1,0,0:0:0:0:
192,192,78111,1,0,0:0:0:0:
64,192,78186,1,2,0:0:0:0:
448,192,78186,1,0,0:0:0:0:
320,192,78261,1,0,0:0:0:0:
192,192,78336,1,0,0:0:0:0:
320,192,78411,1,0,0:0:0:0:
448,192,78486,1,2,0:0:0:0:
64,192,78486,1,0,0:0:0:0:
192,192,78561,1,0,0:0:0:0:
320,192,78636,1,0,0:0:0:0:
192,192,78711,1,0,0:0:0:0:
448,192,78786,1,0,0:0:0:0:
64,192,78786,1,2,0:0:0:0:
448,192,79086,1,0,0:0:0:0:
192,192,79086,1,2,0:0:0:0:
448,192,79386,1,0,0:0:0:0:
320,192,79386,1,2,0:0:0:0:
64,192,79686,1,8,0:0:0:0:
192,192,79686,1,0,0:0:0:0:
320,192,79686,1,0,0:0:0:0:
64,192,79986,1,0,0:0:0:0:
448,192,79986,1,4,0:0:0:0:
192,192,79986,1,2,0:0:0:0:
448,192,80136,1,0,0:0:0:0:
320,192,80286,1,2,0:0:0:0:
64,192,80286,1,0,0:0:0:0:
64,192,80436,1,0,0:0:0:0:
192,192,80586,1,2,0:0:0:0:
448,192,80586,1,0,0:0:0:0:
320,192,80736,1,0,0:0:0:0:
192,192,80811,1,0,0:0:0:0:
448,192,80886,1,2,0:0:0:0:
64,192,80886,1,0,0:0:0:0:
320,192,81036,1,0,0:0:0:0:
192,192,81186,1,2,0:0:0:0:
64,192,81186,1,0,0:0:0:0:
192,192,81336,1,0,0:0:0:0:
448,192,81486,1,2,0:0:0:0:
320,192,81486,1,0,0:0:0:0:
320,192,81636,1,0,0:0:0:0:
64,192,81786,1,2,0:0:0:0:
448,192,81786,1,0,0:0:0:0:
192,192,81936,1,0,0:0:0:0:
320,192,82011,1,0,0:0:0:0:
192,192,82086,1,2,0:0:0:0:
64,192,82086,1,0,0:0:0:0:
448,192,82236,1,0,0:0:0:0:
64,192,82386,1,0,0:0:0:0:
320,192,82386,1,2,0:0:0:0:
320,192,82536,1,0,0:0:0:0:
192,192,82686,1,2,0:0:0:0:
448,192,82686,1,0,0:0:0:0:
448,192,82836,1,0,0:0:0:0:
64,192,82986,1,0,0:0:0:0:
320,192,82986,1,2,0:0:0:0:
192,192,83136,1,0,0:0:0:0:
320,192,83211,1,0,0:0:0:0:
448,192,83286,1,0,0:0:0:0:
64,192,83286,1,2,0:0:0:0:
192,192,83436,1,0,0:0:0:0:
320,192,83586,1,2,0:0:0:0:
448,192,83586,1,0,0:0:0:0:
192,192,83736,128,0,83886:0:0:0:0:
448,192,83886,1,2,0:0:0:0:
64,192,83886,1,0,0:0:0:0:
192,192,84036,128,0,84186:0:0:0:0:
64,192,84186,1,0,0:0:0:0:
320,192,84186,1,2,0:0:0:0:
192,192,84336,128,0,84486:0:0:0:0:
320,192,84411,1,0,0:0:0:0:
64,192,84486,1,2,0:0:0:0:
448,192,84486,128,0,84786:0:0:0:0:
192,192,84636,1,0,0:0:0:0:
64,192,84786,1,0,0:0:0:0:
320,192,84786,1,2,0:0:0:0:
64,192,84936,1,0,0:0:0:0:
192,192,85086,1,2,0:0:0:0:
448,192,85086,1,0,0:0:0:0:
448,192,85236,1,0,0:0:0:0:
64,192,85386,1,0,0:0:0:0:
192,192,85386,1,2,0:0:0:0:
320,192,85536,1,0,0:0:0:0:
192,192,85611,1,0,0:0:0:0:
448,192,85686,1,2,0:0:0:0:
64,192,85686,1,0,0:0:0:0:
320,192,85836,1,0,0:0:0:0:
448,192,85986,1,0,0:0:0:0:
192,192,85986,1,2,0:0:0:0:
192,192,86136,1,0,0:0:0:0:
64,192,86286,1,2,0:0:0:0:
320,192,86286,1,0,0:0:0:0:
64,192,86436,1,0,0:0:0:0:
192,192,86586,1,2,0:0:0:0:
448,192,86586,1,0,0:0:0:0:
320,192,86736,1,0,0:0:0:0:
192,192,86811,1,0,0:0:0:0:
320,192,86886,1,2,0:0:0:0:
448,192,86886,1,0,0:0:0:0:
64,192,87036,1,0,0:0:0:0:
448,192,87186,1,0,0:0:0:0:
192,192,87186,1,2,0:0:0:0:
448,192,87336,1,0,0:0:0:0:
64,192,87486,1,0,0:0:0:0:
320,192,87486,1,2,0:0:0:0:
64,192,87636,1,0,0:0:0:0:
192,192,87786,1,2,0:0:0:0:
320,192,87786,1,0,0:0:0:0:
448,192,87936,1,0,0:0:0:0:
320,192,88011,1,0,0:0:0:0:
192,192,88086,1,2,0:0:0:0:
64,192,88086,1,0,0:0:0:0:
448,192,88236,1,0,0:0:0:0:
64,192,88386,1,0,0:0:0:0:
320,192,88386,1,2,0:0:0:0:
64,192,88611,1,0,0:0:0:0:
320,192,88611,1,0,0:0:0:0:
192,192,88686,1,0,0:0:0:0:
320,192,88836,1,0,0:0:0:0:
448,192,88836,1,0,0:0:0:0:
64,192,88911,1,0,0:0:0:0:
320,192,88986,1,0,0:0:0:0:
192,192,88986,1,2,0:0:0:0:
64,192,89136,1,0,0:0:0:0:
192,192,89136,1,0,0:0:0:0:
320,192,89286,1,0,0:0:0:0:
448,192,89286,1,0,0:0:0:0:
192,192,89436,1,0,0:0:0:0:
320,192,89436,1,0,0:0:0:0:
192,192,89586,1,0,0:0:0:0:
64,192,89586,1,2,0:0:0:0:
448,192,89586,1,4,0:0:0:0:
64,192,89736,1,0,0:0:0:0:
448,192,89886,1,0,0:0:0:0:
192,192,89886,1,2,0:0:0:0:
448,192,90036,1,0,0:0:0:0:
64,192,90186,1,0,0:0:0:0:
320,192,90186,1,2,0:0:0:0:
192,192,90336,1,0,0:0:0:0:
320,192,90411,1,0,0:0:0:0:
448,192,90486,1,0,0:0:0:0:
64,192,90486,1,2,0:0:0:0:
192,192,90636,1,0,0:0:0:0:
448,192,90786,1,0,0:0:0:0:
320,192,90786,1,2,0:0:0:0:
320,192,90936,1,0,0:0:0:0:
192,192,91086,1,2,0:0:0:0:
64,192,91086,1,0,0:0:0:0:
192,192,91236,1,0,0:0:0:0:
64,192,91386,1,0,0:0:0:0:
448,192,91386,1,2,0:0:0:0:
320,192,91536,1,0,0:0:0:0:
448,192,91611,1,0,0:0:0:0:
192,192,91686,1,2,0:0:0:0:
64,192,91686,1,0,0:0:0:0:
320,192,91836,1,0,0:0:0:0:
192,192,91986,1,0,0:0:0:0:
448,192,91986,1,2,0:0:0:0:
192,192,92136,1,0,0:0:0:0:
64,192,92286,1,2,0:0:0:0:
320,192,92286,1,0,0:0:0:0:
64,192,92436,1,0,0:0:0:0:
192,192,92586,1,2,0:0:0:0:
448,192,92586,1,0,0:0:0:0:
320,192,92736,1,0,0:0:0:0:
192,192,92811,1,0,0:0:0:0:
448,192,92886,1,2,0:0:0:0:
64,192,92886,1,0,0:0:0:0:
320,192,93036,1,0,0:0:0:0:
64,192,93186,1,0,0:0:0:0:
192,192,93186,1,2,0:0:0:0:
320,192,93336,128,0,93486:0:0:0:0:
448,192,93486,1,2,0:0:0:0:
64,192,93486,1,0,0:0:0:0:
320,192,93636,128,0,93786:0:0:0:0:
192,192,93786,1,2,0:0:0:0:
448,192,93786,1,0,0:0:0:0:
320,192,93936,128,0,94086:0:0:0:0:
192,192,94011,1,0,0:0:0:0:
64,192,94086,128,0,94386:0:0:0:0:
448,192,94086,1,2,0:0:0:0:
320,192,94236,1,0,0:0:0:0:
192,192,94386,1,2,0:0:0:0:
448,192,94386,1,0,0:0:0:0:
448,192,94536,1,0,0:0:0:0:
64,192,94686,1,0,0:0:0:0:
320,192,94686,1,2,0:0:0:0:
64,192,94836,1,0,0:0:0:0:
320,192,94986,1,0,0:0:0:0:
448,192,94986,1,2,0:0:0:0:
192,192,95136,1,0,0:0:0:0:
320,192,95211,1,0,0:0:0:0:
448,192,95286,1,0,0:0:0:0:
64,192,95286,1,2,0:0:0:0:
320,192,95436,1,0,0:0:0:0:
192,192,95586,1,2,0:0:0:0:
64,192,95586,1,0,0:0:0:0:
192,192,95736,1,0,0:0:0:0:
320,192,95886,1,2,0:0:0:0:
448,192,95886,1,0,0:0:0:0:
448,192,96036,1,0,0:0:0:0:
64,192,96186,1,2,0:0:0:0:
320,192,96186,1,0,0:0:0:0:
192,192,96336,1,0,0:0:0:0:
320,192,96411,1,0,0:0:0:0:
64,192,96486,1,0,0:0:0:0:
192,192,96486,1,2,0:0:0:0:
448,192,96636,1,0,0:0:0:0:
320,192,96786,1,2,0:0:0:0:
64,192,96786,1,0,0:0:0:0:
64,192,96936,1,0,0:0:0:0:
192,192,97086,1,2,0:0:0:0:
448,192,97086,1,0,0:0:0:0:
448,192,97236,1,0,0:0:0:0:
192,192,97386,1,0,0:0:0:0:
320,192,97386,1,2,0:0:0:0:
64,192,97536,1,2,0:0:0:0:
192,192,97611,1,0,0:0:0:0:
448,192,97686,1,2,0:0:0:0:
320,192,97686,1,0,0:0:0:0:
64,192,97836,1,2,0:0:0:0:
192,192,97986,1,0,0:0:0:0:
448,192,97986,1,2,0:0:0:0:
192,192,98211,1,0,0:0:0:0:
448,192,98211,1,0,0:0:0:0:
64,192,98286,1,0,0:0:0:0:
192,192,98436,1,0,0:0:0:0:
320,192,98436,1,0,0:0:0:0:
448,192,98511,1,0,0:0:0:0:
64,192,98586,128,0,98736:0:0:0:0:
320,192,98736,1,0,0:0:0:0:
448,192,98886,128,0,99186:0:0:0:0:
192,192,98886,1,0,0:0:0:0:
192,192,99186,1,0,0:0:0:0:
64,192,99186,1,2,0:0:0:0:
320,192,99186,1,4,0:0:0:0:
448,192,99336,1,0,0:0:0:0:
64,192,99486,128,0,99936:0:0:0:0:
320,192,99486,1,2,0:0:0:0:
192,192,99636,1,0,0:0:0:0:
320,192,99786,1,0,0:0:0:0:
448,192,99786,1,2,0:0:0:0:
448,192,99936,1,0,0:0:0:0:
192,192,99936,1,0,0:0:0:0:
320,192,100086,1,0,0:0:0:0:
64,192,100086,1,2,0:0:0:0:
448,192,100236,1,0,0:0:0:0:
192,192,100236,128,0,100386:0:0:0:0:
320,192,100386,1,2,0:0:0:0:
64,192,100386,1,0,0:0:0:0:
192,192,100536,1,0,0:0:0:0:
448,192,100536,128,0,100686:0:0:0:0:
320,192,100686,128,0,100986:0:0:0:0:
64,192,100686,1,2,0:0:0:0:
192,192,100836,1,0,0:0:0:0:
448,192,100986,1,2,0:0:0:0:
64,192,100986,1,0,0:0:0:0:
320,192,101136,1,0,0:0:0:0:
64,192,101136,1,0,0:0:0:0:
64,192,101286,128,0,101586:0:0:0:0:
448,192,101286,1,2,0:0:0:0:
192,192,101436,1,0,0:0:0:0:
448,192,101586,128,0,101886:0:0:0:0:
320,192,101586,1,2,0:0:0:0:
192,192,101736,1,0,0:0:0:0:
64,192,101886,128,0,102036:0:0:0:0:
320,192,101886,1,2,0:0:0:0:
192,192,102036,128,0,103386:0:0:0:0:
320,192,102186,1,0,0:0:0:0:
448,192,102186,1,2,0:0:0:0:
64,192,102336,1,0,0:0:0:0:
64,192,102486,1,0,0:0:0:0:
320,192,102486,1,2,0:0:0:0:
448,192,102636,1,0,0:0:0:0:
320,192,102786,1,0,0:0:0:0:
448,192,102786,1,2,0:0:0:0:
64,192,102936,128,0,103086:0:0:0:0:
320,192,103086,1,2,0:0:0:0:
448,192,103086,1,0,0:0:0:0:
448,192,103236,128,0,103386:0:0:0:0:
64,192,103386,1,2,0:0:0:0:
320,192,103386,1,0,0:0:0:0:
320,192,103536,128,0,103686:0:0:0:0:
64,192,103686,128,0,103986:0:0:0:0:
448,192,103686,1,2,0:0:0:0:
192,192,103836,1,0,0:0:0:0:
448,192,103986,1,0,0:0:0:0:
320,192,103986,1,2,0:0:0:0:
64,192,104136,1,0,0:0:0:0:
192,192,104286,128,0,104736:0:0:0:0:
320,192,104286,1,2,0:0:0:0:
64,192,104436,1,0,0:0:0:0:
320,192,104586,1,0,0:0:0:0:
448,192,104586,1,2,0:0:0:0:
448,192,104736,1,0,0:0:0:0:
64,192,104736,1,0,0:0:0:0:
192,192,104886,1,2,0:0:0:0:
320,192,104886,1,0,0:0:0:0:
448,192,105036,128,0,105186:0:0:0:0:
64,192,105036,1,0,0:0:0:0:
192,192,105186,1,0,0:0:0:0:
320,192,105186,1,2,0:0:0:0:
320,192,105336,128,0,105486:0:0:0:0:
448,192,105336,1,0,0:0:0:0:
192,192,105486,128,0,105786:0:0:0:0:
64,192,105486,1,2,0:0:0:0:
448,192,105636,1,0,0:0:0:0:
64,192,105786,1,0,0:0:0:0:
320,192,105786,1,2,0:0:0:0:
448,192,105936,1,0,0:0:0:0:
320,192,105936,1,0,0:0:0:0:
320,192,106086,128,0,106386:0:0:0:0:
192,192,106086,1,2,0:0:0:0:
64,192,106236,1,0,0:0:0:0:
192,192,106386,128,0,106686:0:0:0:0:
448,192,106386,1,2,0:0:0:0:
64,192,106536,1,0,0:0:0:0:
448,192,106686,128,0,106836:0:0:0:0:
320,192,106686,1,2,0:0:0:0:
64,192,106836,128,0,107586:0:0:0:0:
192,192,106836,1,0,0:0:0:0:
448,192,106986,1,2,0:0:0:0:
320,192,106986,1,0,0:0:0:0:
320,192,107136,1,0,0:0:0:0:
192,192,107286,1,2,0:0:0:0:
448,192,107286,1,0,0:0:0:0:
192,192,107436,1,0,0:0:0:0:
448,192,107586,1,0,0:0:0:0:
320,192,107586,1,2,0:0:0:0:
192,192,107811,1,2,0:0:0:0:
320,192,107811,1,0,0:0:0:0:
64,192,108036,1,2,0:0:0:0:
192,192,108036,1,0,0:0:0:0:
448,192,108186,128,0,108261:0:0:0:0:
192,192,108261,128,0,108336:0:0:0:0:
320,192,108336,128,0,108411:0:0:0:0:
64,192,108411,128,0,108486:0:0:0:0:
192,192,108486,128,0,108561:0:0:0:0:
320,192,108561,128,0,108786:0:0:0:0:
192,192,108786,1,8,0:0:0:0:
448,192,108786,1,4,0:0:0:0:
64,192,108936,1,0,0:0:0:0:
448,192,109086,128,0,109536:0:0:0:0:
320,192,109086,1,8,0:0:0:0:
192,192,109236,1,0,0:0:0:0:
64,192,109386,1,8,0:0:0:0:
320,192,109386,1,0,0:0:0:0:
64,192,109536,1,0,0:0:0:0:
192,192,109536,1,0,0:0:0:0:
448,192,109686,1,0,0:0:0:0:
192,192,109686,1,8,0:0:0:0:
64,192,109836,1,0,0:0:0:0:
320,192,109836,128,0,109986:0:0:0:0:
192,192,109986,1,0,0:0:0:0:
448,192,109986,1,8,0:0:0:0:
320,192,110136,1,0,0:0:0:0:
64,192,110136,128,0,110286:0:0:0:0:
192,192,110286,128,0,110586:0:0:0:0:
448,192,110286,1,8,0:0:0:0:
320,192,110436,1,0,0:0:0:0:
64,192,110586,1,8,0:0:0:0:
448,192,110586,1,0,0:0:0:0:
192,192,110736,1,0,0:0:0:0:
448,192,110736,1,0,0:0:0:0:
448,192,110886,128,0,111186:0:0:0:0:
64,192,110886,1,8,0:0:0:0:
320,192,111036,1,0,0:0:0:0:
64,192,111186,128,0,111486:0:0:0:0:
192,192,111186,1,8,0:0:0:0:
320,192,111336,1,0,0:0:0:0:
448,192,111486,128,0,111636:0:0:0:0:
192,192,111486,1,8,0:0:0:0:
320,192,111636,128,0,112986:0:0:0:0:
192,192,111786,1,0,0:0:0:0:
64,192,111786,1,8,0:0:0:0:
448,192,111936,1,0,0:0:0:0:
448,192,112086,1,8,0:0:0:0:
192,192,112086,1,0,0:0:0:0:
64,192,112236,1,0,0:0:0:0:
192,192,112386,1,8,0:0:0:0:
64,192,112386,1,0,0:0:0:0:
448,192,112536,128,0,112686:0:0:0:0:
192,192,112686,1,8,0:0:0:0:
64,192,112686,1,0,0:0:0:0:
64,192,112836,128,0,112986:0:0:0:0:
448,192,112986,1,8,0:0:0:0:
192,192,112986,1,0,0:0:0:0:
192,192,113136,128,0,113286:0:0:0:0:
448,192,113286,128,0,113586:0:0:0:0:
64,192,113286,1,8,0:0:0:0:
192,192,113436,1,0,0:0:0:0:
320,192,113436,1,8,0:0:0:0:
64,192,113586,1,8,0:0:0:0:
320,192,113586,1,0,0:0:0:0:
192,192,113736,1,0,0:0:0:0:
448,192,113736,1,0,0:0:0:0:
320,192,113886,128,0,114336:0:0:0:0:
64,192,113886,1,8,0:0:0:0:
448,192,114036,1,0,0:0:0:0:
192,192,114036,1,0,0:0:0:0:
192,192,114186,1,8,0:0:0:0:
64,192,114186,1,0,0:0:0:0:
64,192,114336,1,0,0:0:0:0:
448,192,114336,1,0,0:0:0:0:
320,192,114486,1,8,0:0:0:0:
192,192,114486,1,0,0:0:0:0:
64,192,114636,128,0,114786:0:0:0:0:
448,192,114636,1,0,0:0:0:0:
320,192,114786,1,0,0:0:0:0:
192,192,114786,1,8,0:0:0:0:
192,192,114936,128,0,115086:0:0:0:0:
64,192,114936,1,0,0:0:0:0:
320,192,115086,128,0,115386:0:0:0:0:
448,192,115086,1,8,0:0:0:0:
64,192,115236,1,0,0:0:0:0:
192,192,115236,1,0,0:0:0:0:
192,192,115386,128,0,115536:0:0:0:0:
448,192,115386,1,8,0:0:0:0:
64,192,115536,128,0,115686:0:0:0:0:
320,192,115536,1,0,0:0:0:0:
448,192,115686,1,0,0:0:0:0:
192,192,115686,1,8,0:0:0:0:
448,192,115836,1,0,0:0:0:0:
320,192,115836,1,0,0:0:0:0:
64,192,115986,1,2,0:0:0:0:
192,192,115986,1,0,0:0:0:0:
448,192,116061,1,0,0:0:0:0:
320,192,116136,1,0,0:0:0:0:
192,192,116211,1,0,0:0:0:0:
320,192,116286,1,2,0:0:0:0:
448,192,116286,1,0,0:0:0:0:
64,192,116361,1,0,0:0:0:0:
192,192,116436,1,0,0:0:0:0:
320,192,116511,1,0,0:0:0:0:
192,192,116586,1,0,0:0:0:0:
64,192,116586,1,2,0:0:0:0:
448,192,116661,1,0,0:0:0:0:
320,192,116736,1,0,0:0:0:0:
192,192,116811,1,0,0:0:0:0:
448,192,116886,1,0,0:0:0:0:
320,192,116886,1,2,0:0:0:0:
64,192,116961,1,0,0:0:0:0:
192,192,117036,1,0,0:0:0:0:
320,192,117111,1,0,0:0:0:0:
64,192,117186,1,2,0:0:0:0:
192,192,117186,1,0,0:0:0:0:
448,192,117336,1,0,0:0:0:0:
64,192,117486,1,0,0:0:0:0:
320,192,117486,1,2,0:0:0:0:
192,192,117636,1,0,0:0:0:0:
64,192,117786,1,0,0:0:0:0:
448,192,117786,1,2,0:0:0:0:
320,192,117936,1,0,0:0:0:0:
192,192,118086,1,8,0:0:0:0:
64,192,118086,1,0,0:0:0:0:
448,192,118086,1,0,0:0:0:0:
64,192,118386,1,2,0:0:0:0:
448,192,118386,1,0,0:0:0:0:
320,192,118386,1,4,0:0:0:0:
192,192,118686,1,0,0:0:0:0:
192,192,118986,1,0,0:0:0:0:
320,192,119436,1,0,0:0:0:0:
192,192,119511,1,0,0:0:0:0:
64,192,119586,1,0,0:0:0:0:
448,192,119586,1,2,0:0:0:0:
320,192,119661,1,2,0:0:0:0:
192,192,119736,1,2,0:0:0:0:
64,192,119736,1,0,0:0:0:0:
448,192,119811,1,2,0:0:0:0:
192,192,119886,1,0,0:0:0:0:
320,192,119886,1,2,0:0:0:0:
64,192,119961,1,2,0:0:0:0:
320,192,120036,1,0,0:0:0:0:
448,192,120036,1,2,0:0:0:0:
192,192,120336,1,2,0:0:0:0:
448,192,120336,1,0,0:0:0:0:
448,192,120786,5,4,0:0:0:0:
64,192,120786,1,2,0:0:0:0:
320,192,120786,1,0,0:0:0:0:
