osu file format v14

[General]
AudioFilename: Lite Show Magic - Stronghold.mp3
AudioLeadIn: 0
PreviewTime: 124945
Countdown: 0
SampleSet: None
StackLeniency: 0.7
Mode: 1
LetterboxInBreaks: 0
WidescreenStoryboard: 0

[Editor]
DistanceSpacing: 1.2
BeatDivisor: 4
GridSize: 16
TimelineZoom: 2

[Metadata]
Title:Stronghold
TitleUnicode:Stronghold
Artist:Lite Show Magic
ArtistUnicode:Lite Show Magic
Creator:Nofool
Version:Special Oni
Source:
Tags:
BeatmapID:995363
BeatmapSetID:464923

[Difficulty]
HPDrainRate:5
CircleSize:2
OverallDifficulty:6
ApproachRate:10
SliderMultiplier:1.4
SliderTickRate:1

[Events]
//Background and Video events
0,0,"bg.jpg",0,0
//Break Periods
//Storyboard Layer 0 (Background)
//Storyboard Layer 1 (Fail)
//Storyboard Layer 2 (Pass)
//Storyboard Layer 3 (Foreground)
//Storyboard Sound Samples

[TimingPoints]
1420,300,4,1,0,80,1,0
1420,-125,4,1,0,80,0,0
3445,-50,4,1,0,80,0,0
3595,-125,4,1,0,80,0,0
8245,-50,4,1,0,80,0,0
8545,-125,4,1,0,80,0,0
10945,-111.111111111111,4,1,0,80,0,0
20545,-100,4,1,0,80,0,0
25345,-83.3333333333333,4,1,0,80,0,0
26545,-66.6666666666667,4,1,0,80,0,0
27745,-58.8235294117647,4,1,0,80,0,0
28945,-50,4,1,0,80,0,0
30182,-83.3333333333333,4,1,0,80,0,0
39745,-142.857142857143,4,1,0,80,0,0
41545,-50,4,1,0,80,0,0
41995,-142.857142857143,4,1,0,80,0,0
43945,-50,4,1,0,80,0,0
44395,-142.857142857143,4,1,0,80,0,0
46945,-100,4,1,0,80,0,0
49345,-71.4285714285714,4,1,0,80,0,0
49420,-71.4285714285714,4,1,0,80,0,1
53920,-71.4285714285714,4,1,0,80,0,0
54220,-71.4285714285714,4,1,0,80,0,1
57820,-71.4285714285714,4,1,0,80,0,0
57895,-83.3333333333333,4,1,0,80,0,0
58345,-25,4,1,0,80,0,0
58945,-100,4,1,0,80,0,0
63445,-50,4,1,0,80,0,0
63595,-100,4,1,0,80,0,0
63745,-83.3333333333333,4,1,0,80,0,0
64195,-71.4285714285714,4,1,0,80,0,0
64795,-62.5,4,1,0,80,0,0
65395,-55.5555555555556,4,1,0,80,0,0
65995,-50,4,1,0,80,0,0
67382,-125,4,1,0,80,0,0
68245,-50,4,1,0,80,0,0
68395,-83.3333333333333,4,1,0,80,0,0
70645,-200,4,1,0,80,0,0
70795,-83.3333333333333,4,1,0,80,0,0
72595,-200,4,1,0,80,0,0
73345,-83.3333333333333,4,1,0,80,0,0
75445,-200,4,1,0,80,0,0
75595,-83.3333333333333,4,1,0,80,0,0
76945,-40,4,1,0,80,0,0
77545,-33.3333333333333,4,1,0,80,0,0
78145,-83.3333333333333,4,1,0,80,0,0
80245,-200,4,1,0,80,0,0
80395,-83.3333333333333,4,1,0,80,0,0
82195,-200,4,1,0,80,0,0
82945,-83.3333333333333,4,1,0,80,0,0
85045,-200,4,1,0,80,0,0
85195,-83.3333333333333,4,1,0,80,0,0
86545,-200,4,1,0,80,0,0
87445,-25,4,1,0,80,0,0
87520,-25,4,1,0,80,0,1
87670,-25,4,1,0,80,0,0
87745,-83.3333333333333,4,1,0,80,0,0
89882,-40,4,1,0,80,0,0
90182,-83.3333333333333,4,1,0,80,0,0
91795,-200,4,1,0,80,0,0
92545,-83.3333333333333,4,1,0,80,0,0
93745,-200,4,1,0,80,0,0
94945,-83.3333333333333,4,1,0,80,0,0
96145,-50,4,1,0,80,0,0
96895,-125,4,1,0,80,0,0
97045,-111.111111111111,4,1,0,80,0,0
97195,-100,4,1,0,80,0,0
97345,-83.3333333333333,4,1,0,80,0,0
99445,-200,4,1,0,80,0,0
99595,-83.3333333333333,4,1,0,80,0,0
101395,-200,4,1,0,80,0,0
102145,-74.0740740740741,4,1,0,80,0,0
102595,-66.6666666666667,4,1,0,80,0,0
103195,-60.6060606060606,4,1,0,80,0,0
103795,-55.5555555555556,4,1,0,80,0,0
104395,-50,4,1,0,80,0,0
105782,-125,4,1,0,80,0,0
106645,-50,4,1,0,80,0,0
106795,-166.666666666667,4,1,0,80,0,0
116545,-100,4,1,0,80,0,0
121532,-96.1538461538461,4,1,0,80,0,0
121607,-94.3396226415094,4,1,0,80,0,0
121682,-92.5925925925926,4,1,0,80,0,0
121832,-89.2857142857143,4,1,0,80,0,0
121982,-86.2068965517241,4,1,0,80,0,0
122132,-83.3333333333333,4,1,0,80,0,0
122195,-82.6446280991736,4,1,0,80,0,0
122245,-81.9672131147541,4,1,0,80,0,0
122295,-80.6451612903226,4,1,0,80,0,0
122432,-78.125,4,1,0,80,0,0
122582,-75.7575757575758,4,1,0,80,0,0
122732,-73.5294117647059,4,1,0,80,0,0
122807,-72.463768115942,4,1,0,80,0,0
122882,-71.4285714285714,4,1,0,80,0,0
123032,-69.4444444444444,4,1,0,80,0,0
123107,-68.4931506849315,4,1,0,80,0,0
123182,-67.5675675675676,4,1,0,80,0,0
123332,-65.7894736842105,4,1,0,80,0,0
123407,-64.9350649350649,4,1,0,80,0,0
123482,-64.1025641025641,4,1,0,80,0,0
123632,-62.5,4,1,0,80,0,0
123782,-60.2409638554217,4,1,0,80,0,0
123857,-59.5238095238095,4,1,0,80,0,0
123932,-58.8235294117647,4,1,0,80,0,0
124007,-58.1395348837209,4,1,0,80,0,0
124082,-57.4712643678161,4,1,0,80,0,0
124157,-56.8181818181818,4,1,0,80,0,0
124232,-56.1797752808989,4,1,0,80,0,0
124307,-55.5555555555556,4,1,0,80,0,0
124382,-54.9450549450549,4,1,0,80,0,0
124457,-54.3478260869565,4,1,0,80,0,0
124532,-53.763440860215,4,1,0,80,0,0
124607,-53.1914893617021,4,1,0,80,0,0
124682,-52.6315789473684,4,1,0,80,0,0
124982,-125,4,1,0,80,0,0
125845,-50,4,1,0,80,0,0
125995,-83.3333333333333,4,1,0,80,0,0
126220,-83.3333333333333,4,1,0,80,0,1
130720,-83.3333333333333,4,1,0,80,0,0
131020,-83.3333333333333,4,1,0,80,0,1
134545,-50,4,1,0,80,0,1
134620,-50,4,1,0,80,0,0
135145,-57.1428571428571,4,1,0,80,0,0
135295,-66.6666666666667,4,1,0,80,0,0
135445,-71.4285714285714,4,1,0,80,0,0
135595,-76.9230769230769,4,1,0,80,0,0
135745,-83.3333333333333,4,1,0,80,0,0
135820,-83.3333333333333,4,1,0,80,0,1
140320,-83.3333333333333,4,1,0,80,0,0
140620,-83.3333333333333,4,1,0,80,0,1
144145,-100,4,1,0,80,0,1
144220,-100,4,1,0,80,0,0
144370,-111.111111111111,4,1,0,80,0,0
144595,-117.647058823529,4,1,0,80,0,0
144745,-50,4,1,0,80,0,0
144895,-200,4,1,0,80,0,0
145045,-66.6666666666667,4,1,0,80,0,0
145120,-66.6666666666667,4,1,0,80,0,1
145420,-66.6666666666667,4,1,0,80,0,0
145495,-100,4,1,0,80,0,0
153745,-55.5555555555556,4,1,0,80,0,0
154345,-25,4,1,0,80,0,0
154795,-100,4,1,0,80,0,0
154945,-83.3333333333333,4,1,0,80,0,0
159932,-80.6451612903226,4,1,0,80,0,0
160082,-78.125,4,1,0,80,0,0
160232,-75.7575757575758,4,1,0,80,0,0
160307,-74.6268656716418,4,1,0,80,0,0
160382,-73.5294117647059,4,1,0,80,0,0
160532,-71.4285714285714,4,1,0,80,0,0
160682,-69.4444444444444,4,1,0,80,0,0
160832,-67.5675675675676,4,1,0,80,0,0
160907,-66.6666666666667,4,1,0,80,0,0
160982,-65.7894736842105,4,1,0,80,0,0
161132,-64.1025641025641,4,1,0,80,0,0
161282,-62.5,4,1,0,80,0,0
161357,-61.7283950617284,4,1,0,80,0,0
161432,-60.9756097560976,4,1,0,80,0,0
161582,-59.5238095238095,4,1,0,80,0,0
161657,-58.8235294117647,4,1,0,80,0,0
161732,-58.1395348837209,4,1,0,80,0,0
161882,-56.8181818181818,4,1,0,80,0,0
162032,-55.5555555555556,4,1,0,80,0,0
163382,-125,4,1,0,80,0,0
164245,-50,4,1,0,80,0,0
164395,-125,4,1,0,80,0,0
166645,-50,4,1,0,80,0,0
166795,-111.111111111111,4,1,0,80,0,0
171445,-50,4,1,0,80,0,0
171745,-111.111111111111,4,1,0,80,0,0
174145,-100,4,1,0,80,0,0
178645,-50,4,1,0,80,0,0
178795,-100,4,1,0,80,0,0
178945,-83.3333333333333,4,1,0,80,0,0
179395,-71.4285714285714,4,1,0,80,0,0
179995,-62.5,4,1,0,80,0,0
180595,-55.5555555555556,4,1,0,80,0,0
181195,-50,4,1,0,80,0,0
182582,-125,4,1,0,80,0,0
183745,-250,4,1,0,80,0,0
183820,-250,4,1,0,80,0,1
198145,-166.666666666667,4,1,0,80,0,1
199345,-125,4,1,0,80,0,1
200582,-83.3333333333333,4,1,0,80,0,1
200657,-84.7457627118644,4,1,0,80,0,1
200732,-86.2068965517241,4,1,0,80,0,1
200807,-87.719298245614,4,1,0,80,0,1
200882,-89.2857142857143,4,1,0,80,0,1
200957,-90.9090909090909,4,1,0,80,0,1
201032,-92.5925925925926,4,1,0,80,0,1
201107,-94.3396226415094,4,1,0,80,0,1
201182,-96.1538461538461,4,1,0,80,0,1
201257,-98.0392156862745,4,1,0,80,0,1
201332,-100,4,1,0,80,0,1
201407,-102.040816326531,4,1,0,80,0,1
201482,-104.166666666667,4,1,0,80,0,1
201557,-106.382978723404,4,1,0,80,0,1
201632,-107.52688172043,4,1,0,80,0,1
201707,-108.695652173913,4,1,0,80,0,1
201782,-109.89010989011,4,1,0,80,0,1
201820,-109.89010989011,4,1,0,80,0,0
201920,-50,4,1,0,80,0,0
202120,-125,4,1,0,80,0,0
202420,-125,4,1,0,80,0,1
202720,-125,4,1,0,80,0,0
202795,-83.3333333333333,4,1,0,80,0,0
205045,-200,4,1,0,80,0,0
205195,-83.3333333333333,4,1,0,80,0,0
206995,-200,4,1,0,80,0,0
207745,-83.3333333333333,4,1,0,80,0,0
209845,-200,4,1,0,80,0,0
209995,-83.3333333333333,4,1,0,80,0,0
211345,-40,4,1,0,80,0,0
211945,-33.3333333333333,4,1,0,80,0,0
212545,-83.3333333333333,4,1,0,80,0,0
214645,-200,4,1,0,80,0,0
214795,-83.3333333333333,4,1,0,80,0,0
216595,-200,4,1,0,80,0,0
217345,-74.0740740740741,4,1,0,80,0,0
217795,-66.6666666666667,4,1,0,80,0,0
218395,-60.6060606060606,4,1,0,80,0,0
218995,-55.5555555555556,4,1,0,80,0,0
219595,-50,4,1,0,80,0,0
220982,-125,4,1,0,80,0,0
221845,-50,4,1,0,80,0,0
221995,-83.3333333333333,4,1,0,80,0,0
222220,-83.3333333333333,4,1,0,80,0,1
224282,-40,4,1,0,80,0,1
224582,-83.3333333333333,4,1,0,80,0,1
229045,-50,4,1,0,80,0,1
229195,-83.3333333333333,4,1,0,80,0,1
231070,-83.3333333333333,4,1,0,80,0,0
231145,-50,4,1,0,80,0,0
231595,-83.3333333333333,4,1,0,80,0,0
231820,-83.3333333333333,4,1,0,80,0,1
233845,-50,4,1,0,80,0,1
233995,-83.3333333333333,4,1,0,80,0,1
236545,-74.0740740740741,4,1,0,80,0,1
236995,-66.6666666666667,4,1,0,80,0,1
237595,-60.6060606060606,4,1,0,80,0,1
238195,-55.5555555555556,4,1,0,80,0,1
238795,-50,4,1,0,80,0,1
240170,-125,4,1,0,80,0,1
240220,-125,4,1,0,80,0,0
241045,-50,4,1,0,80,0,0
241345,-50,4,1,0,20,0,0

[HitObjects]
256,192,1420,5,4,0:0:0:0:
256,192,1720,1,0,0:0:0:0:
256,192,1870,1,8,0:0:0:0:
256,192,2020,1,0,0:0:0:0:
256,192,2095,1,8,0:0:0:0:
256,192,2170,1,8,0:0:0:0:
256,192,2320,1,0,0:0:0:0:
256,192,2470,1,8,0:0:0:0:
256,192,2770,1,8,0:0:0:0:
256,192,2920,1,8,0:0:0:0:
256,192,3070,1,8,0:0:0:0:
256,192,3220,1,0,0:0:0:0:
256,192,3520,1,12,0:0:0:0:
256,192,3820,1,4,0:0:0:0:
256,192,4120,1,0,0:0:0:0:
256,192,4270,1,8,0:0:0:0:
256,192,4420,1,0,0:0:0:0:
256,192,4495,1,8,0:0:0:0:
256,192,4570,1,8,0:0:0:0:
256,192,4720,1,0,0:0:0:0:
256,192,4870,1,8,0:0:0:0:
256,192,5170,1,8,0:0:0:0:
256,192,5320,1,0,0:0:0:0:
256,192,5395,1,0,0:0:0:0:
256,192,5470,1,8,0:0:0:0:
256,192,5620,1,0,0:0:0:0:
256,192,5695,1,0,0:0:0:0:
256,192,5770,1,8,0:0:0:0:
256,192,6220,1,4,0:0:0:0:
256,192,6520,1,0,0:0:0:0:
256,192,6670,1,8,0:0:0:0:
256,192,6820,1,0,0:0:0:0:
256,192,6895,1,8,0:0:0:0:
256,192,6970,1,8,0:0:0:0:
256,192,7120,1,0,0:0:0:0:
256,192,7270,1,8,0:0:0:0:
256,192,7570,1,8,0:0:0:0:
256,192,7720,1,8,0:0:0:0:
256,192,7870,1,8,0:0:0:0:
256,192,8020,1,0,0:0:0:0:
256,192,8320,1,8,0:0:0:0:
256,192,8470,1,8,0:0:0:0:
256,192,8620,1,4,0:0:0:0:
256,192,8920,1,0,0:0:0:0:
256,192,9070,1,8,0:0:0:0:
256,192,9220,1,0,0:0:0:0:
256,192,9295,1,8,0:0:0:0:
256,192,9370,1,8,0:0:0:0:
256,192,9520,1,0,0:0:0:0:
256,192,9670,1,8,0:0:0:0:
256,192,9970,1,8,0:0:0:0:
256,192,10120,1,0,0:0:0:0:
256,192,10195,1,0,0:0:0:0:
256,192,10270,1,8,0:0:0:0:
256,192,10420,1,0,0:0:0:0:
256,192,10495,1,0,0:0:0:0:
256,192,10570,1,8,0:0:0:0:
256,192,11020,1,4,0:0:0:0:
256,192,11170,1,0,0:0:0:0:
256,192,11320,1,8,0:0:0:0:
256,192,11470,1,0,0:0:0:0:
256,192,11545,1,0,0:0:0:0:
256,192,11620,1,0,0:0:0:0:
256,192,11695,1,0,0:0:0:0:
256,192,11770,1,8,0:0:0:0:
256,192,11920,1,0,0:0:0:0:
256,192,12070,1,8,0:0:0:0:
256,192,12220,1,0,0:0:0:0:
256,192,12370,1,8,0:0:0:0:
256,192,12445,1,8,0:0:0:0:
256,192,12520,1,8,0:0:0:0:
256,192,12670,1,8,0:0:0:0:
256,192,12820,1,0,0:0:0:0:
256,192,13120,1,8,0:0:0:0:
256,192,13270,1,8,0:0:0:0:
256,192,13420,1,4,0:0:0:0:
256,192,13570,1,0,0:0:0:0:
256,192,13720,1,8,0:0:0:0:
256,192,13870,1,0,0:0:0:0:
256,192,13945,1,0,0:0:0:0:
256,192,14020,1,0,0:0:0:0:
256,192,14095,1,0,0:0:0:0:
256,192,14170,1,8,0:0:0:0:
256,192,14320,1,0,0:0:0:0:
256,192,14470,1,8,0:0:0:0:
256,192,14545,1,0,0:0:0:0:
256,192,14620,1,0,0:0:0:0:
256,192,14770,1,8,0:0:0:0:
256,192,14920,1,0,0:0:0:0:
256,192,14995,1,0,0:0:0:0:
256,192,15070,1,8,0:0:0:0:
256,192,15220,1,0,0:0:0:0:
256,192,15295,1,0,0:0:0:0:
256,192,15370,1,8,0:0:0:0:
256,192,15820,1,4,0:0:0:0:
256,192,15970,1,0,0:0:0:0:
256,192,16120,1,8,0:0:0:0:
256,192,16270,1,0,0:0:0:0:
256,192,16345,1,0,0:0:0:0:
256,192,16420,1,0,0:0:0:0:
256,192,16495,1,0,0:0:0:0:
256,192,16570,1,8,0:0:0:0:
256,192,16720,1,0,0:0:0:0:
256,192,16870,1,8,0:0:0:0:
256,192,17020,1,0,0:0:0:0:
256,192,17170,1,8,0:0:0:0:
256,192,17245,1,8,0:0:0:0:
256,192,17320,1,8,0:0:0:0:
256,192,17470,1,8,0:0:0:0:
256,192,17620,1,0,0:0:0:0:
256,192,17920,1,8,0:0:0:0:
256,192,18070,1,8,0:0:0:0:
256,192,18220,1,4,0:0:0:0:
256,192,18370,1,0,0:0:0:0:
256,192,18520,1,8,0:0:0:0:
256,192,18670,1,0,0:0:0:0:
256,192,18745,1,0,0:0:0:0:
256,192,18820,1,0,0:0:0:0:
256,192,18895,1,0,0:0:0:0:
256,192,18970,1,8,0:0:0:0:
256,192,19120,1,0,0:0:0:0:
256,192,19270,1,8,0:0:0:0:
256,192,19345,1,0,0:0:0:0:
256,192,19420,1,0,0:0:0:0:
256,192,19570,1,8,0:0:0:0:
256,192,19720,1,0,0:0:0:0:
256,192,19795,1,0,0:0:0:0:
256,192,19870,1,8,0:0:0:0:
256,192,20020,1,0,0:0:0:0:
256,192,20095,1,0,0:0:0:0:
256,192,20170,1,8,0:0:0:0:
256,192,20620,1,4,0:0:0:0:
256,192,20770,1,0,0:0:0:0:
256,192,20920,1,8,0:0:0:0:
256,192,21070,1,0,0:0:0:0:
256,192,21145,1,8,0:0:0:0:
256,192,21220,1,0,0:0:0:0:
256,192,21295,1,8,0:0:0:0:
256,192,21370,1,0,0:0:0:0:
256,192,21520,1,8,0:0:0:0:
256,192,21670,1,0,0:0:0:0:
256,192,21745,1,8,0:0:0:0:
256,192,21820,1,0,0:0:0:0:
256,192,21970,1,8,0:0:0:0:
256,192,22045,1,8,0:0:0:0:
256,192,22120,1,8,0:0:0:0:
256,192,22270,1,8,0:0:0:0:
256,192,22420,1,0,0:0:0:0:
256,192,22720,1,8,0:0:0:0:
256,192,22870,1,8,0:0:0:0:
256,192,23020,1,4,0:0:0:0:
256,192,23170,1,0,0:0:0:0:
256,192,23320,1,8,0:0:0:0:
256,192,23470,1,0,0:0:0:0:
256,192,23545,1,8,0:0:0:0:
256,192,23620,1,0,0:0:0:0:
256,192,23695,1,8,0:0:0:0:
256,192,23770,1,0,0:0:0:0:
256,192,23920,1,8,0:0:0:0:
256,192,24070,1,0,0:0:0:0:
256,192,24145,1,8,0:0:0:0:
256,192,24220,1,0,0:0:0:0:
256,192,24370,1,8,0:0:0:0:
256,192,24520,1,0,0:0:0:0:
256,192,24595,1,0,0:0:0:0:
256,192,24670,1,8,0:0:0:0:
256,192,24820,1,0,0:0:0:0:
256,192,24895,1,0,0:0:0:0:
256,192,24970,1,8,0:0:0:0:
256,192,25420,1,4,0:0:0:0:
256,192,25570,1,0,0:0:0:0:
256,192,25720,1,8,0:0:0:0:
256,192,25870,1,0,0:0:0:0:
256,192,25945,1,8,0:0:0:0:
256,192,26020,1,0,0:0:0:0:
256,192,26170,1,8,0:0:0:0:
256,192,26320,1,0,0:0:0:0:
256,192,26470,1,8,0:0:0:0:
256,192,26620,1,4,0:0:0:0:
256,192,26770,1,0,0:0:0:0:
256,192,26920,1,8,0:0:0:0:
256,192,27070,1,0,0:0:0:0:
256,192,27145,1,8,0:0:0:0:
256,192,27220,1,0,0:0:0:0:
256,192,27370,1,8,0:0:0:0:
256,192,27520,1,0,0:0:0:0:
256,192,27670,1,8,0:0:0:0:
256,192,27820,1,4,0:0:0:0:
256,192,27970,1,8,0:0:0:0:
256,192,28120,1,0,0:0:0:0:
256,192,28270,1,8,0:0:0:0:
256,192,28345,1,8,0:0:0:0:
256,192,28420,1,4,0:0:0:0:
256,192,28570,1,8,0:0:0:0:
256,192,28720,1,0,0:0:0:0:
256,192,28870,1,8,0:0:0:0:
256,192,29020,1,0,0:0:0:0:
256,192,29095,1,8,0:0:0:0:
256,192,29170,1,0,0:0:0:0:
256,192,29245,1,8,0:0:0:0:
256,192,29320,1,0,0:0:0:0:
256,192,29395,1,8,0:0:0:0:
256,192,29470,1,0,0:0:0:0:
256,192,29545,1,8,0:0:0:0:
256,192,29620,1,0,0:0:0:0:
256,192,29770,1,0,0:0:0:0:
256,192,29845,1,0,0:0:0:0:
256,192,29920,1,8,0:0:0:0:
256,192,29995,1,8,0:0:0:0:
256,192,30070,1,8,0:0:0:0:
256,192,30145,1,8,0:0:0:0:
256,192,30220,1,4,0:0:0:0:
256,192,32620,5,4,0:0:0:0:
256,192,35020,5,4,0:0:0:0:
256,192,37420,5,4,0:0:0:0:
256,192,39820,5,4,0:0:0:0:
256,192,39970,1,0,0:0:0:0:
256,192,40120,1,0,0:0:0:0:
256,192,40270,1,0,0:0:0:0:
256,192,40420,1,4,0:0:0:0:
256,192,40570,1,0,0:0:0:0:
256,192,40720,1,0,0:0:0:0:
256,192,40870,1,4,0:0:0:0:
256,192,41020,1,0,0:0:0:0:
256,192,41170,1,4,0:0:0:0:
256,192,41620,1,8,0:0:0:0:
256,192,41920,1,8,0:0:0:0:
256,192,42220,5,4,0:0:0:0:
256,192,42370,1,0,0:0:0:0:
256,192,42520,1,0,0:0:0:0:
256,192,42670,1,0,0:0:0:0:
256,192,42820,1,4,0:0:0:0:
256,192,42970,1,0,0:0:0:0:
256,192,43120,1,0,0:0:0:0:
256,192,43270,1,4,0:0:0:0:
256,192,43420,1,0,0:0:0:0:
256,192,43570,1,4,0:0:0:0:
256,192,44020,1,8,0:0:0:0:
256,192,44170,1,8,0:0:0:0:
256,192,44320,1,8,0:0:0:0:
256,192,44620,5,4,0:0:0:0:
256,192,44770,1,0,0:0:0:0:
256,192,44920,1,0,0:0:0:0:
256,192,45070,1,0,0:0:0:0:
256,192,45220,1,4,0:0:0:0:
256,192,45370,1,0,0:0:0:0:
256,192,45520,1,0,0:0:0:0:
256,192,45670,1,0,0:0:0:0:
256,192,45820,1,4,0:0:0:0:
256,192,46270,1,4,0:0:0:0:
256,192,46570,1,4,0:0:0:0:
256,192,47020,1,4,0:0:0:0:
256,192,47320,1,8,0:0:0:0:
256,192,47620,1,8,0:0:0:0:
256,192,48070,1,0,0:0:0:0:
256,192,48145,1,0,0:0:0:0:
256,192,48220,1,8,0:0:0:0:
256,192,48295,1,0,0:0:0:0:
256,192,48370,1,8,0:0:0:0:
256,192,48445,1,0,0:0:0:0:
256,192,48520,1,8,0:0:0:0:
256,192,48595,1,0,0:0:0:0:
256,192,48670,1,8,0:0:0:0:
256,192,48970,1,12,0:0:0:0:
256,192,49420,1,8,0:0:0:0:
256,192,49495,1,0,0:0:0:0:
256,192,49570,1,8,0:0:0:0:
256,192,49645,1,0,0:0:0:0:
256,192,49720,1,8,0:0:0:0:
256,192,49795,1,0,0:0:0:0:
256,192,49870,1,8,0:0:0:0:
256,192,49945,1,8,0:0:0:0:
256,192,50020,1,0,0:0:0:0:
256,192,50095,1,8,0:0:0:0:
256,192,50170,1,8,0:0:0:0:
256,192,50245,1,0,0:0:0:0:
256,192,50320,1,8,0:0:0:0:
256,192,50395,1,0,0:0:0:0:
256,192,50470,1,8,0:0:0:0:
256,192,50545,1,8,0:0:0:0:
256,192,50620,1,8,0:0:0:0:
256,192,50695,1,0,0:0:0:0:
256,192,50770,1,8,0:0:0:0:
256,192,50845,1,0,0:0:0:0:
256,192,50920,1,8,0:0:0:0:
256,192,50995,1,0,0:0:0:0:
256,192,51070,1,8,0:0:0:0:
256,192,51145,1,8,0:0:0:0:
256,192,51220,1,0,0:0:0:0:
256,192,51295,1,8,0:0:0:0:
256,192,51370,1,0,0:0:0:0:
256,192,51445,1,8,0:0:0:0:
256,192,51520,1,0,0:0:0:0:
256,192,51595,1,0,0:0:0:0:
256,192,51670,1,0,0:0:0:0:
256,192,51745,1,0,0:0:0:0:
256,192,51820,1,8,0:0:0:0:
256,192,51895,1,0,0:0:0:0:
256,192,51970,1,8,0:0:0:0:
256,192,52045,1,0,0:0:0:0:
256,192,52120,1,8,0:0:0:0:
256,192,52195,1,0,0:0:0:0:
256,192,52270,1,8,0:0:0:0:
256,192,52345,1,8,0:0:0:0:
256,192,52420,1,0,0:0:0:0:
256,192,52495,1,8,0:0:0:0:
256,192,52570,1,8,0:0:0:0:
256,192,52645,1,0,0:0:0:0:
256,192,52720,1,8,0:0:0:0:
256,192,52795,1,0,0:0:0:0:
256,192,52870,1,8,0:0:0:0:
256,192,52945,1,0,0:0:0:0:
256,192,53020,1,8,0:0:0:0:
256,192,53095,1,8,0:0:0:0:
256,192,53170,1,8,0:0:0:0:
256,192,53245,1,0,0:0:0:0:
256,192,53320,1,8,0:0:0:0:
256,192,53395,1,0,0:0:0:0:
256,192,53470,1,8,0:0:0:0:
256,192,53520,1,8,0:0:0:0:
256,192,53570,1,8,0:0:0:0:
256,192,53620,1,0,0:0:0:0:
256,192,53770,1,0,0:0:0:0:
256,192,53920,1,12,0:0:0:0:
256,192,54220,1,8,0:0:0:0:
256,192,54295,1,0,0:0:0:0:
256,192,54370,1,8,0:0:0:0:
256,192,54445,1,0,0:0:0:0:
256,192,54520,1,8,0:0:0:0:
256,192,54595,1,0,0:0:0:0:
256,192,54670,1,8,0:0:0:0:
256,192,54745,1,8,0:0:0:0:
256,192,54820,1,0,0:0:0:0:
256,192,54895,1,8,0:0:0:0:
256,192,54970,1,8,0:0:0:0:
256,192,55045,1,0,0:0:0:0:
256,192,55120,1,8,0:0:0:0:
256,192,55195,1,0,0:0:0:0:
256,192,55270,1,8,0:0:0:0:
256,192,55345,1,8,0:0:0:0:
256,192,55420,1,8,0:0:0:0:
256,192,55495,1,0,0:0:0:0:
256,192,55570,1,8,0:0:0:0:
256,192,55645,1,0,0:0:0:0:
256,192,55720,1,8,0:0:0:0:
256,192,55795,1,0,0:0:0:0:
256,192,55870,1,8,0:0:0:0:
256,192,55945,1,8,0:0:0:0:
256,192,56020,1,0,0:0:0:0:
256,192,56095,1,8,0:0:0:0:
256,192,56170,1,0,0:0:0:0:
256,192,56245,1,8,0:0:0:0:
256,192,56320,1,0,0:0:0:0:
256,192,56395,1,0,0:0:0:0:
256,192,56470,1,0,0:0:0:0:
256,192,56545,1,0,0:0:0:0:
256,192,56620,1,8,0:0:0:0:
256,192,56695,1,0,0:0:0:0:
256,192,56770,1,8,0:0:0:0:
256,192,56845,1,0,0:0:0:0:
256,192,56920,1,8,0:0:0:0:
256,192,56995,1,0,0:0:0:0:
256,192,57070,1,8,0:0:0:0:
256,192,57145,1,8,0:0:0:0:
256,192,57220,1,0,0:0:0:0:
256,192,57295,1,8,0:0:0:0:
256,192,57370,1,8,0:0:0:0:
256,192,57445,1,0,0:0:0:0:
256,192,57520,1,8,0:0:0:0:
256,192,57595,1,0,0:0:0:0:
256,192,57670,1,8,0:0:0:0:
256,192,57745,1,8,0:0:0:0:
256,192,57820,1,0,0:0:0:0:
256,192,57970,1,8,0:0:0:0:
256,192,58045,1,0,0:0:0:0:
256,192,58120,1,0,0:0:0:0:
256,192,58270,1,8,0:0:0:0:
256,192,58420,2,4,L|416:192,6,140
256,192,59020,1,0,0:0:0:0:
256,192,59095,1,0,0:0:0:0:
256,192,59170,1,0,0:0:0:0:
256,192,59245,1,0,0:0:0:0:
256,192,59320,1,8,0:0:0:0:
256,192,59470,1,0,0:0:0:0:
256,192,59545,1,0,0:0:0:0:
256,192,59695,1,0,0:0:0:0:
256,192,59770,1,0,0:0:0:0:
256,192,59920,1,8,0:0:0:0:
256,192,60070,1,0,0:0:0:0:
256,192,60220,1,0,0:0:0:0:
256,192,60295,1,0,0:0:0:0:
256,192,60370,1,0,0:0:0:0:
256,192,60445,1,0,0:0:0:0:
256,192,60520,1,8,0:0:0:0:
256,192,60670,1,0,0:0:0:0:
256,192,60745,1,0,0:0:0:0:
256,192,60895,1,0,0:0:0:0:
256,192,60970,1,0,0:0:0:0:
256,192,61120,1,8,0:0:0:0:
256,192,61270,1,8,0:0:0:0:
256,192,61420,1,0,0:0:0:0:
256,192,61495,1,0,0:0:0:0:
256,192,61570,1,0,0:0:0:0:
256,192,61645,1,0,0:0:0:0:
256,192,61720,1,8,0:0:0:0:
256,192,61870,1,0,0:0:0:0:
256,192,61945,1,0,0:0:0:0:
256,192,62095,1,0,0:0:0:0:
256,192,62170,1,0,0:0:0:0:
256,192,62320,1,8,0:0:0:0:
256,192,62470,1,0,0:0:0:0:
256,192,62620,1,0,0:0:0:0:
256,192,62695,1,0,0:0:0:0:
256,192,62770,1,0,0:0:0:0:
256,192,62845,1,0,0:0:0:0:
256,192,62920,1,8,0:0:0:0:
256,192,63070,1,0,0:0:0:0:
256,192,63145,1,8,0:0:0:0:
256,192,63220,1,8,0:0:0:0:
256,192,63295,1,8,0:0:0:0:
256,192,63370,1,0,0:0:0:0:
256,192,63520,1,12,0:0:0:0:
256,192,63820,1,0,0:0:0:0:
256,192,63895,1,0,0:0:0:0:
256,192,63970,1,0,0:0:0:0:
256,192,64045,1,0,0:0:0:0:
256,192,64120,1,8,0:0:0:0:
256,192,64270,1,0,0:0:0:0:
256,192,64345,1,0,0:0:0:0:
256,192,64420,1,8,0:0:0:0:
256,192,64495,1,0,0:0:0:0:
256,192,64570,1,0,0:0:0:0:
256,192,64645,1,0,0:0:0:0:
256,192,64720,1,8,0:0:0:0:
256,192,64870,1,0,0:0:0:0:
256,192,64945,1,0,0:0:0:0:
256,192,65020,1,8,0:0:0:0:
256,192,65095,1,0,0:0:0:0:
256,192,65170,1,0,0:0:0:0:
256,192,65245,1,0,0:0:0:0:
256,192,65320,1,8,0:0:0:0:
256,192,65470,1,0,0:0:0:0:
256,192,65545,1,0,0:0:0:0:
256,192,65620,1,8,0:0:0:0:
256,192,65695,1,0,0:0:0:0:
256,192,65770,1,0,0:0:0:0:
256,192,65845,1,0,0:0:0:0:
256,192,65920,1,8,0:0:0:0:
256,192,66070,1,0,0:0:0:0:
256,192,66145,1,0,0:0:0:0:
256,192,66220,1,8,0:0:0:0:
256,192,66295,1,0,0:0:0:0:
256,192,66370,1,0,0:0:0:0:
256,192,66445,1,0,0:0:0:0:
256,192,66520,1,8,0:0:0:0:
256,192,66595,1,0,0:0:0:0:
256,192,66670,1,0,0:0:0:0:
256,192,66745,1,0,0:0:0:0:
256,192,66820,1,8,0:0:0:0:
256,192,66895,1,0,0:0:0:0:
256,192,66970,1,0,0:0:0:0:
256,192,67045,1,0,0:0:0:0:
256,192,67120,1,8,0:0:0:0:
256,192,67195,1,0,0:0:0:0:
256,192,67270,1,0,0:0:0:0:
256,192,67345,1,0,0:0:0:0:
256,192,67420,1,0,0:0:0:0:
256,192,67720,1,0,0:0:0:0:
256,192,68020,1,0,0:0:0:0:
256,192,68320,1,12,0:0:0:0:
256,192,68620,1,0,0:0:0:0:
256,192,68695,1,0,0:0:0:0:
256,192,68770,1,0,0:0:0:0:
256,192,68845,1,0,0:0:0:0:
256,192,68920,1,8,0:0:0:0:
256,192,69070,1,0,0:0:0:0:
256,192,69145,1,0,0:0:0:0:
256,192,69295,1,8,0:0:0:0:
256,192,69370,1,0,0:0:0:0:
256,192,69445,1,0,0:0:0:0:
256,192,69520,1,8,0:0:0:0:
256,192,69670,1,0,0:0:0:0:
256,192,69820,1,0,0:0:0:0:
256,192,69895,1,0,0:0:0:0:
256,192,69970,1,0,0:0:0:0:
256,192,70045,1,0,0:0:0:0:
256,192,70120,1,8,0:0:0:0:
256,192,70270,1,0,0:0:0:0:
256,192,70345,1,0,0:0:0:0:
256,192,70495,1,8,0:0:0:0:
256,192,70570,1,0,0:0:0:0:
256,192,70720,1,12,0:0:0:0:
256,192,71020,1,0,0:0:0:0:
256,192,71095,1,0,0:0:0:0:
256,192,71170,1,0,0:0:0:0:
256,192,71245,1,0,0:0:0:0:
256,192,71320,1,8,0:0:0:0:
256,192,71470,1,0,0:0:0:0:
256,192,71545,1,0,0:0:0:0:
256,192,71695,1,8,0:0:0:0:
256,192,71770,1,0,0:0:0:0:
256,192,71845,1,0,0:0:0:0:
256,192,71920,1,8,0:0:0:0:
256,192,72070,1,0,0:0:0:0:
256,192,72220,1,0,0:0:0:0:
256,192,72295,1,0,0:0:0:0:
256,192,72370,1,0,0:0:0:0:
256,192,72445,1,0,0:0:0:0:
256,192,72520,1,8,0:0:0:0:
256,192,72670,1,0,0:0:0:0:
256,192,72745,1,0,0:0:0:0:
256,192,72820,1,8,0:0:0:0:
256,192,72970,1,0,0:0:0:0:
256,192,73045,1,0,0:0:0:0:
256,192,73120,1,8,0:0:0:0:
256,192,73270,1,8,0:0:0:0:
256,192,73420,1,0,0:0:0:0:
256,192,73495,1,0,0:0:0:0:
256,192,73570,1,0,0:0:0:0:
256,192,73645,1,0,0:0:0:0:
256,192,73720,1,8,0:0:0:0:
256,192,73870,1,0,0:0:0:0:
256,192,73945,1,0,0:0:0:0:
256,192,74095,1,8,0:0:0:0:
256,192,74170,1,0,0:0:0:0:
256,192,74245,1,0,0:0:0:0:
256,192,74320,1,8,0:0:0:0:
256,192,74470,1,0,0:0:0:0:
256,192,74620,1,0,0:0:0:0:
256,192,74695,1,0,0:0:0:0:
256,192,74770,1,0,0:0:0:0:
256,192,74845,1,0,0:0:0:0:
256,192,74920,1,8,0:0:0:0:
256,192,75070,1,0,0:0:0:0:
256,192,75145,1,0,0:0:0:0:
256,192,75295,1,8,0:0:0:0:
256,192,75370,1,0,0:0:0:0:
256,192,75520,1,12,0:0:0:0:
256,192,75820,1,0,0:0:0:0:
256,192,75895,1,0,0:0:0:0:
256,192,75970,1,0,0:0:0:0:
256,192,76045,1,0,0:0:0:0:
256,192,76120,1,8,0:0:0:0:
256,192,76270,1,0,0:0:0:0:
256,192,76345,1,0,0:0:0:0:
256,192,76495,1,8,0:0:0:0:
256,192,76570,1,0,0:0:0:0:
256,192,76645,1,0,0:0:0:0:
256,192,76720,1,8,0:0:0:0:
256,192,76870,1,0,0:0:0:0:
256,192,77020,2,0,L|432:192,3,175
256,192,77620,1,8,0:0:0:0:
256,192,77695,1,8,0:0:0:0:
256,192,77845,1,8,0:0:0:0:
256,192,77920,1,8,0:0:0:0:
256,192,78070,1,8,0:0:0:0:
256,192,78220,1,0,0:0:0:0:
256,192,78295,1,8,0:0:0:0:
256,192,78370,1,8,0:0:0:0:
256,192,78445,1,8,0:0:0:0:
256,192,78520,1,0,0:0:0:0:
256,192,78670,1,8,0:0:0:0:
256,192,78745,1,8,0:0:0:0:
256,192,78820,1,0,0:0:0:0:
256,192,78895,1,8,0:0:0:0:
256,192,79045,1,8,0:0:0:0:
256,192,79120,1,0,0:0:0:0:
256,192,79270,1,8,0:0:0:0:
256,192,79420,1,0,0:0:0:0:
256,192,79495,1,8,0:0:0:0:
256,192,79570,1,8,0:0:0:0:
256,192,79645,1,8,0:0:0:0:
256,192,79720,1,0,0:0:0:0:
256,192,79870,1,8,0:0:0:0:
256,192,79945,1,8,0:0:0:0:
256,192,80020,1,0,0:0:0:0:
256,192,80095,1,8,0:0:0:0:
256,192,80170,1,8,0:0:0:0:
256,192,80320,1,4,0:0:0:0:
256,192,80620,1,0,0:0:0:0:
256,192,80695,1,8,0:0:0:0:
256,192,80770,1,8,0:0:0:0:
256,192,80845,1,8,0:0:0:0:
256,192,80920,1,0,0:0:0:0:
256,192,81070,1,8,0:0:0:0:
256,192,81145,1,8,0:0:0:0:
256,192,81220,1,0,0:0:0:0:
256,192,81295,1,8,0:0:0:0:
256,192,81445,1,8,0:0:0:0:
256,192,81520,1,0,0:0:0:0:
256,192,81670,1,8,0:0:0:0:
256,192,81820,1,0,0:0:0:0:
256,192,81895,1,8,0:0:0:0:
256,192,81970,1,0,0:0:0:0:
256,192,82045,1,8,0:0:0:0:
256,192,82120,1,0,0:0:0:0:
256,192,82270,1,8,0:0:0:0:
256,192,82345,1,8,0:0:0:0:
256,192,82420,1,0,0:0:0:0:
256,192,82570,1,8,0:0:0:0:
256,192,82645,1,8,0:0:0:0:
256,192,82720,1,0,0:0:0:0:
256,192,82870,1,8,0:0:0:0:
256,192,83020,1,0,0:0:0:0:
256,192,83095,1,8,0:0:0:0:
256,192,83170,1,8,0:0:0:0:
256,192,83245,1,8,0:0:0:0:
256,192,83320,1,0,0:0:0:0:
256,192,83470,1,8,0:0:0:0:
256,192,83545,1,8,0:0:0:0:
256,192,83620,1,0,0:0:0:0:
256,192,83695,1,8,0:0:0:0:
256,192,83845,1,8,0:0:0:0:
256,192,83920,1,0,0:0:0:0:
256,192,84070,1,8,0:0:0:0:
256,192,84220,1,0,0:0:0:0:
256,192,84295,1,8,0:0:0:0:
256,192,84370,1,8,0:0:0:0:
256,192,84445,1,8,0:0:0:0:
256,192,84520,1,0,0:0:0:0:
256,192,84670,1,8,0:0:0:0:
256,192,84745,1,8,0:0:0:0:
256,192,84820,1,0,0:0:0:0:
256,192,84895,1,8,0:0:0:0:
256,192,84970,1,8,0:0:0:0:
256,192,85120,1,4,0:0:0:0:
256,192,85420,1,0,0:0:0:0:
256,192,85495,1,8,0:0:0:0:
256,192,85570,1,8,0:0:0:0:
256,192,85645,1,8,0:0:0:0:
256,192,85720,1,0,0:0:0:0:
256,192,85870,1,8,0:0:0:0:
256,192,85945,1,8,0:0:0:0:
256,192,86020,1,0,0:0:0:0:
256,192,86095,1,8,0:0:0:0:
256,192,86245,1,8,0:0:0:0:
256,192,86320,1,0,0:0:0:0:
256,192,86470,1,8,0:0:0:0:
256,192,86620,1,4,0:0:0:0:
256,192,86770,1,12,0:0:0:0:
256,192,86920,1,4,0:0:0:0:
256,192,87070,1,12,0:0:0:0:
256,192,87220,1,4,0:0:0:0:
256,192,87520,12,0,87670,0:0:0:0:
256,192,87820,5,0,0:0:0:0:
256,192,87895,1,0,0:0:0:0:
256,192,87970,1,0,0:0:0:0:
256,192,88045,1,0,0:0:0:0:
256,192,88120,1,8,0:0:0:0:
256,192,88270,1,0,0:0:0:0:
256,192,88345,1,0,0:0:0:0:
256,192,88420,1,8,0:0:0:0:
256,192,88495,1,0,0:0:0:0:
256,192,88570,1,0,0:0:0:0:
256,192,88645,1,0,0:0:0:0:
256,192,88720,1,8,0:0:0:0:
256,192,88870,1,0,0:0:0:0:
256,192,89020,2,0,L|368:192,5,83.9999974365235
256,192,89920,1,8,0:0:0:0:
256,192,89995,1,8,0:0:0:0:
256,192,90070,1,8,0:0:0:0:
256,192,90145,1,8,0:0:0:0:
256,192,90220,1,0,0:0:0:0:
256,192,90295,1,0,0:0:0:0:
256,192,90370,1,0,0:0:0:0:
256,192,90445,1,0,0:0:0:0:
256,192,90520,1,8,0:0:0:0:
256,192,90670,1,0,0:0:0:0:
256,192,90745,1,0,0:0:0:0:
256,192,90820,1,8,0:0:0:0:
256,192,90895,1,0,0:0:0:0:
256,192,90970,1,0,0:0:0:0:
256,192,91045,1,0,0:0:0:0:
256,192,91120,1,8,0:0:0:0:
256,192,91270,1,0,0:0:0:0:
256,192,91420,1,0,0:0:0:0:
256,192,91495,1,0,0:0:0:0:
256,192,91570,1,0,0:0:0:0:
256,192,91645,1,0,0:0:0:0:
256,192,91720,1,8,0:0:0:0:
256,192,91870,1,0,0:0:0:0:
256,192,91945,1,0,0:0:0:0:
256,192,92020,1,8,0:0:0:0:
256,192,92170,1,0,0:0:0:0:
256,192,92245,1,0,0:0:0:0:
256,192,92320,1,8,0:0:0:0:
256,192,92470,1,8,0:0:0:0:
256,192,92620,1,0,0:0:0:0:
256,192,92695,1,0,0:0:0:0:
256,192,92770,1,0,0:0:0:0:
256,192,92845,1,0,0:0:0:0:
256,192,92920,1,8,0:0:0:0:
256,192,93070,1,0,0:0:0:0:
256,192,93145,1,0,0:0:0:0:
256,192,93220,1,8,0:0:0:0:
256,192,93295,1,0,0:0:0:0:
256,192,93370,1,0,0:0:0:0:
256,192,93445,1,0,0:0:0:0:
256,192,93520,1,8,0:0:0:0:
256,192,93670,1,0,0:0:0:0:
256,192,93820,1,0,0:0:0:0:
256,192,93970,1,8,0:0:0:0:
256,192,94045,1,0,0:0:0:0:
256,192,94120,1,0,0:0:0:0:
256,192,94270,1,8,0:0:0:0:
256,192,94320,1,8,0:0:0:0:
256,192,94370,1,8,0:0:0:0:
256,192,94420,1,0,0:0:0:0:
256,192,94495,1,0,0:0:0:0:
256,192,94570,1,0,0:0:0:0:
256,192,94645,1,0,0:0:0:0:
256,192,94720,1,0,0:0:0:0:
256,192,94870,1,8,0:0:0:0:
256,192,95020,1,0,0:0:0:0:
256,192,95095,1,0,0:0:0:0:
256,192,95170,1,0,0:0:0:0:
256,192,95245,1,0,0:0:0:0:
256,192,95320,1,8,0:0:0:0:
256,192,95470,1,0,0:0:0:0:
256,192,95545,1,0,0:0:0:0:
256,192,95620,1,8,0:0:0:0:
256,192,95695,1,0,0:0:0:0:
256,192,95770,1,0,0:0:0:0:
256,192,95845,1,0,0:0:0:0:
256,192,95920,1,8,0:0:0:0:
256,192,96070,1,0,0:0:0:0:
256,192,96220,1,4,0:0:0:0:
256,192,96520,1,12,0:0:0:0:
256,192,96820,1,4,0:0:0:0:
256,192,96970,1,8,0:0:0:0:
256,192,97120,1,8,0:0:0:0:
256,192,97270,1,8,0:0:0:0:
256,192,97420,1,0,0:0:0:0:
256,192,97495,1,0,0:0:0:0:
256,192,97570,1,0,0:0:0:0:
256,192,97645,1,0,0:0:0:0:
256,192,97720,1,8,0:0:0:0:
256,192,97870,1,0,0:0:0:0:
256,192,97945,1,0,0:0:0:0:
256,192,98095,1,8,0:0:0:0:
256,192,98170,1,0,0:0:0:0:
256,192,98320,1,8,0:0:0:0:
256,192,98470,1,0,0:0:0:0:
256,192,98620,1,0,0:0:0:0:
256,192,98695,1,0,0:0:0:0:
256,192,98770,1,0,0:0:0:0:
256,192,98845,1,0,0:0:0:0:
256,192,98920,1,8,0:0:0:0:
256,192,99070,1,0,0:0:0:0:
256,192,99145,1,0,0:0:0:0:
256,192,99295,1,8,0:0:0:0:
256,192,99370,1,0,0:0:0:0:
256,192,99520,1,12,0:0:0:0:
256,192,99820,1,0,0:0:0:0:
256,192,99895,1,0,0:0:0:0:
256,192,99970,1,0,0:0:0:0:
256,192,100045,1,0,0:0:0:0:
256,192,100120,1,8,0:0:0:0:
256,192,100270,1,0,0:0:0:0:
256,192,100345,1,0,0:0:0:0:
256,192,100495,1,8,0:0:0:0:
256,192,100570,1,0,0:0:0:0:
256,192,100720,1,8,0:0:0:0:
256,192,100870,1,0,0:0:0:0:
256,192,101020,1,0,0:0:0:0:
256,192,101095,1,0,0:0:0:0:
256,192,101170,1,0,0:0:0:0:
256,192,101245,1,0,0:0:0:0:
256,192,101320,1,8,0:0:0:0:
256,192,101470,1,0,0:0:0:0:
256,192,101545,1,0,0:0:0:0:
256,192,101620,1,8,0:0:0:0:
256,192,101770,1,0,0:0:0:0:
256,192,101845,1,0,0:0:0:0:
256,192,101920,1,8,0:0:0:0:
256,192,102070,1,8,0:0:0:0:
256,192,102220,1,0,0:0:0:0:
256,192,102295,1,0,0:0:0:0:
256,192,102370,1,0,0:0:0:0:
256,192,102445,1,0,0:0:0:0:
256,192,102520,1,8,0:0:0:0:
256,192,102670,1,0,0:0:0:0:
256,192,102745,1,0,0:0:0:0:
256,192,102820,1,8,0:0:0:0:
256,192,102895,1,0,0:0:0:0:
256,192,102970,1,0,0:0:0:0:
256,192,103045,1,0,0:0:0:0:
256,192,103120,1,8,0:0:0:0:
256,192,103270,1,0,0:0:0:0:
256,192,103345,1,0,0:0:0:0:
256,192,103420,1,8,0:0:0:0:
256,192,103495,1,0,0:0:0:0:
256,192,103570,1,0,0:0:0:0:
256,192,103645,1,0,0:0:0:0:
256,192,103720,1,8,0:0:0:0:
256,192,103870,1,0,0:0:0:0:
256,192,103945,1,0,0:0:0:0:
256,192,104020,1,8,0:0:0:0:
256,192,104095,1,0,0:0:0:0:
256,192,104170,1,0,0:0:0:0:
256,192,104245,1,0,0:0:0:0:
256,192,104320,1,8,0:0:0:0:
256,192,104470,1,0,0:0:0:0:
256,192,104545,1,0,0:0:0:0:
256,192,104620,1,8,0:0:0:0:
256,192,104695,1,0,0:0:0:0:
256,192,104770,1,0,0:0:0:0:
256,192,104845,1,0,0:0:0:0:
256,192,104920,1,8,0:0:0:0:
256,192,104995,1,0,0:0:0:0:
256,192,105070,1,0,0:0:0:0:
256,192,105145,1,0,0:0:0:0:
256,192,105220,1,8,0:0:0:0:
256,192,105295,1,0,0:0:0:0:
256,192,105370,1,0,0:0:0:0:
256,192,105445,1,0,0:0:0:0:
256,192,105520,1,8,0:0:0:0:
256,192,105595,1,0,0:0:0:0:
256,192,105670,1,0,0:0:0:0:
256,192,105745,1,0,0:0:0:0:
256,192,105820,1,0,0:0:0:0:
256,192,106120,1,0,0:0:0:0:
256,192,106420,1,0,0:0:0:0:
256,192,106720,1,12,0:0:0:0:
256,192,107020,1,4,0:0:0:0:
256,192,107320,1,8,0:0:0:0:
256,192,107620,1,8,0:0:0:0:
256,192,107770,1,8,0:0:0:0:
256,192,108070,1,8,0:0:0:0:
256,192,108370,1,8,0:0:0:0:
256,192,108520,1,8,0:0:0:0:
256,192,108820,1,8,0:0:0:0:
256,192,109120,1,8,0:0:0:0:
256,192,109270,1,8,0:0:0:0:
256,192,109420,1,8,0:0:0:0:
256,192,109720,1,8,0:0:0:0:
256,192,109870,2,0,L|304:192,9,41.9999987182618
256,192,111820,1,0,0:0:0:0:
256,192,112120,1,8,0:0:0:0:
256,192,112420,1,8,0:0:0:0:
256,192,112570,1,8,0:0:0:0:
256,192,112870,1,8,0:0:0:0:
256,192,113170,1,8,0:0:0:0:
256,192,113320,1,8,0:0:0:0:
256,192,113620,1,8,0:0:0:0:
256,192,113920,1,8,0:0:0:0:
256,192,114220,1,8,0:0:0:0:
256,192,114370,1,8,0:0:0:0:
256,192,114520,1,8,0:0:0:0:
256,192,114670,2,8,L|304:192,9,41.9999987182618
256,192,116620,5,8,0:0:0:0:
256,192,116920,1,8,0:0:0:0:
256,192,117220,1,8,0:0:0:0:
256,192,117370,1,0,0:0:0:0:
256,192,117520,1,8,0:0:0:0:
256,192,117820,1,8,0:0:0:0:
256,192,118120,1,8,0:0:0:0:
256,192,118420,1,8,0:0:0:0:
256,192,118720,1,8,0:0:0:0:
256,192,118870,1,0,0:0:0:0:
256,192,119020,1,8,0:0:0:0:
256,192,119320,1,8,0:0:0:0:
256,192,119620,1,8,0:0:0:0:
256,192,119770,1,0,0:0:0:0:
256,192,119920,1,8,0:0:0:0:
256,192,120070,1,0,0:0:0:0:
256,192,120220,1,8,0:0:0:0:
256,192,120520,1,8,0:0:0:0:
256,192,120820,1,8,0:0:0:0:
256,192,121120,1,8,0:0:0:0:
256,192,121270,1,0,0:0:0:0:
256,192,121420,1,8,0:0:0:0:
256,192,121570,1,0,0:0:0:0:
256,192,121645,1,0,0:0:0:0:
256,192,121720,1,8,0:0:0:0:
256,192,121870,1,0,0:0:0:0:
256,192,122020,1,8,0:0:0:0:
256,192,122170,1,0,0:0:0:0:
256,192,122220,1,0,0:0:0:0:
256,192,122270,1,0,0:0:0:0:
256,192,122320,1,8,0:0:0:0:
256,192,122470,1,0,0:0:0:0:
256,192,122620,1,8,0:0:0:0:
256,192,122770,1,0,0:0:0:0:
256,192,122845,1,0,0:0:0:0:
256,192,122920,1,8,0:0:0:0:
256,192,123070,1,0,0:0:0:0:
256,192,123145,1,0,0:0:0:0:
256,192,123220,1,8,0:0:0:0:
256,192,123370,1,0,0:0:0:0:
256,192,123445,1,0,0:0:0:0:
256,192,123520,1,8,0:0:0:0:
256,192,123670,1,0,0:0:0:0:
256,192,123820,1,8,0:0:0:0:
256,192,123895,1,0,0:0:0:0:
256,192,123970,1,0,0:0:0:0:
256,192,124045,1,0,0:0:0:0:
256,192,124120,1,8,0:0:0:0:
256,192,124195,1,0,0:0:0:0:
256,192,124270,1,0,0:0:0:0:
256,192,124345,1,0,0:0:0:0:
256,192,124420,1,8,0:0:0:0:
256,192,124495,1,0,0:0:0:0:
256,192,124570,1,0,0:0:0:0:
256,192,124645,1,0,0:0:0:0:
256,192,124720,1,8,0:0:0:0:
256,192,124795,1,8,0:0:0:0:
256,192,124870,1,8,0:0:0:0:
256,192,124945,1,8,0:0:0:0:
256,192,125020,1,0,0:0:0:0:
256,192,125320,1,0,0:0:0:0:
256,192,125620,1,0,0:0:0:0:
256,192,125920,1,12,0:0:0:0:
256,192,126220,1,0,0:0:0:0:
256,192,126295,1,0,0:0:0:0:
256,192,126370,1,0,0:0:0:0:
256,192,126520,1,8,0:0:0:0:
256,192,126670,1,0,0:0:0:0:
256,192,126820,1,8,0:0:0:0:
256,192,126895,1,0,0:0:0:0:
256,192,127045,1,0,0:0:0:0:
256,192,127120,1,8,0:0:0:0:
256,192,127270,1,0,0:0:0:0:
256,192,127420,1,0,0:0:0:0:
256,192,127495,1,0,0:0:0:0:
256,192,127570,1,0,0:0:0:0:
256,192,127720,1,8,0:0:0:0:
256,192,127870,1,0,0:0:0:0:
256,192,128020,1,8,0:0:0:0:
256,192,128095,1,8,0:0:0:0:
256,192,128245,1,0,0:0:0:0:
256,192,128320,1,8,0:0:0:0:
256,192,128470,1,8,0:0:0:0:
256,192,128620,1,0,0:0:0:0:
256,192,128695,1,0,0:0:0:0:
256,192,128770,1,0,0:0:0:0:
256,192,128920,1,8,0:0:0:0:
256,192,129070,1,0,0:0:0:0:
256,192,129220,1,8,0:0:0:0:
256,192,129295,1,0,0:0:0:0:
256,192,129445,1,0,0:0:0:0:
256,192,129520,1,8,0:0:0:0:
256,192,129670,1,0,0:0:0:0:
256,192,129820,1,0,0:0:0:0:
256,192,129895,1,0,0:0:0:0:
256,192,129970,1,0,0:0:0:0:
256,192,130120,1,8,0:0:0:0:
256,192,130270,1,0,0:0:0:0:
256,192,130420,1,8,0:0:0:0:
256,192,130495,1,8,0:0:0:0:
256,192,130645,1,8,0:0:0:0:
256,192,130720,1,0,0:0:0:0:
256,192,131020,1,0,0:0:0:0:
256,192,131095,1,0,0:0:0:0:
256,192,131170,1,0,0:0:0:0:
256,192,131320,1,8,0:0:0:0:
256,192,131470,1,0,0:0:0:0:
256,192,131620,1,8,0:0:0:0:
256,192,131695,1,0,0:0:0:0:
256,192,131845,1,0,0:0:0:0:
256,192,131920,1,8,0:0:0:0:
256,192,132070,1,0,0:0:0:0:
256,192,132220,1,0,0:0:0:0:
256,192,132295,1,0,0:0:0:0:
256,192,132370,1,0,0:0:0:0:
256,192,132520,1,8,0:0:0:0:
256,192,132670,1,0,0:0:0:0:
256,192,132820,1,8,0:0:0:0:
256,192,132895,1,8,0:0:0:0:
256,192,133045,1,0,0:0:0:0:
256,192,133120,1,8,0:0:0:0:
256,192,133270,1,8,0:0:0:0:
256,192,133420,1,0,0:0:0:0:
256,192,133495,1,0,0:0:0:0:
256,192,133570,1,0,0:0:0:0:
256,192,133720,1,8,0:0:0:0:
256,192,133870,1,0,0:0:0:0:
256,192,134020,1,8,0:0:0:0:
256,192,134095,1,0,0:0:0:0:
256,192,134245,1,0,0:0:0:0:
256,192,134320,1,8,0:0:0:0:
256,192,134470,1,0,0:0:0:0:
256,192,134620,1,12,0:0:0:0:
256,192,134845,1,12,0:0:0:0:
256,192,135070,1,12,0:0:0:0:
256,192,135220,1,8,0:0:0:0:
256,192,135370,1,8,0:0:0:0:
256,192,135520,1,0,0:0:0:0:
256,192,135670,1,8,0:0:0:0:
256,192,135820,1,0,0:0:0:0:
256,192,135895,1,0,0:0:0:0:
256,192,135970,1,8,0:0:0:0:
256,192,136045,1,8,0:0:0:0:
256,192,136120,1,0,0:0:0:0:
256,192,136270,1,0,0:0:0:0:
256,192,136420,1,8,0:0:0:0:
256,192,136495,1,8,0:0:0:0:
256,192,136645,1,0,0:0:0:0:
256,192,136720,1,0,0:0:0:0:
256,192,136870,1,8,0:0:0:0:
256,192,137020,1,0,0:0:0:0:
256,192,137095,1,0,0:0:0:0:
256,192,137170,1,8,0:0:0:0:
256,192,137245,1,8,0:0:0:0:
256,192,137320,1,0,0:0:0:0:
256,192,137470,1,0,0:0:0:0:
256,192,137620,1,8,0:0:0:0:
256,192,137695,1,8,0:0:0:0:
256,192,137845,1,0,0:0:0:0:
256,192,137920,1,8,0:0:0:0:
256,192,138070,1,8,0:0:0:0:
256,192,138220,1,0,0:0:0:0:
256,192,138295,1,0,0:0:0:0:
256,192,138370,1,8,0:0:0:0:
256,192,138445,1,8,0:0:0:0:
256,192,138520,1,0,0:0:0:0:
256,192,138670,1,0,0:0:0:0:
256,192,138820,1,8,0:0:0:0:
256,192,138895,1,8,0:0:0:0:
256,192,139045,1,0,0:0:0:0:
256,192,139120,1,0,0:0:0:0:
256,192,139270,1,8,0:0:0:0:
256,192,139420,1,0,0:0:0:0:
256,192,139495,1,0,0:0:0:0:
256,192,139570,1,8,0:0:0:0:
256,192,139645,1,8,0:0:0:0:
256,192,139720,1,0,0:0:0:0:
256,192,139870,1,0,0:0:0:0:
256,192,140020,1,8,0:0:0:0:
256,192,140095,1,8,0:0:0:0:
256,192,140245,1,8,0:0:0:0:
256,192,140320,1,0,0:0:0:0:
256,192,140620,1,0,0:0:0:0:
256,192,140695,1,0,0:0:0:0:
256,192,140770,1,8,0:0:0:0:
256,192,140845,1,8,0:0:0:0:
256,192,140920,1,0,0:0:0:0:
256,192,141070,1,0,0:0:0:0:
256,192,141220,1,8,0:0:0:0:
256,192,141295,1,8,0:0:0:0:
256,192,141445,1,0,0:0:0:0:
256,192,141520,1,0,0:0:0:0:
256,192,141670,1,8,0:0:0:0:
256,192,141820,1,0,0:0:0:0:
256,192,141895,1,0,0:0:0:0:
256,192,141970,1,8,0:0:0:0:
256,192,142045,1,8,0:0:0:0:
256,192,142120,1,0,0:0:0:0:
256,192,142270,1,0,0:0:0:0:
256,192,142420,1,8,0:0:0:0:
256,192,142495,1,8,0:0:0:0:
256,192,142645,1,0,0:0:0:0:
256,192,142720,1,8,0:0:0:0:
256,192,142870,1,8,0:0:0:0:
256,192,143020,1,0,0:0:0:0:
256,192,143095,1,0,0:0:0:0:
256,192,143170,1,8,0:0:0:0:
256,192,143245,1,8,0:0:0:0:
256,192,143320,1,0,0:0:0:0:
256,192,143470,1,0,0:0:0:0:
256,192,143620,1,8,0:0:0:0:
256,192,143695,1,8,0:0:0:0:
256,192,143845,1,0,0:0:0:0:
256,192,143920,1,0,0:0:0:0:
256,192,144070,1,8,0:0:0:0:
256,192,144220,1,0,0:0:0:0:
256,192,144445,1,0,0:0:0:0:
256,192,144670,1,0,0:0:0:0:
256,192,144820,1,8,0:0:0:0:
256,192,145120,1,0,0:0:0:0:
256,192,145170,1,0,0:0:0:0:
256,192,145220,1,0,0:0:0:0:
256,192,145270,1,0,0:0:0:0:
256,192,145320,1,0,0:0:0:0:
256,192,145370,1,0,0:0:0:0:
256,192,145420,1,0,0:0:0:0:
256,192,145570,1,0,0:0:0:0:
256,192,145720,1,8,0:0:0:0:
256,192,145870,1,0,0:0:0:0:
256,192,145945,1,8,0:0:0:0:
256,192,146020,1,0,0:0:0:0:
256,192,146170,1,8,0:0:0:0:
256,192,146320,1,0,0:0:0:0:
256,192,146395,1,0,0:0:0:0:
256,192,146470,1,8,0:0:0:0:
256,192,146620,1,0,0:0:0:0:
256,192,146770,1,8,0:0:0:0:
256,192,146845,1,8,0:0:0:0:
256,192,146920,1,0,0:0:0:0:
256,192,147070,1,8,0:0:0:0:
256,192,147145,1,8,0:0:0:0:
256,192,147220,1,0,0:0:0:0:
256,192,147370,1,8,0:0:0:0:
256,192,147520,1,0,0:0:0:0:
256,192,147670,1,8,0:0:0:0:
256,192,147820,1,8,0:0:0:0:
256,192,147970,1,0,0:0:0:0:
256,192,148045,1,0,0:0:0:0:
256,192,148120,1,8,0:0:0:0:
256,192,148270,1,0,0:0:0:0:
256,192,148345,1,8,0:0:0:0:
256,192,148420,1,0,0:0:0:0:
256,192,148495,1,8,0:0:0:0:
256,192,148570,1,0,0:0:0:0:
256,192,148720,1,8,0:0:0:0:
256,192,148870,1,8,0:0:0:0:
256,192,148945,1,8,0:0:0:0:
256,192,149020,1,0,0:0:0:0:
256,192,149170,1,12,0:0:0:0:
256,192,149320,1,0,0:0:0:0:
256,192,149470,1,12,0:0:0:0:
256,192,149620,1,0,0:0:0:0:
256,192,149770,1,12,0:0:0:0:
256,192,149920,1,12,0:0:0:0:
256,192,150070,1,8,0:0:0:0:
256,192,150145,1,8,0:0:0:0:
256,192,150220,1,0,0:0:0:0:
256,192,150370,1,0,0:0:0:0:
256,192,150520,1,8,0:0:0:0:
256,192,150670,1,0,0:0:0:0:
256,192,150745,1,8,0:0:0:0:
256,192,150820,1,0,0:0:0:0:
256,192,150970,1,8,0:0:0:0:
256,192,151120,1,0,0:0:0:0:
256,192,151195,1,0,0:0:0:0:
256,192,151270,1,8,0:0:0:0:
256,192,151420,1,0,0:0:0:0:
256,192,151570,1,8,0:0:0:0:
256,192,151645,1,8,0:0:0:0:
256,192,151720,1,0,0:0:0:0:
256,192,151870,1,8,0:0:0:0:
256,192,151945,1,8,0:0:0:0:
256,192,152020,1,0,0:0:0:0:
256,192,152170,1,0,0:0:0:0:
256,192,152320,1,8,0:0:0:0:
256,192,152470,1,8,0:0:0:0:
256,192,152620,1,0,0:0:0:0:
256,192,152695,1,0,0:0:0:0:
256,192,152770,1,8,0:0:0:0:
256,192,152845,1,8,0:0:0:0:
256,192,152920,1,0,0:0:0:0:
256,192,153070,1,8,0:0:0:0:
256,192,153145,1,0,0:0:0:0:
256,192,153220,1,0,0:0:0:0:
256,192,153370,1,0,0:0:0:0:
256,192,153520,1,8,0:0:0:0:
256,192,153670,1,0,0:0:0:0:
256,192,153820,1,12,0:0:0:0:
256,192,154045,1,12,0:0:0:0:
256,192,154270,1,12,0:0:0:0:
256,192,154420,2,4,L|400:192,4,140
256,192,155020,1,4,0:0:0:0:
256,192,155170,1,0,0:0:0:0:
256,192,155320,1,8,0:0:0:0:
256,192,155470,1,0,0:0:0:0:
256,192,155545,1,8,0:0:0:0:
256,192,155620,1,0,0:0:0:0:
256,192,155770,1,8,0:0:0:0:
256,192,155920,1,0,0:0:0:0:
256,192,155995,1,0,0:0:0:0:
256,192,156070,1,8,0:0:0:0:
256,192,156220,1,0,0:0:0:0:
256,192,156370,1,8,0:0:0:0:
256,192,156445,1,8,0:0:0:0:
256,192,156520,1,0,0:0:0:0:
256,192,156670,1,8,0:0:0:0:
256,192,156745,1,8,0:0:0:0:
256,192,156820,1,0,0:0:0:0:
256,192,156970,1,8,0:0:0:0:
256,192,157120,1,0,0:0:0:0:
256,192,157270,1,8,0:0:0:0:
256,192,157420,1,8,0:0:0:0:
256,192,157570,1,0,0:0:0:0:
256,192,157645,1,0,0:0:0:0:
256,192,157720,1,8,0:0:0:0:
256,192,157870,1,0,0:0:0:0:
256,192,157945,1,8,0:0:0:0:
256,192,158020,1,0,0:0:0:0:
256,192,158095,1,8,0:0:0:0:
256,192,158170,1,0,0:0:0:0:
256,192,158320,1,8,0:0:0:0:
256,192,158470,1,8,0:0:0:0:
256,192,158545,1,8,0:0:0:0:
256,192,158620,1,0,0:0:0:0:
256,192,158770,1,12,0:0:0:0:
256,192,158920,1,0,0:0:0:0:
256,192,159070,1,12,0:0:0:0:
256,192,159220,1,0,0:0:0:0:
256,192,159370,1,12,0:0:0:0:
256,192,159520,1,12,0:0:0:0:
256,192,159670,1,8,0:0:0:0:
256,192,159745,1,8,0:0:0:0:
256,192,159820,1,0,0:0:0:0:
256,192,159970,1,8,0:0:0:0:
256,192,160120,1,0,0:0:0:0:
256,192,160270,1,8,0:0:0:0:
256,192,160345,1,8,0:0:0:0:
256,192,160420,1,0,0:0:0:0:
256,192,160570,1,8,0:0:0:0:
256,192,160720,1,0,0:0:0:0:
256,192,160870,1,8,0:0:0:0:
256,192,160945,1,0,0:0:0:0:
256,192,161020,1,8,0:0:0:0:
256,192,161170,1,8,0:0:0:0:
256,192,161320,1,0,0:0:0:0:
256,192,161395,1,0,0:0:0:0:
256,192,161470,1,8,0:0:0:0:
256,192,161620,1,0,0:0:0:0:
256,192,161695,1,0,0:0:0:0:
256,192,161770,1,8,0:0:0:0:
256,192,161920,1,0,0:0:0:0:
256,192,162070,1,8,0:0:0:0:
256,192,162145,1,8,0:0:0:0:
256,192,162220,1,0,0:0:0:0:
256,192,162295,1,8,0:0:0:0:
256,192,162370,1,8,0:0:0:0:
256,192,162445,1,8,0:0:0:0:
256,192,162520,1,0,0:0:0:0:
256,192,162595,1,8,0:0:0:0:
256,192,162670,1,8,0:0:0:0:
256,192,162745,1,8,0:0:0:0:
256,192,162820,1,0,0:0:0:0:
256,192,162895,1,8,0:0:0:0:
256,192,162970,1,8,0:0:0:0:
256,192,163045,1,8,0:0:0:0:
256,192,163120,1,0,0:0:0:0:
256,192,163195,1,8,0:0:0:0:
256,192,163270,1,8,0:0:0:0:
256,192,163345,1,8,0:0:0:0:
256,192,163420,1,0,0:0:0:0:
256,192,163720,1,0,0:0:0:0:
256,192,164020,1,0,0:0:0:0:
256,192,164320,1,12,0:0:0:0:
256,192,164620,5,4,0:0:0:0:
256,192,164920,1,0,0:0:0:0:
256,192,165070,1,8,0:0:0:0:
256,192,165220,1,0,0:0:0:0:
256,192,165295,1,8,0:0:0:0:
256,192,165370,1,8,0:0:0:0:
256,192,165520,1,0,0:0:0:0:
256,192,165670,1,8,0:0:0:0:
256,192,165970,1,8,0:0:0:0:
256,192,166120,1,8,0:0:0:0:
256,192,166270,1,8,0:0:0:0:
256,192,166420,1,0,0:0:0:0:
256,192,166720,1,12,0:0:0:0:
256,192,167020,1,4,0:0:0:0:
256,192,167320,1,0,0:0:0:0:
256,192,167470,1,8,0:0:0:0:
256,192,167620,1,0,0:0:0:0:
256,192,167695,1,8,0:0:0:0:
256,192,167770,1,8,0:0:0:0:
256,192,167920,1,0,0:0:0:0:
256,192,168070,1,8,0:0:0:0:
256,192,168370,1,8,0:0:0:0:
256,192,168520,1,0,0:0:0:0:
256,192,168595,1,0,0:0:0:0:
256,192,168670,1,8,0:0:0:0:
256,192,168820,1,0,0:0:0:0:
256,192,168895,1,0,0:0:0:0:
256,192,168970,1,8,0:0:0:0:
256,192,169420,1,4,0:0:0:0:
256,192,169720,1,0,0:0:0:0:
256,192,169870,1,8,0:0:0:0:
256,192,170020,1,0,0:0:0:0:
256,192,170095,1,8,0:0:0:0:
256,192,170170,1,8,0:0:0:0:
256,192,170320,1,0,0:0:0:0:
256,192,170470,1,8,0:0:0:0:
256,192,170770,1,8,0:0:0:0:
256,192,170920,1,8,0:0:0:0:
256,192,171070,1,8,0:0:0:0:
256,192,171220,1,0,0:0:0:0:
256,192,171520,1,8,0:0:0:0:
256,192,171670,1,8,0:0:0:0:
256,192,171820,1,4,0:0:0:0:
256,192,172120,1,0,0:0:0:0:
256,192,172270,1,8,0:0:0:0:
256,192,172420,1,0,0:0:0:0:
256,192,172495,1,8,0:0:0:0:
256,192,172570,1,8,0:0:0:0:
256,192,172720,1,0,0:0:0:0:
256,192,172870,1,8,0:0:0:0:
256,192,173170,1,8,0:0:0:0:
256,192,173320,1,0,0:0:0:0:
256,192,173395,1,0,0:0:0:0:
256,192,173470,1,8,0:0:0:0:
256,192,173620,1,0,0:0:0:0:
256,192,173695,1,0,0:0:0:0:
256,192,173770,1,8,0:0:0:0:
256,192,174220,1,0,0:0:0:0:
256,192,174295,1,0,0:0:0:0:
256,192,174370,1,0,0:0:0:0:
256,192,174445,1,0,0:0:0:0:
256,192,174520,1,8,0:0:0:0:
256,192,174670,1,0,0:0:0:0:
256,192,174745,1,0,0:0:0:0:
256,192,174895,1,0,0:0:0:0:
256,192,174970,1,0,0:0:0:0:
256,192,175120,1,8,0:0:0:0:
256,192,175270,1,0,0:0:0:0:
256,192,175420,1,0,0:0:0:0:
256,192,175495,1,0,0:0:0:0:
256,192,175570,1,0,0:0:0:0:
256,192,175645,1,0,0:0:0:0:
256,192,175720,1,8,0:0:0:0:
256,192,175870,1,0,0:0:0:0:
256,192,175945,1,0,0:0:0:0:
256,192,176095,1,0,0:0:0:0:
256,192,176170,1,0,0:0:0:0:
256,192,176320,1,8,0:0:0:0:
256,192,176470,1,8,0:0:0:0:
256,192,176620,1,0,0:0:0:0:
256,192,176695,1,0,0:0:0:0:
256,192,176770,1,0,0:0:0:0:
256,192,176845,1,0,0:0:0:0:
256,192,176920,1,8,0:0:0:0:
256,192,177070,1,0,0:0:0:0:
256,192,177145,1,0,0:0:0:0:
256,192,177295,1,0,0:0:0:0:
256,192,177370,1,0,0:0:0:0:
256,192,177520,1,8,0:0:0:0:
256,192,177670,1,0,0:0:0:0:
256,192,177820,1,0,0:0:0:0:
256,192,177895,1,0,0:0:0:0:
256,192,177970,1,0,0:0:0:0:
256,192,178045,1,0,0:0:0:0:
256,192,178120,1,8,0:0:0:0:
256,192,178270,1,0,0:0:0:0:
256,192,178345,1,8,0:0:0:0:
256,192,178420,1,8,0:0:0:0:
256,192,178495,1,8,0:0:0:0:
256,192,178570,1,0,0:0:0:0:
256,192,178720,1,12,0:0:0:0:
256,192,179020,1,0,0:0:0:0:
256,192,179095,1,0,0:0:0:0:
256,192,179170,1,0,0:0:0:0:
256,192,179245,1,0,0:0:0:0:
256,192,179320,1,8,0:0:0:0:
256,192,179470,1,0,0:0:0:0:
256,192,179545,1,0,0:0:0:0:
256,192,179620,1,8,0:0:0:0:
256,192,179695,1,0,0:0:0:0:
256,192,179770,1,0,0:0:0:0:
256,192,179845,1,0,0:0:0:0:
256,192,179920,1,8,0:0:0:0:
256,192,180070,1,0,0:0:0:0:
256,192,180145,1,0,0:0:0:0:
256,192,180220,1,8,0:0:0:0:
256,192,180295,1,0,0:0:0:0:
256,192,180370,1,0,0:0:0:0:
256,192,180445,1,0,0:0:0:0:
256,192,180520,1,8,0:0:0:0:
256,192,180670,1,0,0:0:0:0:
256,192,180745,1,0,0:0:0:0:
256,192,180820,1,8,0:0:0:0:
256,192,180895,1,0,0:0:0:0:
256,192,180970,1,0,0:0:0:0:
256,192,181045,1,0,0:0:0:0:
256,192,181120,1,8,0:0:0:0:
256,192,181270,1,0,0:0:0:0:
256,192,181345,1,0,0:0:0:0:
256,192,181420,1,8,0:0:0:0:
256,192,181495,1,0,0:0:0:0:
256,192,181570,1,0,0:0:0:0:
256,192,181645,1,0,0:0:0:0:
256,192,181720,1,8,0:0:0:0:
256,192,181795,1,0,0:0:0:0:
256,192,181870,1,0,0:0:0:0:
256,192,181945,1,0,0:0:0:0:
256,192,182020,1,8,0:0:0:0:
256,192,182095,1,0,0:0:0:0:
256,192,182170,1,0,0:0:0:0:
256,192,182245,1,0,0:0:0:0:
256,192,182320,1,8,0:0:0:0:
256,192,182395,1,0,0:0:0:0:
256,192,182470,1,0,0:0:0:0:
256,192,182545,1,0,0:0:0:0:
256,192,182620,1,0,0:0:0:0:
256,192,182920,1,8,0:0:0:0:
256,192,183220,1,0,0:0:0:0:
256,192,183320,1,0,0:0:0:0:
256,192,183420,1,0,0:0:0:0:
256,192,183820,1,12,0:0:0:0:
256,192,184120,1,0,0:0:0:0:
256,192,184420,2,0,L|288:192,11,28
256,192,186220,1,0,0:0:0:0:
256,192,186295,1,0,0:0:0:0:
256,192,186370,1,0,0:0:0:0:
256,192,186445,1,0,0:0:0:0:
256,192,186520,1,8,0:0:0:0:
256,192,186670,1,0,0:0:0:0:
256,192,186745,1,0,0:0:0:0:
256,192,186895,1,8,0:0:0:0:
256,192,186970,1,0,0:0:0:0:
256,192,187045,1,0,0:0:0:0:
256,192,187120,1,8,0:0:0:0:
256,192,187270,1,0,0:0:0:0:
256,192,187420,1,8,0:0:0:0:
256,192,187495,1,0,0:0:0:0:
256,192,187570,1,0,0:0:0:0:
256,192,187645,1,8,0:0:0:0:
256,192,187720,1,0,0:0:0:0:
256,192,187870,1,0,0:0:0:0:
256,192,187945,1,0,0:0:0:0:
256,192,188020,1,8,0:0:0:0:
256,192,188170,1,0,0:0:0:0:
256,192,188245,1,0,0:0:0:0:
256,192,188320,1,8,0:0:0:0:
256,192,188470,1,0,0:0:0:0:
256,192,188620,1,12,0:0:0:0:
256,192,188920,1,0,0:0:0:0:
256,192,189220,2,0,L|288:192,11,28
256,192,191020,1,0,0:0:0:0:
256,192,191095,1,0,0:0:0:0:
256,192,191170,1,0,0:0:0:0:
256,192,191245,1,0,0:0:0:0:
256,192,191320,1,8,0:0:0:0:
256,192,191470,1,0,0:0:0:0:
256,192,191545,1,0,0:0:0:0:
256,192,191695,1,8,0:0:0:0:
256,192,191770,1,0,0:0:0:0:
256,192,191845,1,0,0:0:0:0:
256,192,191920,1,8,0:0:0:0:
256,192,192070,1,0,0:0:0:0:
256,192,192220,1,8,0:0:0:0:
256,192,192295,1,0,0:0:0:0:
256,192,192370,1,0,0:0:0:0:
256,192,192445,1,8,0:0:0:0:
256,192,192520,1,0,0:0:0:0:
256,192,192670,1,0,0:0:0:0:
256,192,192745,1,0,0:0:0:0:
256,192,192820,1,8,0:0:0:0:
256,192,192895,1,8,0:0:0:0:
256,192,193045,1,8,0:0:0:0:
256,192,193120,1,8,0:0:0:0:
256,192,193270,1,8,0:0:0:0:
256,192,193420,1,12,0:0:0:0:
256,192,193720,1,0,0:0:0:0:
256,192,194020,2,0,L|288:192,11,28
256,192,195820,1,0,0:0:0:0:
256,192,195895,1,0,0:0:0:0:
256,192,195970,1,0,0:0:0:0:
256,192,196045,1,0,0:0:0:0:
256,192,196120,1,8,0:0:0:0:
256,192,196270,1,0,0:0:0:0:
256,192,196345,1,0,0:0:0:0:
256,192,196495,1,8,0:0:0:0:
256,192,196570,1,0,0:0:0:0:
256,192,196645,1,0,0:0:0:0:
256,192,196720,1,8,0:0:0:0:
256,192,196870,1,0,0:0:0:0:
256,192,197020,1,8,0:0:0:0:
256,192,197095,1,0,0:0:0:0:
256,192,197170,1,0,0:0:0:0:
256,192,197245,1,8,0:0:0:0:
256,192,197320,1,0,0:0:0:0:
256,192,197470,1,0,0:0:0:0:
256,192,197545,1,0,0:0:0:0:
256,192,197620,1,8,0:0:0:0:
256,192,197770,1,0,0:0:0:0:
256,192,197845,1,0,0:0:0:0:
256,192,197920,1,8,0:0:0:0:
256,192,198070,1,0,0:0:0:0:
256,192,198220,1,12,0:0:0:0:
256,192,198520,1,0,0:0:0:0:
256,192,198820,1,8,0:0:0:0:
256,192,198970,1,0,0:0:0:0:
256,192,199045,1,0,0:0:0:0:
256,192,199120,1,0,0:0:0:0:
256,192,199270,1,0,0:0:0:0:
256,192,199420,1,12,0:0:0:0:
256,192,199720,1,0,0:0:0:0:
256,192,200020,1,8,0:0:0:0:
256,192,200170,1,0,0:0:0:0:
256,192,200245,1,0,0:0:0:0:
256,192,200320,1,0,0:0:0:0:
256,192,200470,1,0,0:0:0:0:
256,192,200620,1,8,0:0:0:0:
256,192,200695,1,8,0:0:0:0:
256,192,200770,1,0,0:0:0:0:
256,192,200845,1,0,0:0:0:0:
256,192,200920,1,8,0:0:0:0:
256,192,200995,1,0,0:0:0:0:
256,192,201070,1,8,0:0:0:0:
256,192,201145,1,8,0:0:0:0:
256,192,201220,1,0,0:0:0:0:
256,192,201295,1,8,0:0:0:0:
256,192,201370,1,0,0:0:0:0:
256,192,201445,1,0,0:0:0:0:
256,192,201520,1,8,0:0:0:0:
256,192,201595,1,8,0:0:0:0:
256,192,201670,1,8,0:0:0:0:
256,192,201745,1,8,0:0:0:0:
256,192,201820,1,0,0:0:0:0:
256,192,202020,1,8,0:0:0:0:
256,192,202420,1,4,0:0:0:0:
256,192,202520,1,4,0:0:0:0:
256,192,202620,1,4,0:0:0:0:
256,192,202720,1,4,0:0:0:0:
256,192,203020,1,0,0:0:0:0:
256,192,203095,1,0,0:0:0:0:
256,192,203170,1,0,0:0:0:0:
256,192,203245,1,0,0:0:0:0:
256,192,203320,1,8,0:0:0:0:
256,192,203470,1,0,0:0:0:0:
256,192,203545,1,0,0:0:0:0:
256,192,203695,1,8,0:0:0:0:
256,192,203770,1,0,0:0:0:0:
256,192,203845,1,0,0:0:0:0:
256,192,203920,1,8,0:0:0:0:
256,192,204070,1,0,0:0:0:0:
256,192,204220,1,0,0:0:0:0:
256,192,204295,1,0,0:0:0:0:
256,192,204370,1,0,0:0:0:0:
256,192,204445,1,0,0:0:0:0:
256,192,204520,1,8,0:0:0:0:
256,192,204670,1,0,0:0:0:0:
256,192,204745,1,0,0:0:0:0:
256,192,204895,1,8,0:0:0:0:
256,192,204970,1,0,0:0:0:0:
256,192,205120,1,12,0:0:0:0:
256,192,205420,1,0,0:0:0:0:
256,192,205495,1,0,0:0:0:0:
256,192,205570,1,0,0:0:0:0:
256,192,205645,1,0,0:0:0:0:
256,192,205720,1,8,0:0:0:0:
256,192,205870,1,0,0:0:0:0:
256,192,205945,1,0,0:0:0:0:
256,192,206095,1,8,0:0:0:0:
256,192,206170,1,0,0:0:0:0:
256,192,206245,1,0,0:0:0:0:
256,192,206320,1,8,0:0:0:0:
256,192,206470,1,0,0:0:0:0:
256,192,206620,1,0,0:0:0:0:
256,192,206695,1,0,0:0:0:0:
256,192,206770,1,0,0:0:0:0:
256,192,206845,1,0,0:0:0:0:
256,192,206920,1,8,0:0:0:0:
256,192,207070,1,0,0:0:0:0:
256,192,207145,1,0,0:0:0:0:
256,192,207220,1,8,0:0:0:0:
256,192,207370,1,0,0:0:0:0:
256,192,207445,1,0,0:0:0:0:
256,192,207520,1,8,0:0:0:0:
256,192,207670,1,8,0:0:0:0:
256,192,207820,1,0,0:0:0:0:
256,192,207895,1,0,0:0:0:0:
256,192,207970,1,0,0:0:0:0:
256,192,208045,1,0,0:0:0:0:
256,192,208120,1,8,0:0:0:0:
256,192,208270,1,0,0:0:0:0:
256,192,208345,1,0,0:0:0:0:
256,192,208495,1,8,0:0:0:0:
256,192,208570,1,0,0:0:0:0:
256,192,208645,1,0,0:0:0:0:
256,192,208720,1,8,0:0:0:0:
256,192,208870,1,0,0:0:0:0:
256,192,209020,1,0,0:0:0:0:
256,192,209095,1,0,0:0:0:0:
256,192,209170,1,0,0:0:0:0:
256,192,209245,1,0,0:0:0:0:
256,192,209320,1,8,0:0:0:0:
256,192,209470,1,0,0:0:0:0:
256,192,209545,1,0,0:0:0:0:
256,192,209695,1,8,0:0:0:0:
256,192,209770,1,0,0:0:0:0:
256,192,209920,1,12,0:0:0:0:
256,192,210220,1,0,0:0:0:0:
256,192,210295,1,0,0:0:0:0:
256,192,210370,1,0,0:0:0:0:
256,192,210445,1,0,0:0:0:0:
256,192,210520,1,8,0:0:0:0:
256,192,210670,1,0,0:0:0:0:
256,192,210745,1,0,0:0:0:0:
256,192,210895,1,8,0:0:0:0:
256,192,210970,1,0,0:0:0:0:
256,192,211045,1,0,0:0:0:0:
256,192,211120,1,8,0:0:0:0:
256,192,211270,1,0,0:0:0:0:
256,192,211420,2,0,L|432:192,3,175
256,192,212020,1,8,0:0:0:0:
256,192,212095,1,8,0:0:0:0:
256,192,212245,5,8,0:0:0:0:
256,192,212320,1,8,0:0:0:0:
256,192,212470,1,8,0:0:0:0:
256,192,212620,5,0,0:0:0:0:
256,192,212695,1,0,0:0:0:0:
256,192,212770,1,0,0:0:0:0:
256,192,212845,1,0,0:0:0:0:
256,192,212920,1,8,0:0:0:0:
256,192,213070,1,0,0:0:0:0:
256,192,213145,1,0,0:0:0:0:
256,192,213295,1,8,0:0:0:0:
256,192,213370,1,0,0:0:0:0:
256,192,213520,1,8,0:0:0:0:
256,192,213670,1,0,0:0:0:0:
256,192,213820,1,0,0:0:0:0:
256,192,213895,1,0,0:0:0:0:
256,192,213970,1,0,0:0:0:0:
256,192,214045,1,0,0:0:0:0:
256,192,214120,1,8,0:0:0:0:
256,192,214270,1,0,0:0:0:0:
256,192,214345,1,0,0:0:0:0:
256,192,214495,1,8,0:0:0:0:
256,192,214570,1,0,0:0:0:0:
256,192,214720,1,12,0:0:0:0:
256,192,215020,1,0,0:0:0:0:
256,192,215095,1,0,0:0:0:0:
256,192,215170,1,0,0:0:0:0:
256,192,215245,1,0,0:0:0:0:
256,192,215320,1,8,0:0:0:0:
256,192,215470,1,0,0:0:0:0:
256,192,215545,1,0,0:0:0:0:
256,192,215695,1,8,0:0:0:0:
256,192,215770,1,0,0:0:0:0:
256,192,215920,1,8,0:0:0:0:
256,192,216070,1,0,0:0:0:0:
256,192,216220,1,0,0:0:0:0:
256,192,216295,1,0,0:0:0:0:
256,192,216370,1,0,0:0:0:0:
256,192,216445,1,0,0:0:0:0:
256,192,216520,1,8,0:0:0:0:
256,192,216670,1,0,0:0:0:0:
256,192,216745,1,0,0:0:0:0:
256,192,216820,1,8,0:0:0:0:
256,192,216970,1,0,0:0:0:0:
256,192,217045,1,0,0:0:0:0:
256,192,217120,1,8,0:0:0:0:
256,192,217270,1,8,0:0:0:0:
256,192,217420,1,0,0:0:0:0:
256,192,217495,1,0,0:0:0:0:
256,192,217570,1,0,0:0:0:0:
256,192,217645,1,0,0:0:0:0:
256,192,217720,1,8,0:0:0:0:
256,192,217870,1,0,0:0:0:0:
256,192,217945,1,0,0:0:0:0:
256,192,218020,1,8,0:0:0:0:
256,192,218095,1,0,0:0:0:0:
256,192,218170,1,0,0:0:0:0:
256,192,218245,1,0,0:0:0:0:
256,192,218320,1,8,0:0:0:0:
256,192,218470,1,0,0:0:0:0:
256,192,218545,1,0,0:0:0:0:
256,192,218620,1,8,0:0:0:0:
256,192,218695,1,0,0:0:0:0:
256,192,218770,1,0,0:0:0:0:
256,192,218845,1,0,0:0:0:0:
256,192,218920,1,8,0:0:0:0:
256,192,219070,1,0,0:0:0:0:
256,192,219145,1,0,0:0:0:0:
256,192,219220,1,8,0:0:0:0:
256,192,219295,1,0,0:0:0:0:
256,192,219370,1,0,0:0:0:0:
256,192,219445,1,0,0:0:0:0:
256,192,219520,1,8,0:0:0:0:
256,192,219670,1,0,0:0:0:0:
256,192,219745,1,0,0:0:0:0:
256,192,219820,1,8,0:0:0:0:
256,192,219895,1,0,0:0:0:0:
256,192,219970,1,0,0:0:0:0:
256,192,220045,1,0,0:0:0:0:
256,192,220120,1,8,0:0:0:0:
256,192,220195,1,0,0:0:0:0:
256,192,220270,1,0,0:0:0:0:
256,192,220345,1,0,0:0:0:0:
256,192,220420,1,8,0:0:0:0:
256,192,220495,1,0,0:0:0:0:
256,192,220570,1,0,0:0:0:0:
256,192,220645,1,0,0:0:0:0:
256,192,220720,1,8,0:0:0:0:
256,192,220795,1,0,0:0:0:0:
256,192,220870,1,0,0:0:0:0:
256,192,220945,1,0,0:0:0:0:
256,192,221020,1,0,0:0:0:0:
256,192,221320,1,0,0:0:0:0:
256,192,221620,1,0,0:0:0:0:
256,192,221920,1,12,0:0:0:0:
256,192,222220,1,0,0:0:0:0:
256,192,222295,1,0,0:0:0:0:
256,192,222370,1,0,0:0:0:0:
256,192,222445,1,0,0:0:0:0:
256,192,222520,1,8,0:0:0:0:
256,192,222670,1,0,0:0:0:0:
256,192,222745,1,0,0:0:0:0:
256,192,222895,1,8,0:0:0:0:
256,192,222970,1,0,0:0:0:0:
256,192,223045,1,0,0:0:0:0:
256,192,223120,1,8,0:0:0:0:
256,192,223195,1,8,0:0:0:0:
256,192,223270,1,0,0:0:0:0:
256,192,223420,1,8,0:0:0:0:
256,192,223570,1,8,0:0:0:0:
256,192,223720,2,0,L|352:192,3,83.9999974365235
256,192,224320,1,8,0:0:0:0:
256,192,224395,1,8,0:0:0:0:
256,192,224470,1,8,0:0:0:0:
256,192,224545,1,8,0:0:0:0:
256,192,224620,1,0,0:0:0:0:
256,192,224695,1,0,0:0:0:0:
256,192,224770,1,0,0:0:0:0:
256,192,224845,1,0,0:0:0:0:
256,192,224920,1,8,0:0:0:0:
256,192,225070,1,0,0:0:0:0:
256,192,225145,1,0,0:0:0:0:
256,192,225220,1,8,0:0:0:0:
256,192,225295,1,0,0:0:0:0:
256,192,225370,1,0,0:0:0:0:
256,192,225445,1,0,0:0:0:0:
256,192,225520,1,8,0:0:0:0:
256,192,225670,1,0,0:0:0:0:
256,192,225820,1,0,0:0:0:0:
256,192,225895,1,0,0:0:0:0:
256,192,225970,1,0,0:0:0:0:
256,192,226045,1,0,0:0:0:0:
256,192,226120,1,8,0:0:0:0:
256,192,226270,1,0,0:0:0:0:
256,192,226345,1,0,0:0:0:0:
256,192,226420,1,8,0:0:0:0:
256,192,226570,1,0,0:0:0:0:
256,192,226645,1,0,0:0:0:0:
256,192,226720,1,8,0:0:0:0:
256,192,226870,1,8,0:0:0:0:
256,192,227020,1,0,0:0:0:0:
256,192,227095,1,0,0:0:0:0:
256,192,227170,1,0,0:0:0:0:
256,192,227245,1,0,0:0:0:0:
256,192,227320,1,8,0:0:0:0:
256,192,227470,1,0,0:0:0:0:
256,192,227545,1,0,0:0:0:0:
256,192,227695,1,8,0:0:0:0:
256,192,227770,1,0,0:0:0:0:
256,192,227845,1,0,0:0:0:0:
256,192,227920,1,8,0:0:0:0:
256,192,227995,1,8,0:0:0:0:
256,192,228070,1,0,0:0:0:0:
256,192,228220,1,0,0:0:0:0:
256,192,228295,1,0,0:0:0:0:
256,192,228370,1,0,0:0:0:0:
256,192,228445,1,0,0:0:0:0:
256,192,228520,1,8,0:0:0:0:
256,192,228670,1,0,0:0:0:0:
256,192,228745,1,0,0:0:0:0:
256,192,228895,1,8,0:0:0:0:
256,192,228970,1,0,0:0:0:0:
256,192,229120,1,12,0:0:0:0:
256,192,229420,1,0,0:0:0:0:
256,192,229495,1,0,0:0:0:0:
256,192,229570,1,0,0:0:0:0:
256,192,229645,1,0,0:0:0:0:
256,192,229720,1,8,0:0:0:0:
256,192,229870,1,0,0:0:0:0:
256,192,229945,1,0,0:0:0:0:
256,192,230020,1,8,0:0:0:0:
256,192,230095,1,0,0:0:0:0:
256,192,230170,1,0,0:0:0:0:
256,192,230245,1,0,0:0:0:0:
256,192,230320,1,8,0:0:0:0:
256,192,230470,1,0,0:0:0:0:
256,192,230620,1,0,0:0:0:0:
256,192,230695,1,0,0:0:0:0:
256,192,230770,1,0,0:0:0:0:
256,192,230845,1,0,0:0:0:0:
256,192,230920,1,8,0:0:0:0:
256,192,231070,1,0,0:0:0:0:
256,192,231220,1,12,0:0:0:0:
256,192,231320,1,12,0:0:0:0:
256,192,231420,1,12,0:0:0:0:
256,192,231520,1,12,0:0:0:0:
256,192,231820,1,0,0:0:0:0:
256,192,231895,1,8,0:0:0:0:
256,192,231970,1,8,0:0:0:0:
256,192,232045,1,8,0:0:0:0:
256,192,232120,1,0,0:0:0:0:
256,192,232270,1,8,0:0:0:0:
256,192,232345,1,8,0:0:0:0:
256,192,232420,1,0,0:0:0:0:
256,192,232495,1,8,0:0:0:0:
256,192,232645,1,8,0:0:0:0:
256,192,232720,1,0,0:0:0:0:
256,192,232870,1,8,0:0:0:0:
256,192,233020,1,0,0:0:0:0:
256,192,233095,1,8,0:0:0:0:
256,192,233170,1,8,0:0:0:0:
256,192,233245,1,8,0:0:0:0:
256,192,233320,1,0,0:0:0:0:
256,192,233470,1,8,0:0:0:0:
256,192,233545,1,8,0:0:0:0:
256,192,233620,1,0,0:0:0:0:
256,192,233695,1,8,0:0:0:0:
256,192,233770,1,8,0:0:0:0:
256,192,233920,1,4,0:0:0:0:
256,192,234220,1,0,0:0:0:0:
256,192,234295,1,8,0:0:0:0:
256,192,234370,1,8,0:0:0:0:
256,192,234445,1,8,0:0:0:0:
256,192,234520,1,0,0:0:0:0:
256,192,234670,1,8,0:0:0:0:
256,192,234745,1,8,0:0:0:0:
256,192,234820,1,0,0:0:0:0:
256,192,234895,1,8,0:0:0:0:
256,192,235045,1,8,0:0:0:0:
256,192,235120,1,0,0:0:0:0:
256,192,235270,1,8,0:0:0:0:
256,192,235420,1,0,0:0:0:0:
256,192,235495,1,8,0:0:0:0:
256,192,235570,1,8,0:0:0:0:
256,192,235645,1,8,0:0:0:0:
256,192,235720,1,0,0:0:0:0:
256,192,235870,1,8,0:0:0:0:
256,192,235945,1,8,0:0:0:0:
256,192,236020,1,0,0:0:0:0:
256,192,236170,1,8,0:0:0:0:
256,192,236245,1,8,0:0:0:0:
256,192,236320,1,0,0:0:0:0:
256,192,236470,1,8,0:0:0:0:
256,192,236620,1,0,0:0:0:0:
256,192,236695,1,8,0:0:0:0:
256,192,236770,1,8,0:0:0:0:
256,192,236845,1,8,0:0:0:0:
256,192,236920,1,0,0:0:0:0:
256,192,237070,1,8,0:0:0:0:
256,192,237145,1,8,0:0:0:0:
256,192,237220,1,0,0:0:0:0:
256,192,237295,1,8,0:0:0:0:
256,192,237370,1,8,0:0:0:0:
256,192,237445,1,8,0:0:0:0:
256,192,237520,1,0,0:0:0:0:
256,192,237670,1,8,0:0:0:0:
256,192,237745,1,8,0:0:0:0:
256,192,237820,1,0,0:0:0:0:
256,192,237895,1,8,0:0:0:0:
256,192,237970,1,8,0:0:0:0:
256,192,238045,1,8,0:0:0:0:
256,192,238120,1,0,0:0:0:0:
256,192,238270,1,8,0:0:0:0:
256,192,238345,1,8,0:0:0:0:
256,192,238420,1,0,0:0:0:0:
256,192,238495,1,8,0:0:0:0:
256,192,238570,1,8,0:0:0:0:
256,192,238645,1,8,0:0:0:0:
256,192,238720,1,0,0:0:0:0:
256,192,238870,1,8,0:0:0:0:
256,192,238945,1,8,0:0:0:0:
256,192,239020,1,0,0:0:0:0:
256,192,239095,1,8,0:0:0:0:
256,192,239170,1,8,0:0:0:0:
256,192,239245,1,8,0:0:0:0:
256,192,239320,1,0,0:0:0:0:
256,192,239395,1,8,0:0:0:0:
256,192,239470,1,8,0:0:0:0:
256,192,239545,1,8,0:0:0:0:
256,192,239620,1,0,0:0:0:0:
256,192,239695,1,8,0:0:0:0:
256,192,239770,1,8,0:0:0:0:
256,192,239845,1,8,0:0:0:0:
256,192,239920,1,0,0:0:0:0:
256,192,239995,1,8,0:0:0:0:
256,192,240070,1,8,0:0:0:0:
256,192,240145,1,8,0:0:0:0:
256,192,240220,1,0,0:0:0:0:
256,192,240520,1,0,0:0:0:0:
256,192,240820,1,0,0:0:0:0:
256,192,241120,1,12,0:0:0:0:
256,192,241420,12,0,243820,0:0:0:0:
