osu file format v14

[General]
AudioFilename: audio.mp3
AudioLeadIn: 0
PreviewTime: 75542
Countdown: 0
SampleSet: Normal
StackLeniency: 0.7
Mode: 3
LetterboxInBreaks: 0
SpecialStyle: 0
WidescreenStoryboard: 1

[Editor]
DistanceSpacing: 0.8
BeatDivisor: 4
GridSize: 32
TimelineZoom: 3.099999

[Metadata]
Title:Make Magic
TitleUnicode:Make Magic
Artist:Lite Show Magic
ArtistUnicode:Lite Show Magic
Creator:Virtue-
Version:NOVICE
Source:SOUND VOLTEX IV HEAVENLY HAVEN
Tags:sdvx 4 C-Show t+pazolite The 6th KAC Original Song Contest fresh chicken mentholzzz
BeatmapID:1217825
BeatmapSetID:574750

[Difficulty]
HPDrainRate:7
CircleSize:4
OverallDifficulty:7
ApproachRate:5
SliderMultiplier:1.4
SliderTickRate:1

[Events]
//Background and Video events
0,0,"imagebinary.jpg",0,0
//Break Periods
//Storyboard Layer 0 (Background)
//Storyboard Layer 1 (Fail)
//Storyboard Layer 2 (Pass)
//Storyboard Layer 3 (Foreground)
//Storyboard Sound Samples

[TimingPoints]
1521,260.869565217391,4,1,0,20,1,0
26564,-100,4,1,0,20,0,1
42216,-100,4,1,0,20,0,0
76651,-100,4,1,0,20,0,1
92303,-100,4,1,0,20,0,0

[HitObjects]
448,192,1521,128,0,2564:0:0:0:0:
192,192,2564,128,0,3607:0:0:0:0:
64,192,3607,128,0,4651:0:0:0:0:
320,192,4651,128,0,5173:0:0:0:0:
192,192,5694,128,0,6738:0:0:0:0:
320,192,6738,128,0,7781:0:0:0:0:
448,192,7781,128,0,8825:0:0:0:0:
192,192,8825,128,0,9868:0:0:0:0:
64,192,9868,128,0,10912:0:0:0:0:
320,192,10912,128,0,11955:0:0:0:0:
448,192,11955,128,0,12999:0:0:0:0:
192,192,12999,128,0,14042:0:0:0:0:
64,192,14042,128,0,15216:0:0:0:0:
320,192,15216,128,0,16129:0:0:0:0:
64,192,16129,128,0,17434:0:0:0:0:
448,192,17434,128,0,18216:0:0:0:0:
64,192,18216,1,0,0:0:0:0:
320,192,18477,1,0,0:0:0:0:
64,192,18738,1,0,0:0:0:0:
320,192,18999,1,0,0:0:0:0:
64,192,19260,1,0,0:0:0:0:
320,192,19520,1,0,0:0:0:0:
64,192,19781,1,0,0:0:0:0:
320,192,20042,1,0,0:0:0:0:
448,192,20303,1,0,0:0:0:0:
192,192,20564,1,0,0:0:0:0:
448,192,20825,1,0,0:0:0:0:
192,192,21086,1,0,0:0:0:0:
448,192,21347,1,0,0:0:0:0:
192,192,21607,1,0,0:0:0:0:
448,192,21868,1,0,0:0:0:0:
192,192,22129,1,0,0:0:0:0:
448,192,22390,128,0,24216:0:0:0:0:
64,192,23434,128,0,24216:0:0:0:0:
192,192,24216,1,0,0:0:0:0:
320,192,24477,1,0,0:0:0:0:
320,192,24607,1,0,0:0:0:0:
64,192,24868,1,0,0:0:0:0:
192,192,25129,1,0,0:0:0:0:
448,192,25260,128,0,25520:0:0:0:0:
64,192,25520,128,0,26564:0:0:0:0:
448,192,26564,128,0,28651:0:0:0:0:
64,192,26825,1,0,0:0:0:0:
320,192,27086,1,0,0:0:0:0:
64,192,27347,1,0,0:0:0:0:
320,192,27607,1,0,0:0:0:0:
64,192,27868,1,0,0:0:0:0:
320,192,28129,1,0,0:0:0:0:
64,192,28390,1,0,0:0:0:0:
192,192,28651,128,0,30216:0:0:0:0:
448,192,28912,1,0,0:0:0:0:
64,192,29173,1,0,0:0:0:0:
448,192,29434,1,0,0:0:0:0:
64,192,29694,1,0,0:0:0:0:
448,192,29955,1,0,0:0:0:0:
64,192,30216,128,0,30347:0:0:0:0:
448,192,30477,128,0,30607:0:0:0:0:
64,192,30738,128,0,32825:0:0:0:0:
448,192,30999,1,0,0:0:0:0:
192,192,31260,1,0,0:0:0:0:
448,192,31520,1,0,0:0:0:0:
192,192,31781,1,0,0:0:0:0:
448,192,32042,1,0,0:0:0:0:
192,192,32303,1,0,0:0:0:0:
448,192,32564,1,0,0:0:0:0:
320,192,32825,128,0,33868:0:0:0:0:
64,192,33086,1,0,0:0:0:0:
448,192,33347,1,0,0:0:0:0:
192,192,33607,1,0,0:0:0:0:
64,192,33868,128,0,34912:0:0:0:0:
448,192,34912,128,0,36999:0:0:0:0:
64,192,35173,1,0,0:0:0:0:
320,192,35434,1,0,0:0:0:0:
64,192,35694,1,0,0:0:0:0:
320,192,35955,1,0,0:0:0:0:
64,192,36216,1,0,0:0:0:0:
320,192,36477,1,0,0:0:0:0:
64,192,36738,1,0,0:0:0:0:
192,192,36999,128,0,38564:0:0:0:0:
448,192,37260,1,0,0:0:0:0:
64,192,37520,1,0,0:0:0:0:
448,192,37781,1,0,0:0:0:0:
64,192,38042,1,0,0:0:0:0:
448,192,38303,1,0,0:0:0:0:
64,192,38564,128,0,38694:0:0:0:0:
448,192,38825,128,0,38955:0:0:0:0:
64,192,39086,128,0,39868:0:0:0:0:
448,192,39347,1,0,0:0:0:0:
192,192,39607,1,0,0:0:0:0:
448,192,39868,128,0,41173:0:0:0:0:
64,192,40129,1,0,0:0:0:0:
320,192,40390,1,0,0:0:0:0:
64,192,40651,1,0,0:0:0:0:
320,192,40912,1,0,0:0:0:0:
192,192,41173,128,0,42216:0:0:0:0:
448,192,41434,1,0,0:0:0:0:
64,192,41694,1,0,0:0:0:0:
448,192,41955,1,0,0:0:0:0:
64,192,42216,1,0,0:0:0:0:
320,192,42477,1,0,0:0:0:0:
448,192,42607,128,0,42999:0:0:0:0:
192,192,42999,1,0,0:0:0:0:
64,192,43260,128,0,44303:0:0:0:0:
448,192,44303,128,0,45347:0:0:0:0:
192,192,45347,128,0,46390:0:0:0:0:
448,192,46390,128,0,47434:0:0:0:0:
64,192,47434,128,0,48477:0:0:0:0:
320,192,48477,128,0,49520:0:0:0:0:
64,192,49520,128,0,50564:0:0:0:0:
448,192,50564,128,0,51607:0:0:0:0:
64,192,51607,1,0,0:0:0:0:
448,192,51999,1,0,0:0:0:0:
64,192,52260,1,0,0:0:0:0:
448,192,52520,1,0,0:0:0:0:
448,192,52651,1,0,0:0:0:0:
64,192,52847,1,0,0:0:0:0:
448,192,53042,1,0,0:0:0:0:
192,192,53173,1,0,0:0:0:0:
64,192,53694,1,0,0:0:0:0:
448,192,54086,1,0,0:0:0:0:
64,192,54347,1,0,0:0:0:0:
320,192,54607,1,0,0:0:0:0:
320,192,54738,1,0,0:0:0:0:
64,192,54934,1,0,0:0:0:0:
192,192,55129,1,0,0:0:0:0:
448,192,55260,128,0,55781:0:0:0:0:
64,192,55781,1,0,0:0:0:0:
192,192,56303,1,0,0:0:0:0:
320,192,56825,1,0,0:0:0:0:
448,192,57347,1,0,0:0:0:0:
64,192,57868,1,0,0:0:0:0:
320,192,58129,1,0,0:0:0:0:
192,192,58390,1,0,0:0:0:0:
448,192,58651,1,0,0:0:0:0:
64,192,58912,128,0,59955:0:0:0:0:
448,192,59955,128,0,60477:0:0:0:0:
64,192,60477,1,0,0:0:0:0:
320,192,60607,1,0,0:0:0:0:
320,192,60868,1,0,0:0:0:0:
64,192,61129,1,0,0:0:0:0:
64,192,61260,1,0,0:0:0:0:
448,192,61520,1,0,0:0:0:0:
64,192,61781,128,0,62042:0:0:0:0:
320,192,62042,128,0,62564:0:0:0:0:
64,192,62564,1,0,0:0:0:0:
192,192,62694,1,0,0:0:0:0:
192,192,62955,1,0,0:0:0:0:
448,192,63216,1,0,0:0:0:0:
448,192,63347,1,0,0:0:0:0:
64,192,63607,128,0,63868:0:0:0:0:
192,192,63868,128,0,64129:0:0:0:0:
448,192,64129,1,0,0:0:0:0:
320,192,64390,128,0,64651:0:0:0:0:
64,192,64651,1,0,0:0:0:0:
192,192,64781,1,0,0:0:0:0:
192,192,65042,1,0,0:0:0:0:
448,192,65303,1,0,0:0:0:0:
448,192,65434,1,0,0:0:0:0:
64,192,65694,1,0,0:0:0:0:
320,192,65825,128,0,66216:0:0:0:0:
64,192,66216,128,0,68303:0:0:0:0:
448,192,68303,128,0,68825:0:0:0:0:
64,192,68825,1,0,0:0:0:0:
192,192,68955,1,0,0:0:0:0:
192,192,69216,1,0,0:0:0:0:
448,192,69477,1,0,0:0:0:0:
448,192,69607,1,0,0:0:0:0:
64,192,69868,1,0,0:0:0:0:
448,192,69999,128,0,70390:0:0:0:0:
192,192,70390,128,0,70912:0:0:0:0:
448,192,70912,1,0,0:0:0:0:
320,192,71042,1,0,0:0:0:0:
320,192,71303,1,0,0:0:0:0:
64,192,71564,1,0,0:0:0:0:
64,192,71694,1,0,0:0:0:0:
448,192,71955,128,0,72216:0:0:0:0:
192,192,72216,128,0,72477:0:0:0:0:
64,192,72477,128,0,72999:0:0:0:0:
320,192,72999,1,0,0:0:0:0:
448,192,73129,1,0,0:0:0:0:
448,192,73390,1,0,0:0:0:0:
192,192,73651,1,0,0:0:0:0:
192,192,73781,1,0,0:0:0:0:
448,192,74042,128,0,74303:0:0:0:0:
64,192,74303,128,0,74564:0:0:0:0:
192,192,74564,128,0,75607:0:0:0:0:
448,192,75607,128,0,76390:0:0:0:0:
64,192,76390,1,0,0:0:0:0:
64,192,76651,128,0,78738:0:0:0:0:
448,192,76912,1,0,0:0:0:0:
192,192,77173,1,0,0:0:0:0:
448,192,77434,1,0,0:0:0:0:
192,192,77694,1,0,0:0:0:0:
448,192,77955,1,0,0:0:0:0:
192,192,78216,128,0,78738:0:0:0:0:
320,192,78738,128,0,80303:0:0:0:0:
64,192,78999,1,0,0:0:0:0:
448,192,79260,1,0,0:0:0:0:
64,192,79520,1,0,0:0:0:0:
448,192,79781,1,0,0:0:0:0:
64,192,80042,1,0,0:0:0:0:
448,192,80303,128,0,80434:0:0:0:0:
64,192,80564,128,0,80694:0:0:0:0:
448,192,80825,128,0,82912:0:0:0:0:
64,192,81086,1,0,0:0:0:0:
320,192,81347,1,0,0:0:0:0:
64,192,81607,1,0,0:0:0:0:
320,192,81868,1,0,0:0:0:0:
64,192,82129,1,0,0:0:0:0:
320,192,82390,128,0,82912:0:0:0:0:
192,192,82912,128,0,83955:0:0:0:0:
448,192,83173,1,0,0:0:0:0:
64,192,83434,1,0,0:0:0:0:
320,192,83694,1,0,0:0:0:0:
448,192,83955,128,0,84999:0:0:0:0:
64,192,84347,1,0,0:0:0:0:
320,192,84477,1,0,0:0:0:0:
64,192,84999,128,0,87086:0:0:0:0:
448,192,85260,1,0,0:0:0:0:
192,192,85520,1,0,0:0:0:0:
448,192,85781,1,0,0:0:0:0:
192,192,86042,1,0,0:0:0:0:
448,192,86303,1,0,0:0:0:0:
192,192,86564,1,0,0:0:0:0:
448,192,86825,128,0,87086:0:0:0:0:
320,192,87086,128,0,88129:0:0:0:0:
64,192,87347,1,0,0:0:0:0:
448,192,87607,1,0,0:0:0:0:
64,192,87868,1,0,0:0:0:0:
192,192,88129,128,0,88651:0:0:0:0:
448,192,88651,128,0,88781:0:0:0:0:
64,192,88912,128,0,89042:0:0:0:0:
448,192,89173,128,0,89955:0:0:0:0:
64,192,89434,1,0,0:0:0:0:
320,192,89694,1,0,0:0:0:0:
64,192,89955,128,0,91260:0:0:0:0:
448,192,90216,1,0,0:0:0:0:
192,192,90477,1,0,0:0:0:0:
448,192,90738,1,0,0:0:0:0:
192,192,90999,1,0,0:0:0:0:
320,192,91260,128,0,92303:0:0:0:0:
64,192,91520,1,0,0:0:0:0:
448,192,91781,1,0,0:0:0:0:
64,192,92042,1,0,0:0:0:0:
448,192,92303,1,0,0:0:0:0:
192,192,92564,1,0,0:0:0:0:
64,192,92694,128,0,93086:0:0:0:0:
320,192,93086,1,0,0:0:0:0:
448,192,93347,128,0,94260:0:0:0:0:
64,192,93607,1,0,0:0:0:0:
320,192,93868,1,0,0:0:0:0:
192,192,94129,1,0,0:0:0:0:
64,192,94260,128,0,95173:0:0:0:0:
320,192,94390,1,0,0:0:0:0:
448,192,94651,1,0,0:0:0:0:
192,192,94912,1,0,0:0:0:0:
448,192,95173,1,0,0:0:0:0:
320,192,95434,1,0,0:0:0:0:
192,192,95694,1,0,0:0:0:0:
64,192,95955,1,0,0:0:0:0:
192,192,96216,1,0,0:0:0:0:
448,192,96347,128,0,96999:0:0:0:0:
64,192,96477,1,0,0:0:0:0:
320,192,96738,1,0,0:0:0:0:
64,192,96999,128,0,97129:0:0:0:0:
192,192,97260,128,0,97390:0:0:0:0:
448,192,97520,128,0,98564:0:0:0:0:
64,192,97781,1,0,0:0:0:0:
320,192,98042,1,0,0:0:0:0:
64,192,98303,1,0,0:0:0:0:
320,192,98564,1,0,0:0:0:0:
64,192,98825,1,0,0:0:0:0:
192,192,99086,1,0,0:0:0:0:
320,192,99347,1,0,0:0:0:0:
448,192,99607,1,0,0:0:0:0:
64,192,99868,1,0,0:0:0:0:
320,192,100129,1,0,0:0:0:0:
192,192,100390,1,0,0:0:0:0:
448,192,100651,1,0,0:0:0:0:
64,192,100912,1,0,0:0:0:0:
448,192,101173,128,0,101694:0:0:0:0:
64,192,101694,128,0,102607:0:0:0:0:
448,192,101955,1,0,0:0:0:0:
192,192,102216,1,0,0:0:0:0:
320,192,102477,1,0,0:0:0:0:
448,192,102607,128,0,103520:0:0:0:0:
192,192,102738,1,0,0:0:0:0:
64,192,102999,1,0,0:0:0:0:
320,192,103260,1,0,0:0:0:0:
64,192,103520,1,0,0:0:0:0:
192,192,103781,1,0,0:0:0:0:
320,192,104042,1,0,0:0:0:0:
448,192,104303,1,0,0:0:0:0:
320,192,104564,1,0,0:0:0:0:
64,192,104694,128,0,105347:0:0:0:0:
448,192,104825,1,0,0:0:0:0:
192,192,105086,1,0,0:0:0:0:
448,192,105347,128,0,105477:0:0:0:0:
320,192,105607,128,0,105738:0:0:0:0:
64,192,105868,128,0,106912:0:0:0:0:
448,192,106129,1,0,0:0:0:0:
192,192,106390,1,0,0:0:0:0:
448,192,106651,1,0,0:0:0:0:
192,192,106912,1,0,0:0:0:0:
448,192,107173,1,0,0:0:0:0:
320,192,107434,1,0,0:0:0:0:
192,192,107694,1,0,0:0:0:0:
64,192,107955,1,0,0:0:0:0:
448,192,108216,1,0,0:0:0:0:
192,192,108477,1,0,0:0:0:0:
320,192,108738,1,0,0:0:0:0:
64,192,108999,1,0,0:0:0:0:
448,192,109260,1,0,0:0:0:0:
192,192,109520,1,0,0:0:0:0:
448,192,109781,1,0,0:0:0:0:
64,192,110042,128,0,110564:0:0:0:0:
448,192,110564,128,0,111086:0:0:0:0:
192,192,111086,128,0,112129:0:0:0:0:
448,192,112129,128,0,113173:0:0:0:0:
64,192,116303,128,0,118390:0:0:0:0:
