osu file format v14

[General]
AudioFilename: audio.mp3
AudioLeadIn: 0
PreviewTime: 93149
Countdown: 0
SampleSet: Normal
StackLeniency: 0.7
Mode: 1
LetterboxInBreaks: 0
WidescreenStoryboard: 1

[Editor]
Bookmarks: 1584,9931,18279,26627,34975,43323,51670,60018,68366,76714,85062,93410,100714,101757,109844,110105,112192,118453
DistanceSpacing: 0.1
BeatDivisor: 4
GridSize: 32
TimelineZoom: 1.3

[Metadata]
Title:Make Magic
TitleUnicode:Make Magic
Artist:Lite Show Magic
ArtistUnicode:Lite Show Magic
Creator:Realazy
Version:Futsuu
Source:SOUND VOLTEX IV HEAVENLY HAVEN
Tags:t+pazolite vs C-Show SDVX tpz The 6th KAC Original Song Contest オリジナル楽曲コンテスト Akira Michishita 道下朗 Tomoyoki Hamada 浜田知幸 Cawol Ashita MAD†HOLIC MAD HOLIC PSYCHO†HOLIC PSYCHO HOLIC KONAMI BEMANI Ayyri
BeatmapID:1466208
BeatmapSetID:692914

[Difficulty]
HPDrainRate:6
CircleSize:2
OverallDifficulty:4
ApproachRate:10
SliderMultiplier:1.4
SliderTickRate:1

[Events]
//Background and Video events
0,0,"Cawol and Ashita 245.png",0,-35
//Break Periods
//Storyboard Layer 0 (Background)
//Storyboard Layer 1 (Fail)
//Storyboard Layer 2 (Pass)
//Storyboard Layer 3 (Foreground)
//Storyboard Sound Samples

[TimingPoints]
1584,260.869565217391,4,1,0,75,1,0
93410,-100,4,1,0,75,0,1
100714,-100,4,1,0,75,0,0
101757,-100,4,1,0,75,0,1
109844,-100,4,1,0,75,0,0
110105,-100,4,1,0,75,0,1
112192,-100,4,1,0,75,0,0
116366,-100,4,1,0,75,0,0
117410,-100,4,1,0,50,0,0
118453,-100,4,1,0,25,0,0

[HitObjects]
256,192,1584,5,4,0:0:0:0:
256,192,2366,1,0,0:0:0:0:
256,192,2627,1,8,0:0:0:0:
256,192,3018,1,8,0:0:0:0:
256,192,3410,1,0,0:0:0:0:
256,192,3670,1,8,0:0:0:0:
256,192,5757,1,4,0:0:0:0:
256,192,6540,1,0,0:0:0:0:
256,192,6801,1,8,0:0:0:0:
256,192,7192,1,0,0:0:0:0:
256,192,7583,1,8,0:0:0:0:
256,192,7844,1,8,0:0:0:0:
256,192,8888,1,0,0:0:0:0:
256,192,9931,1,0,0:0:0:0:
256,192,10192,1,0,0:0:0:0:
256,192,10453,1,8,0:0:0:0:
256,192,10844,1,0,0:0:0:0:
256,192,11236,1,0,0:0:0:0:
256,192,11497,1,8,0:0:0:0:
256,192,12018,1,0,0:0:0:0:
256,192,12279,1,0,0:0:0:0:
256,192,12540,1,8,0:0:0:0:
256,192,12931,1,0,0:0:0:0:
256,192,13323,1,0,0:0:0:0:
256,192,13583,1,8,0:0:0:0:
256,192,14105,1,8,0:0:0:0:
256,192,14366,1,0,0:0:0:0:
256,192,14627,1,8,0:0:0:0:
256,192,15018,1,8,0:0:0:0:
256,192,15410,1,0,0:0:0:0:
256,192,15670,1,8,0:0:0:0:
256,192,16192,1,0,0:0:0:0:
256,192,16453,1,8,0:0:0:0:
256,192,16583,1,8,0:0:0:0:
256,192,16714,1,0,0:0:0:0:
256,192,16975,1,8,0:0:0:0:
256,192,17236,1,0,0:0:0:0:
256,192,17366,1,8,0:0:0:0:
256,192,17627,1,8,0:0:0:0:
256,192,17757,1,0,0:0:0:0:
256,192,18018,1,0,0:0:0:0:
256,192,18279,1,12,0:0:0:0:
256,192,18540,1,0,0:0:0:0:
256,192,18801,1,0,0:0:0:0:
256,192,19323,1,0,0:0:0:0:
256,192,19583,1,0,0:0:0:0:
256,192,19844,1,0,0:0:0:0:
256,192,20366,1,12,0:0:0:0:
256,192,20627,1,0,0:0:0:0:
256,192,20888,1,0,0:0:0:0:
256,192,21410,1,0,0:0:0:0:
256,192,21670,1,0,0:0:0:0:
256,192,21931,1,0,0:0:0:0:
256,192,22453,1,8,0:0:0:0:
256,192,22583,1,0,0:0:0:0:
256,192,22714,1,0,0:0:0:0:
256,192,22975,1,0,0:0:0:0:
256,192,23497,1,8,0:0:0:0:
256,192,23627,1,0,0:0:0:0:
256,192,23757,1,0,0:0:0:0:
256,192,24018,1,0,0:0:0:0:
256,192,24279,1,12,0:0:0:0:
256,192,24540,1,4,0:0:0:0:
256,192,24931,1,4,0:0:0:0:
256,192,25192,1,4,0:0:0:0:
256,192,25583,1,12,0:0:0:0:
256,192,26627,1,12,0:0:0:0:
256,192,27149,1,8,0:0:0:0:
256,192,27410,1,0,0:0:0:0:
256,192,27670,1,0,0:0:0:0:
256,192,27931,1,8,0:0:0:0:
256,192,28062,1,0,0:0:0:0:
256,192,28192,1,8,0:0:0:0:
256,192,28714,1,0,0:0:0:0:
256,192,28975,1,0,0:0:0:0:
256,192,29236,1,8,0:0:0:0:
256,192,29497,1,0,0:0:0:0:
256,192,29627,1,0,0:0:0:0:
256,192,29757,1,0,0:0:0:0:
256,192,30279,1,8,0:0:0:0:
256,192,30801,1,0,0:0:0:0:
256,192,30931,1,0,0:0:0:0:
256,192,31062,1,0,0:0:0:0:
256,192,31323,1,8,0:0:0:0:
256,192,31583,1,0,0:0:0:0:
256,192,32105,1,8,0:0:0:0:
256,192,32366,1,8,0:0:0:0:
256,192,32888,1,0,0:0:0:0:
256,192,33149,1,0,0:0:0:0:
256,192,33410,1,8,0:0:0:0:
256,192,33670,1,8,0:0:0:0:
256,192,33801,1,8,0:0:0:0:
256,192,33931,1,0,0:0:0:0:
256,192,34323,1,0,0:0:0:0:
256,192,34453,1,8,0:0:0:0:
256,192,34975,1,12,0:0:0:0:
256,192,35497,1,8,0:0:0:0:
256,192,35757,1,0,0:0:0:0:
256,192,36018,1,0,0:0:0:0:
256,192,36279,1,8,0:0:0:0:
256,192,36410,1,0,0:0:0:0:
256,192,36541,1,8,0:0:0:0:
256,192,37062,1,0,0:0:0:0:
256,192,37323,1,0,0:0:0:0:
256,192,37583,1,8,0:0:0:0:
256,192,37844,1,0,0:0:0:0:
256,192,37975,1,0,0:0:0:0:
256,192,38105,1,0,0:0:0:0:
256,192,38627,1,8,0:0:0:0:
256,192,39149,1,0,0:0:0:0:
256,192,39279,1,0,0:0:0:0:
256,192,39410,1,0,0:0:0:0:
256,192,39670,1,8,0:0:0:0:
256,192,39931,1,0,0:0:0:0:
256,192,40453,1,8,0:0:0:0:
256,192,40714,1,8,0:0:0:0:
256,192,41236,1,8,0:0:0:0:
256,192,41497,1,8,0:0:0:0:
256,192,41757,1,8,0:0:0:0:
256,192,41888,1,8,0:0:0:0:
256,192,42018,1,8,0:0:0:0:
256,192,42279,1,0,0:0:0:0:
256,192,42410,1,0,0:0:0:0:
256,192,43062,1,12,0:0:0:0:
256,192,43323,1,4,0:0:0:0:
256,192,44366,1,8,0:0:0:0:
256,192,45410,1,0,0:0:0:0:
256,192,46453,1,8,0:0:0:0:
256,192,47497,1,0,0:0:0:0:
256,192,48018,1,0,0:0:0:0:
256,192,48540,1,8,0:0:0:0:
256,192,49062,1,8,0:0:0:0:
256,192,49323,1,8,0:0:0:0:
256,192,49583,1,0,0:0:0:0:
256,192,50105,1,0,0:0:0:0:
256,192,50627,1,8,0:0:0:0:
256,192,51670,1,12,0:0:0:0:
256,192,52062,1,0,0:0:0:0:
256,192,52323,1,8,0:0:0:0:
256,192,52714,1,0,0:0:0:0:
256,192,53497,1,8,0:0:0:0:
256,192,53757,1,0,0:0:0:0:
256,192,54149,1,0,0:0:0:0:
256,192,54410,1,8,0:0:0:0:
256,192,54801,1,8,0:0:0:0:
256,192,55583,1,8,0:0:0:0:
256,192,55844,1,0,0:0:0:0:
256,192,56366,1,0,0:0:0:0:
256,192,56888,1,0,0:0:0:0:
256,192,57149,1,0,0:0:0:0:
256,192,57410,1,0,0:0:0:0:
256,192,57931,1,0,0:0:0:0:
256,192,58192,1,0,0:0:0:0:
256,192,58453,1,0,0:0:0:0:
256,192,58583,1,0,0:0:0:0:
256,192,58714,1,0,0:0:0:0:
256,192,58975,1,8,0:0:0:0:
256,192,59497,1,8,0:0:0:0:
256,192,60018,1,4,0:0:0:0:
256,192,60540,1,8,0:0:0:0:
256,192,60670,1,8,0:0:0:0:
256,192,60931,1,8,0:0:0:0:
256,192,61323,1,8,0:0:0:0:
256,192,61583,1,8,0:0:0:0:
256,192,62105,1,0,0:0:0:0:
256,192,62627,1,8,0:0:0:0:
256,192,62757,1,8,0:0:0:0:
256,192,63018,1,8,0:0:0:0:
256,192,63410,1,8,0:0:0:0:
256,192,63670,1,8,0:0:0:0:
256,192,64192,1,0,0:0:0:0:
256,192,64453,1,0,0:0:0:0:
256,192,64714,1,8,0:0:0:0:
256,192,64844,1,8,0:0:0:0:
256,192,65105,1,8,0:0:0:0:
256,192,65497,1,8,0:0:0:0:
256,192,65757,1,8,0:0:0:0:
256,192,66279,1,4,0:0:0:0:
256,192,66801,1,8,0:0:0:0:
256,192,67062,1,8,0:0:0:0:
256,192,67323,1,0,0:0:0:0:
256,192,67844,1,8,0:0:0:0:
256,192,67975,1,8,0:0:0:0:
256,192,68105,1,0,0:0:0:0:
256,192,68366,1,4,0:0:0:0:
256,192,68888,1,8,0:0:0:0:
256,192,69018,1,8,0:0:0:0:
256,192,69279,1,8,0:0:0:0:
256,192,69670,1,8,0:0:0:0:
256,192,69931,1,8,0:0:0:0:
256,192,70453,1,0,0:0:0:0:
256,192,70714,1,0,0:0:0:0:
256,192,70975,1,8,0:0:0:0:
256,192,71105,1,8,0:0:0:0:
256,192,71366,1,8,0:0:0:0:
256,192,71757,1,8,0:0:0:0:
256,192,72018,1,8,0:0:0:0:
256,192,72540,1,0,0:0:0:0:
256,192,72801,1,8,0:0:0:0:
256,192,73062,1,8,0:0:0:0:
256,192,73192,1,8,0:0:0:0:
256,192,73453,1,8,0:0:0:0:
256,192,73844,1,8,0:0:0:0:
256,192,74105,1,8,0:0:0:0:
256,192,74627,1,0,0:0:0:0:
256,192,75670,1,12,0:0:0:0:
256,192,76453,1,12,0:0:0:0:
256,192,76714,1,4,0:0:0:0:
256,192,77236,1,8,0:0:0:0:
256,192,77497,1,0,0:0:0:0:
256,192,77757,1,0,0:0:0:0:
256,192,78018,1,8,0:0:0:0:
256,192,78149,1,0,0:0:0:0:
256,192,78279,1,8,0:0:0:0:
256,192,78670,1,8,0:0:0:0:
256,192,78801,1,0,0:0:0:0:
256,192,79062,1,0,0:0:0:0:
256,192,79323,1,8,0:0:0:0:
256,192,79583,1,0,0:0:0:0:
256,192,79714,1,0,0:0:0:0:
256,192,79844,1,0,0:0:0:0:
256,192,80366,1,8,0:0:0:0:
256,192,80888,1,0,0:0:0:0:
256,192,81149,1,0,0:0:0:0:
256,192,81410,1,8,0:0:0:0:
256,192,81670,1,0,0:0:0:0:
256,192,82192,1,8,0:0:0:0:
256,192,82323,1,0,0:0:0:0:
256,192,82453,1,8,0:0:0:0:
256,192,82844,1,8,0:0:0:0:
256,192,82975,1,0,0:0:0:0:
256,192,83236,1,0,0:0:0:0:
256,192,83497,1,8,0:0:0:0:
256,192,83627,1,8,0:0:0:0:
256,192,83757,1,8,0:0:0:0:
256,192,84018,1,12,0:0:0:0:
256,192,84410,1,0,0:0:0:0:
256,192,84540,1,8,0:0:0:0:
256,192,85062,1,12,0:0:0:0:
256,192,85583,1,8,0:0:0:0:
256,192,85844,1,0,0:0:0:0:
256,192,85975,1,8,0:0:0:0:
256,192,86106,1,0,0:0:0:0:
256,192,86366,1,8,0:0:0:0:
256,192,86497,1,0,0:0:0:0:
256,192,86627,1,8,0:0:0:0:
256,192,87149,1,0,0:0:0:0:
256,192,87410,1,0,0:0:0:0:
256,192,87670,1,8,0:0:0:0:
256,192,87931,1,0,0:0:0:0:
256,192,88062,1,0,0:0:0:0:
256,192,88192,1,8,0:0:0:0:
256,192,89236,1,0,0:0:0:0:
256,192,89366,1,0,0:0:0:0:
256,192,89497,1,0,0:0:0:0:
256,192,89757,1,8,0:0:0:0:
256,192,90018,1,0,0:0:0:0:
256,192,90540,1,0,0:0:0:0:
256,192,90670,1,0,0:0:0:0:
256,192,90801,1,8,0:0:0:0:
256,192,91062,1,8,0:0:0:0:
256,192,91323,1,0,0:0:0:0:
256,192,91583,1,0,0:0:0:0:
256,192,91844,1,8,0:0:0:0:
256,192,91975,1,8,0:0:0:0:
256,192,92105,1,8,0:0:0:0:
256,192,92366,1,0,0:0:0:0:
256,192,92497,1,0,0:0:0:0:
256,192,93149,1,12,0:0:0:0:
256,192,93410,1,4,0:0:0:0:
256,192,93931,1,0,0:0:0:0:
256,192,94192,1,0,0:0:0:0:
256,192,94323,1,8,0:0:0:0:
256,192,94583,1,8,0:0:0:0:
256,192,94714,1,8,0:0:0:0:
256,192,94975,1,8,0:0:0:0:
256,192,95236,1,0,0:0:0:0:
256,192,95497,1,8,0:0:0:0:
256,192,96018,1,8,0:0:0:0:
256,192,96279,1,8,0:0:0:0:
256,192,96410,1,0,0:0:0:0:
256,192,96670,1,0,0:0:0:0:
256,192,96801,1,0,0:0:0:0:
256,192,97062,1,0,0:0:0:0:
256,192,97323,1,8,0:0:0:0:
256,192,97583,1,8,0:0:0:0:
256,192,97975,1,0,0:0:0:0:
256,192,98236,1,8,0:0:0:0:
256,192,98497,1,8,0:0:0:0:
256,192,98627,1,8,0:0:0:0:
256,192,98888,1,0,0:0:0:0:
256,192,99018,1,8,0:0:0:0:
256,192,99149,1,0,0:0:0:0:
256,192,99410,1,8,0:0:0:0:
256,192,99670,1,0,0:0:0:0:
256,192,100062,1,0,0:0:0:0:
256,192,100323,1,8,0:0:0:0:
256,192,100584,1,8,0:0:0:0:
256,192,100714,1,8,0:0:0:0:
256,192,101236,1,0,0:0:0:0:
256,192,101757,1,4,0:0:0:0:
256,192,102279,1,0,0:0:0:0:
256,192,102540,1,0,0:0:0:0:
256,192,102670,1,8,0:0:0:0:
256,192,102931,1,8,0:0:0:0:
256,192,103062,1,8,0:0:0:0:
256,192,103323,1,8,0:0:0:0:
256,192,103583,1,0,0:0:0:0:
256,192,103844,1,8,0:0:0:0:
256,192,104366,1,8,0:0:0:0:
256,192,104627,1,8,0:0:0:0:
256,192,104757,1,0,0:0:0:0:
256,192,105018,1,0,0:0:0:0:
256,192,105149,1,0,0:0:0:0:
256,192,105410,1,8,0:0:0:0:
256,192,105670,1,8,0:0:0:0:
256,192,105931,1,8,0:0:0:0:
256,192,106323,1,0,0:0:0:0:
256,192,106583,1,8,0:0:0:0:
256,192,106844,1,8,0:0:0:0:
256,192,106975,1,8,0:0:0:0:
256,192,107236,1,0,0:0:0:0:
256,192,107366,1,8,0:0:0:0:
256,192,107497,1,0,0:0:0:0:
256,192,107757,1,8,0:0:0:0:
256,192,108018,1,0,0:0:0:0:
256,192,108410,1,0,0:0:0:0:
256,192,108670,1,8,0:0:0:0:
256,192,108931,1,8,0:0:0:0:
256,192,109061,1,8,0:0:0:0:
256,192,109323,1,0,0:0:0:0:
256,192,109453,1,8,0:0:0:0:
256,192,109583,1,0,0:0:0:0:
256,192,109844,1,8,0:0:0:0:
256,192,110105,1,0,0:0:0:0:
256,192,110236,1,0,0:0:0:0:
256,192,110366,1,0,0:0:0:0:
256,192,110627,1,8,0:0:0:0:
256,192,110757,1,0,0:0:0:0:
256,192,110888,1,0,0:0:0:0:
175,241,111149,2,0,P|266:98|323:257,1,420
256,192,112192,1,4,0:0:0:0:
256,192,116366,12,0,118453,0:0:0:0:
