osu file format v14

[General]
AudioFilename: audio.mp3
AudioLeadIn: 0
PreviewTime: 93149
Countdown: 0
SampleSet: Normal
StackLeniency: 0.7
Mode: 1
LetterboxInBreaks: 0
WidescreenStoryboard: 0

[Editor]
Bookmarks: 1584,9931,18279,26627,34975,43323,51670,60018,68366,76714,85062,93410,100714,101757,109844,110105,112192,118453
DistanceSpacing: 1
BeatDivisor: 4
GridSize: 32
TimelineZoom: 2.799999

[Metadata]
Title:Make Magic
TitleUnicode:Make Magic
Artist:Lite Show Magic
ArtistUnicode:Lite Show Magic
Creator:Realazy
Version:Ayyri's Kantan
Source:SOUND VOLTEX IV HEAVENLY HAVEN
Tags:t+pazolite vs C-Show SDVX tpz The 6th KAC Original Song Contest オリジナル楽曲コンテスト Akira Michishita 道下朗 Tomoyoki Hamada 浜田知幸 Cawol Ashita MAD†HOLIC MAD HOLIC PSYCHO†HOLIC PSYCHO HOLIC KONAMI BEMANI Ayyri
BeatmapID:1466207
BeatmapSetID:692914

[Difficulty]
HPDrainRate:7
CircleSize:2
OverallDifficulty:3
ApproachRate:10
SliderMultiplier:1.4
SliderTickRate:1

[Events]
//Background and Video events
0,0,"Cawol and Ashita 245.png",0,-35
//Break Periods
//Storyboard Layer 0 (Background)
//Storyboard Layer 1 (Fail)
//Storyboard Layer 2 (Pass)
//Storyboard Layer 3 (Foreground)
//Storyboard Sound Samples

[TimingPoints]
1584,260.869565217391,4,1,0,75,1,0
93410,-100,4,1,0,75,0,1
100714,-100,4,1,0,75,0,0
101757,-100,4,1,0,75,0,1
109844,-100,4,1,0,75,0,0
110105,-100,4,1,0,75,0,1
112192,-100,4,1,0,75,0,0
116366,-100,4,1,0,75,0,0
117410,-100,4,1,0,50,0,0
118453,-100,4,1,0,25,0,0

[HitObjects]
256,192,1584,5,4,0:0:0:0:
256,192,2627,1,0,0:0:0:0:
256,192,3410,1,0,0:0:0:0:
256,192,3670,1,8,0:0:0:0:
256,192,5757,1,4,0:0:0:0:
256,192,6801,1,0,0:0:0:0:
256,192,7583,1,0,0:0:0:0:
256,192,7844,1,8,0:0:0:0:
256,192,8888,1,8,0:0:0:0:
256,192,9931,1,0,0:0:0:0:
256,192,10192,1,0,0:0:0:0:
256,192,10453,1,8,0:0:0:0:
256,192,11236,1,0,0:0:0:0:
256,192,11497,1,8,0:0:0:0:
256,192,12018,1,0,0:0:0:0:
256,192,12279,1,0,0:0:0:0:
256,192,12540,1,8,0:0:0:0:
256,192,13323,1,0,0:0:0:0:
256,192,13583,1,8,0:0:0:0:
256,192,14105,1,0,0:0:0:0:
256,192,14366,1,0,0:0:0:0:
256,192,14627,1,8,0:0:0:0:
256,192,15410,1,0,0:0:0:0:
256,192,15670,1,8,0:0:0:0:
256,192,16192,1,0,0:0:0:0:
256,192,16453,1,8,0:0:0:0:
256,192,16714,1,0,0:0:0:0:
256,192,17497,1,0,0:0:0:0:
256,192,17757,1,8,0:0:0:0:
256,192,18018,1,0,0:0:0:0:
256,192,18279,1,12,0:0:0:0:
256,192,18801,1,0,0:0:0:0:
256,192,19323,1,0,0:0:0:0:
256,192,19844,1,0,0:0:0:0:
256,192,20366,1,12,0:0:0:0:
256,192,20888,1,0,0:0:0:0:
256,192,21410,1,0,0:0:0:0:
256,192,21931,1,0,0:0:0:0:
256,192,22453,1,0,0:0:0:0:
256,192,22714,1,0,0:0:0:0:
256,192,22975,1,0,0:0:0:0:
256,192,23236,1,0,0:0:0:0:
256,192,23497,2,0,L|291:192,8,35
256,192,24279,1,12,0:0:0:0:
256,192,24540,1,4,0:0:0:0:
256,192,25583,1,4,0:0:0:0:
256,192,26366,1,12,0:0:0:0:
256,192,26627,1,12,0:0:0:0:
256,192,27149,1,0,0:0:0:0:
256,192,27410,1,8,0:0:0:0:
256,192,27670,1,0,0:0:0:0:
256,192,28192,1,8,0:0:0:0:
256,192,28714,1,0,0:0:0:0:
256,192,29236,1,0,0:0:0:0:
256,192,29497,1,8,0:0:0:0:
256,192,29757,1,0,0:0:0:0:
256,192,30801,1,0,0:0:0:0:
256,192,31323,1,0,0:0:0:0:
256,192,31583,1,8,0:0:0:0:
256,192,31844,1,0,0:0:0:0:
256,192,32366,1,8,0:0:0:0:
256,192,32888,1,0,0:0:0:0:
256,192,33410,1,0,0:0:0:0:
256,192,33670,1,0,0:0:0:0:
256,192,33931,1,8,0:0:0:0:
256,192,34975,1,12,0:0:0:0:
256,192,35497,1,0,0:0:0:0:
256,192,35757,1,8,0:0:0:0:
256,192,36018,1,0,0:0:0:0:
256,192,36540,1,8,0:0:0:0:
256,192,37062,1,0,0:0:0:0:
256,192,37583,1,0,0:0:0:0:
256,192,37844,1,8,0:0:0:0:
256,192,38105,1,0,0:0:0:0:
256,192,39149,1,0,0:0:0:0:
256,192,39670,1,0,0:0:0:0:
256,192,39931,1,8,0:0:0:0:
256,192,40192,1,0,0:0:0:0:
256,192,40714,1,0,0:0:0:0:
256,192,41236,1,0,0:0:0:0:
256,192,41497,1,0,0:0:0:0:
256,192,41757,2,0,L|291:192,8,35
256,192,42540,1,8,0:0:0:0:
256,192,43062,1,12,0:0:0:0:
256,192,43323,1,4,0:0:0:0:
256,192,44366,1,0,0:0:0:0:
256,192,44888,1,8,0:0:0:0:
256,192,45149,1,8,0:0:0:0:
256,192,45410,1,0,0:0:0:0:
256,192,46453,1,0,0:0:0:0:
256,192,46975,1,8,0:0:0:0:
256,192,47236,1,0,0:0:0:0:
256,192,47497,1,8,0:0:0:0:
256,192,48018,1,0,0:0:0:0:
256,192,48540,1,0,0:0:0:0:
256,192,49062,1,8,0:0:0:0:
256,192,49583,1,0,0:0:0:0:
256,192,50105,1,0,0:0:0:0:
256,192,50627,1,8,0:0:0:0:
256,192,51670,1,12,0:0:0:0:
256,192,52714,1,12,0:0:0:0:
256,192,53757,1,12,0:0:0:0:
256,192,54801,1,12,0:0:0:0:
256,192,55323,1,0,0:0:0:0:
256,192,55844,1,8,0:0:0:0:
256,192,56366,1,0,0:0:0:0:
256,192,56888,1,8,0:0:0:0:
256,192,57410,1,0,0:0:0:0:
256,192,57931,1,8,0:0:0:0:
256,192,58192,1,8,0:0:0:0:
256,192,58453,1,0,0:0:0:0:
256,192,58714,1,0,0:0:0:0:
256,192,58975,1,8,0:0:0:0:
256,192,60018,1,12,0:0:0:0:
256,192,60540,1,8,0:0:0:0:
256,192,61323,1,0,0:0:0:0:
256,192,61583,1,8,0:0:0:0:
256,192,62105,1,0,0:0:0:0:
256,192,62627,1,8,0:0:0:0:
256,192,63410,1,0,0:0:0:0:
256,192,63670,1,8,0:0:0:0:
256,192,64192,1,4,0:0:0:0:
256,192,64714,1,8,0:0:0:0:
256,192,65497,1,0,0:0:0:0:
256,192,65757,1,8,0:0:0:0:
256,192,66279,1,4,0:0:0:0:
256,192,67323,1,0,0:0:0:0:
256,192,67844,1,0,0:0:0:0:
256,192,68105,1,0,0:0:0:0:
256,192,68366,1,12,0:0:0:0:
256,192,68888,1,8,0:0:0:0:
256,192,69670,1,0,0:0:0:0:
256,192,69931,1,8,0:0:0:0:
256,192,70453,1,0,0:0:0:0:
256,192,70975,1,8,0:0:0:0:
256,192,71757,1,0,0:0:0:0:
256,192,72018,1,8,0:0:0:0:
256,192,72540,1,4,0:0:0:0:
256,192,73062,1,8,0:0:0:0:
256,192,73844,1,0,0:0:0:0:
256,192,74105,1,8,0:0:0:0:
256,192,74627,1,4,0:0:0:0:
256,192,75670,1,4,0:0:0:0:
256,192,76453,1,12,0:0:0:0:
256,192,76714,1,12,0:0:0:0:
256,192,77236,1,0,0:0:0:0:
256,192,77497,1,8,0:0:0:0:
256,192,77757,1,0,0:0:0:0:
256,192,78279,1,8,0:0:0:0:
256,192,78801,1,0,0:0:0:0:
256,192,79323,1,0,0:0:0:0:
256,192,79583,1,8,0:0:0:0:
256,192,79844,1,0,0:0:0:0:
256,192,80888,1,0,0:0:0:0:
256,192,81410,1,0,0:0:0:0:
256,192,81670,1,8,0:0:0:0:
256,192,81931,1,0,0:0:0:0:
256,192,82453,1,8,0:0:0:0:
256,192,82975,1,0,0:0:0:0:
256,192,83497,1,0,0:0:0:0:
256,192,83757,1,0,0:0:0:0:
256,192,84018,1,12,0:0:0:0:
256,192,85062,1,12,0:0:0:0:
256,192,85583,1,0,0:0:0:0:
256,192,85844,1,8,0:0:0:0:
256,192,86105,1,0,0:0:0:0:
256,192,86627,1,8,0:0:0:0:
256,192,87149,1,0,0:0:0:0:
256,192,87670,1,0,0:0:0:0:
256,192,87931,1,8,0:0:0:0:
256,192,88192,1,4,0:0:0:0:
256,192,89236,1,0,0:0:0:0:
256,192,89757,1,0,0:0:0:0:
256,192,90018,1,8,0:0:0:0:
256,192,90279,1,0,0:0:0:0:
256,192,90801,1,0,0:0:0:0:
256,192,91323,1,0,0:0:0:0:
256,192,91583,1,0,0:0:0:0:
256,192,91844,2,0,L|291:192,8,35
256,192,92627,1,8,0:0:0:0:
256,192,93149,1,12,0:0:0:0:
256,192,93410,1,12,0:0:0:0:
256,192,93931,1,0,0:0:0:0:
256,192,94192,1,0,0:0:0:0:
256,192,94453,1,8,0:0:0:0:
256,192,94975,1,0,0:0:0:0:
256,192,95497,1,8,0:0:0:0:
256,192,96018,1,0,0:0:0:0:
256,192,96279,1,8,0:0:0:0:
256,192,96540,1,0,0:0:0:0:
256,192,97062,1,0,0:0:0:0:
256,192,97323,1,0,0:0:0:0:
256,192,97583,1,8,0:0:0:0:
256,192,98627,1,0,0:0:0:0:
256,192,99149,1,8,0:0:0:0:
256,192,99670,1,0,0:0:0:0:
256,192,99931,1,0,0:0:0:0:
256,192,100192,1,8,0:0:0:0:
256,192,100714,1,12,0:0:0:0:
256,192,101757,1,12,0:0:0:0:
256,192,102279,1,0,0:0:0:0:
256,192,102540,1,0,0:0:0:0:
256,192,102801,1,8,0:0:0:0:
256,192,103323,1,0,0:0:0:0:
256,192,103844,1,8,0:0:0:0:
256,192,104366,1,0,0:0:0:0:
256,192,104627,1,8,0:0:0:0:
256,192,104888,1,0,0:0:0:0:
256,192,105410,1,0,0:0:0:0:
256,192,105670,1,0,0:0:0:0:
256,192,105931,1,8,0:0:0:0:
256,192,106453,1,0,0:0:0:0:
256,192,106975,1,0,0:0:0:0:
256,192,107497,1,8,0:0:0:0:
256,192,108018,1,0,0:0:0:0:
256,192,108279,1,0,0:0:0:0:
256,192,108540,1,8,0:0:0:0:
256,192,109062,1,8,0:0:0:0:
256,192,109583,1,0,0:0:0:0:
256,192,110105,1,0,0:0:0:0:
256,192,110366,1,0,0:0:0:0:
256,192,110627,1,0,0:0:0:0:
256,192,110888,1,0,0:0:0:0:
256,192,111149,2,0,L|291:192,12,35
256,192,112192,1,12,0:0:0:0:
256,192,116366,12,0,118453,0:0:0:0:
