osu file format v14

[General]
AudioFilename: audio.mp3
AudioLeadIn: 0
PreviewTime: 93149
Countdown: 0
SampleSet: Normal
StackLeniency: 0.7
Mode: 1
LetterboxInBreaks: 0
WidescreenStoryboard: 0

[Editor]
Bookmarks: 1584,9931,18279,26627,34975,43323,51670,60018,68366,76714,85062,93410,100714,101757,109844,110105,112192,118453
DistanceSpacing: 1
BeatDivisor: 4
GridSize: 32
TimelineZoom: 2.799999

[Metadata]
Title:Make Magic
TitleUnicode:Make Magic
Artist:Lite Show Magic
ArtistUnicode:Lite Show Magic
Creator:Realazy
Version:Ayyri's Inner Oni
Source:SOUND VOLTEX IV HEAVENLY HAVEN
Tags:t+pazolite vs C-Show SDVX tpz The 6th KAC Original Song Contest オリジナル楽曲コンテスト Akira Michishita 道下朗 Tomoyoki Hamada 浜田知幸 Cawol Ashita MAD†HOLIC MAD HOLIC PSYCHO†HOLIC PSYCHO HOLIC KONAMI BEMANI Ayyri
BeatmapID:1466206
BeatmapSetID:692914

[Difficulty]
HPDrainRate:6
CircleSize:2
OverallDifficulty:6
ApproachRate:10
SliderMultiplier:1.4
SliderTickRate:1

[Events]
//Background and Video events
0,0,"Cawol and Ashita 245.png",0,-35
//Break Periods
//Storyboard Layer 0 (Background)
//Storyboard Layer 1 (Fail)
//Storyboard Layer 2 (Pass)
//Storyboard Layer 3 (Foreground)
//Storyboard Sound Samples

[TimingPoints]
1584,260.869565217391,4,1,0,75,1,0
1584,-80,4,1,0,75,0,0
2366,-125,4,1,0,75,0,0
8888,-120.481927710843,4,1,0,75,0,0
9931,-117.647058823529,4,1,0,75,0,0
17497,-116.279069767442,4,1,0,75,0,0
17627,-113.636363636364,4,1,0,75,0,0
17692,-112.359550561798,4,1,0,75,0,0
17757,-111.111111111111,4,1,0,75,0,0
17888,-107.52688172043,4,1,0,75,0,0
18018,-105.263157894737,4,1,0,75,0,0
18062,-104.166666666667,4,1,0,75,0,0
18105,-103.092783505155,4,1,0,75,0,0
18149,-102.040816326531,4,1,0,75,0,0
18279,-100,4,1,0,75,0,0
18540,-99.009900990099,4,1,0,75,0,0
18801,-98.0392156862745,4,1,0,75,0,0
19062,-97.0873786407767,4,1,0,75,0,0
19323,-96.1538461538461,4,1,0,75,0,0
19583,-95.2380952380952,4,1,0,75,0,0
19844,-94.3396226415094,4,1,0,75,0,0
20105,-93.4579439252336,4,1,0,75,0,0
20366,-90.9090909090909,4,1,0,75,0,0
20627,-93.4579439252336,4,1,0,75,0,0
20888,-94.3396226415094,4,1,0,75,0,0
21149,-95.2380952380952,4,1,0,75,0,0
21410,-96.1538461538461,4,1,0,75,0,0
21670,-97.0873786407767,4,1,0,75,0,0
21931,-98.0392156862745,4,1,0,75,0,0
22192,-99.009900990099,4,1,0,75,0,0
22453,-100,4,1,0,75,0,0
22583,-97.0873786407767,4,1,0,75,0,0
22714,-95.2380952380952,4,1,0,75,0,0
22844,-93.4579439252336,4,1,0,75,0,0
22975,-90.9090909090909,4,1,0,75,0,0
23105,-88.4955752212389,4,1,0,75,0,0
23236,-86.9565217391304,4,1,0,75,0,0
23366,-85.4700854700855,4,1,0,75,0,0
23497,-83.3333333333333,4,1,0,75,0,0
24279,-80,4,1,0,75,0,0
24540,-66.6666666666667,4,1,0,75,0,0
25583,-71.4285714285714,4,1,0,75,0,0
25844,-76.9230769230769,4,1,0,75,0,0
26105,-83.3333333333333,4,1,0,75,0,0
26366,-57.1428571428571,4,1,0,75,0,0
26627,-80,4,1,0,75,0,0
26757,-86.9565217391304,4,1,0,75,0,0
26888,-95.2380952380952,4,1,0,75,0,0
26953,-96.1538461538461,4,1,0,75,0,0
27018,-97.0873786407767,4,1,0,75,0,0
27149,-100,4,1,0,75,0,0
34192,-117.647058823529,4,1,0,75,0,0
34323,-116.279069767442,4,1,0,75,0,0
34453,-113.636363636364,4,1,0,75,0,0
34583,-109.89010989011,4,1,0,75,0,0
34714,-105.263157894737,4,1,0,75,0,0
34844,-100,4,1,0,75,0,0
34975,-94.3396226415094,4,1,0,75,0,0
35105,-96.1538461538461,4,1,0,75,0,0
35236,-98.0392156862745,4,1,0,75,0,0
35301,-99.009900990099,4,1,0,75,0,0
35366,-100,4,1,0,75,0,0
41105,-97.0873786407767,4,1,0,75,0,0
41170,-96.1538461538461,4,1,0,75,0,0
41236,-95.2380952380952,4,1,0,75,0,0
41301,-94.3396226415094,4,1,0,75,0,0
41366,-93.4579439252336,4,1,0,75,0,0
41497,-90.9090909090909,4,1,0,75,0,0
42410,-86.9565217391304,4,1,0,75,0,0
42540,-80,4,1,0,75,0,0
42670,-83.3333333333333,4,1,0,75,0,0
42736,-84.0336134453781,4,1,0,75,0,0
42801,-84.7457627118644,4,1,0,75,0,0
42866,-85.4700854700855,4,1,0,75,0,0
42931,-86.2068965517241,4,1,0,75,0,0
43062,-74.0740740740741,4,1,0,75,0,0
43323,-100,4,1,0,75,0,0
43453,-103.092783505155,4,1,0,75,0,0
43583,-105.263157894737,4,1,0,75,0,0
43714,-107.52688172043,4,1,0,75,0,0
43975,-111.111111111111,4,1,0,75,0,0
44105,-114.942528735632,4,1,0,75,0,0
44236,-117.647058823529,4,1,0,75,0,0
44366,-120.481927710843,4,1,0,75,0,0
44497,-125,4,1,0,75,0,0
46975,-123.456790123457,4,1,0,75,0,0
47062,-121.951219512195,4,1,0,75,0,0
47149,-120.481927710843,4,1,0,75,0,0
47236,-119.047619047619,4,1,0,75,0,0
47323,-117.647058823529,4,1,0,75,0,0
47410,-116.279069767442,4,1,0,75,0,0
47497,-114.942528735632,4,1,0,75,0,0
51149,-111.111111111111,4,1,0,75,0,0
51236,-109.89010989011,4,1,0,75,0,0
51323,-108.695652173913,4,1,0,75,0,0
51410,-107.52688172043,4,1,0,75,0,0
51497,-106.382978723404,4,1,0,75,0,0
51583,-105.263157894737,4,1,0,75,0,0
51670,-104.166666666667,4,1,0,75,0,0
55323,-105.263157894737,4,1,0,75,0,0
55410,-106.382978723404,4,1,0,75,0,0
55497,-107.52688172043,4,1,0,75,0,0
55583,-108.695652173913,4,1,0,75,0,0
55670,-109.89010989011,4,1,0,75,0,0
55757,-111.111111111111,4,1,0,75,0,0
57931,-107.52688172043,4,1,0,75,0,0
58192,-106.382978723404,4,1,0,75,0,0
58453,-105.263157894737,4,1,0,75,0,0
58714,-104.166666666667,4,1,0,75,0,0
58975,-103.092783505155,4,1,0,75,0,0
59497,-100,4,1,0,75,0,0
59627,-97.0873786407767,4,1,0,75,0,0
59757,-94.3396226415094,4,1,0,75,0,0
59823,-93.4579439252336,4,1,0,75,0,0
59888,-92.5925925925926,4,1,0,75,0,0
59953,-91.743119266055,4,1,0,75,0,0
60018,-90.9090909090909,4,1,0,75,0,0
60344,-93.4579439252336,4,1,0,75,0,0
60540,-95.2380952380952,4,1,0,75,0,0
60670,-97.0873786407767,4,1,0,75,0,0
60801,-100,4,1,0,75,0,0
63931,-99.009900990099,4,1,0,75,0,0
63975,-98.0392156862745,4,1,0,75,0,0
64018,-97.0873786407767,4,1,0,75,0,0
64062,-96.1538461538461,4,1,0,75,0,0
64192,-95.2380952380952,4,1,0,75,0,0
64388,-96.1538461538461,4,1,0,75,0,0
64453,-97.0873786407767,4,1,0,75,0,0
64583,-100,4,1,0,75,0,0
66018,-97.0873786407767,4,1,0,75,0,0
66149,-94.3396226415094,4,1,0,75,0,0
66279,-91.743119266055,4,1,0,75,0,0
66540,-89.2857142857143,4,1,0,75,0,0
66670,-86.9565217391304,4,1,0,75,0,0
66801,-85.4700854700855,4,1,0,75,0,0
67062,-84.7457627118644,4,1,0,75,0,0
67323,-86.9565217391304,4,1,0,75,0,0
67583,-89.2857142857143,4,1,0,75,0,0
67714,-91.743119266055,4,1,0,75,0,0
67779,-90.9090909090909,4,1,0,75,0,0
67844,-90.0900900900901,4,1,0,75,0,0
67975,-88.4955752212389,4,1,0,75,0,0
68105,-86.9565217391304,4,1,0,75,0,0
68170,-86.2068965517241,4,1,0,75,0,0
68236,-85.4700854700855,4,1,0,75,0,0
68301,-84.7457627118644,4,1,0,75,0,0
68366,-83.3333333333333,4,1,0,75,0,0
68692,-85.4700854700855,4,1,0,75,0,0
68888,-86.9565217391304,4,1,0,75,0,0
69018,-90.9090909090909,4,1,0,75,0,0
69149,-93.4579439252336,4,1,0,75,0,0
69279,-95.2380952380952,4,1,0,75,0,0
69540,-100,4,1,0,75,0,0
72279,-99.009900990099,4,1,0,75,0,0
72323,-98.0392156862745,4,1,0,75,0,0
72366,-97.0873786407767,4,1,0,75,0,0
72410,-96.1538461538461,4,1,0,75,0,0
72540,-95.2380952380952,4,1,0,75,0,0
72670,-97.0873786407767,4,1,0,75,0,0
72801,-99.009900990099,4,1,0,75,0,0
72931,-100,4,1,0,75,0,0
74105,-97.0873786407767,4,1,0,75,0,0
74366,-95.2380952380952,4,1,0,75,0,0
74627,-90.9090909090909,4,1,0,75,0,0
75670,-66.6666666666667,4,1,0,75,0,0
75931,-71.4285714285714,4,1,0,75,0,0
76192,-76.9230769230769,4,1,0,75,0,0
76453,-57.1428571428571,4,1,0,75,0,0
76714,-80,4,1,0,75,0,0
76844,-86.9565217391304,4,1,0,75,0,0
76910,-90.9090909090909,4,1,0,75,0,0
76975,-95.2380952380952,4,1,0,75,0,0
77105,-97.0873786407767,4,1,0,75,0,0
77236,-100,4,1,0,75,0,0
78018,-99.009900990099,4,1,0,75,0,0
78083,-98.0392156862745,4,1,0,75,0,0
78149,-97.0873786407767,4,1,0,75,0,0
78279,-95.2380952380952,4,1,0,75,0,0
78475,-93.4579439252336,4,1,0,75,0,0
78670,-90.9090909090909,4,1,0,75,0,0
78801,-95.2380952380952,4,1,0,75,0,0
78931,-100,4,1,0,75,0,0
82192,-99.009900990099,4,1,0,75,0,0
82257,-98.0392156862745,4,1,0,75,0,0
82323,-97.0873786407767,4,1,0,75,0,0
82453,-95.2380952380952,4,1,0,75,0,0
82649,-93.4579439252336,4,1,0,75,0,0
82844,-90.9090909090909,4,1,0,75,0,0
82975,-95.2380952380952,4,1,0,75,0,0
83105,-100,4,1,0,75,0,0
84279,-117.647058823529,4,1,0,75,0,0
84410,-116.279069767442,4,1,0,75,0,0
84540,-113.636363636364,4,1,0,75,0,0
84670,-109.89010989011,4,1,0,75,0,0
84801,-105.263157894737,4,1,0,75,0,0
84931,-100,4,1,0,75,0,0
85062,-94.3396226415094,4,1,0,75,0,0
85192,-96.1538461538461,4,1,0,75,0,0
85323,-98.0392156862745,4,1,0,75,0,0
85388,-99.009900990099,4,1,0,75,0,0
85453,-100,4,1,0,75,0,0
88323,-103.092783505155,4,1,0,75,0,0
88453,-105.263157894737,4,1,0,75,0,0
88583,-107.52688172043,4,1,0,75,0,0
88714,-109.89010989011,4,1,0,75,0,0
88779,-108.695652173913,4,1,0,75,0,0
88844,-107.52688172043,4,1,0,75,0,0
88910,-106.382978723404,4,1,0,75,0,0
88975,-105.263157894737,4,1,0,75,0,0
89040,-104.166666666667,4,1,0,75,0,0
89105,-103.092783505155,4,1,0,75,0,0
89170,-102.040816326531,4,1,0,75,0,0
89236,-101.010101010101,4,1,0,75,0,0
89301,-100,4,1,0,75,0,0
89366,-99.009900990099,4,1,0,75,0,0
91192,-97.0873786407767,4,1,0,75,0,0
91257,-96.1538461538461,4,1,0,75,0,0
91323,-95.2380952380952,4,1,0,75,0,0
91388,-94.3396226415094,4,1,0,75,0,0
91453,-93.4579439252336,4,1,0,75,0,0
91583,-90.9090909090909,4,1,0,75,0,0
92497,-86.9565217391304,4,1,0,75,0,0
92627,-80,4,1,0,75,0,0
92757,-83.3333333333333,4,1,0,75,0,0
92823,-84.0336134453781,4,1,0,75,0,0
92888,-84.7457627118644,4,1,0,75,0,0
92953,-85.4700854700855,4,1,0,75,0,0
93018,-86.2068965517241,4,1,0,75,0,0
93149,-74.0740740740741,4,1,0,75,0,0
93410,-80,4,1,0,75,0,1
93540,-86.9565217391304,4,1,0,75,0,1
93670,-90.9090909090909,4,1,0,75,0,1
93736,-91.743119266055,4,1,0,75,0,1
93801,-92.5925925925926,4,1,0,75,0,1
93931,-94.3396226415094,4,1,0,75,0,1
94062,-96.1538461538461,4,1,0,75,0,1
94127,-97.0873786407767,4,1,0,75,0,1
94192,-98.0392156862745,4,1,0,75,0,1
94323,-100,4,1,0,75,0,1
96801,-99.009900990099,4,1,0,75,0,1
96866,-98.0392156862745,4,1,0,75,0,1
96931,-97.0873786407767,4,1,0,75,0,1
97062,-95.2380952380952,4,1,0,75,0,1
97192,-93.4579439252336,4,1,0,75,0,1
97323,-90.9090909090909,4,1,0,75,0,1
97453,-88.4955752212389,4,1,0,75,0,1
97583,-86.9565217391304,4,1,0,75,0,1
97714,-95.2380952380952,4,1,0,75,0,1
97779,-96.1538461538461,4,1,0,75,0,1
97844,-97.0873786407767,4,1,0,75,0,1
97975,-100,4,1,0,75,0,1
100062,-105.263157894737,4,1,0,75,0,1
100323,-107.52688172043,4,1,0,75,0,1
100583,-113.636363636364,4,1,0,75,0,1
100714,-119.047619047619,4,1,0,75,0,0
100975,-116.279069767442,4,1,0,75,0,0
101105,-113.636363636364,4,1,0,75,0,0
101236,-111.111111111111,4,1,0,75,0,0
101323,-109.89010989011,4,1,0,75,0,0
101410,-108.695652173913,4,1,0,75,0,0
101497,-107.52688172043,4,1,0,75,0,0
101583,-106.382978723404,4,1,0,75,0,0
101670,-105.263157894737,4,1,0,75,0,0
101757,-100,4,1,0,75,0,1
105149,-99.009900990099,4,1,0,75,0,1
105214,-98.0392156862745,4,1,0,75,0,1
105279,-97.0873786407767,4,1,0,75,0,1
105410,-95.2380952380952,4,1,0,75,0,1
105540,-93.4579439252336,4,1,0,75,0,1
105670,-90.9090909090909,4,1,0,75,0,1
105801,-87.719298245614,4,1,0,75,0,1
105931,-84.0336134453781,4,1,0,75,0,1
106062,-87.719298245614,4,1,0,75,0,1
106127,-88.4955752212389,4,1,0,75,0,1
106192,-89.2857142857143,4,1,0,75,0,1
106323,-91.743119266055,4,1,0,75,0,1
106388,-92.5925925925926,4,1,0,75,0,1
106453,-93.4579439252336,4,1,0,75,0,1
106583,-95.2380952380952,4,1,0,75,0,1
106714,-97.0873786407767,4,1,0,75,0,1
106779,-98.0392156862745,4,1,0,75,0,1
106844,-99.009900990099,4,1,0,75,0,1
106975,-100,4,1,0,75,0,1
109844,-99.009900990099,4,1,0,75,0,0
109910,-98.0392156862745,4,1,0,75,0,0
109975,-97.0873786407767,4,1,0,75,0,0
110040,-96.1538461538461,4,1,0,75,0,0
110105,-95.2380952380952,4,1,0,75,0,1
110236,-93.4579439252336,4,1,0,75,0,1
110366,-90.9090909090909,4,1,0,75,0,1
110497,-88.4955752212389,4,1,0,75,0,1
110627,-86.9565217391304,4,1,0,75,0,1
110757,-85.4700854700855,4,1,0,75,0,1
110888,-83.3333333333333,4,1,0,75,0,1
111018,-81.3008130081301,4,1,0,75,0,1
111149,-80,4,1,0,75,0,1
111931,-79.3650793650794,4,1,0,75,0,1
111997,-78.7401574803149,4,1,0,75,0,1
112062,-78.125,4,1,0,75,0,1
112127,-77.5193798449612,4,1,0,75,0,1
112192,-76.9230769230769,4,1,0,75,0,0
116366,-66.6666666666667,4,1,0,75,0,0
117410,-80,4,1,0,50,0,0
118453,-100,4,1,0,25,0,0

[HitObjects]
256,192,1584,5,4,0:0:0:0:
256,192,2366,1,0,0:0:0:0:
256,192,2497,1,0,0:0:0:0:
256,192,2627,1,8,0:0:0:0:
256,192,3018,1,8,0:0:0:0:
256,192,3410,1,0,0:0:0:0:
256,192,3670,1,8,0:0:0:0:
256,192,4714,1,0,0:0:0:0:
256,192,5236,1,8,0:0:0:0:
256,192,5757,1,4,0:0:0:0:
256,192,6540,1,0,0:0:0:0:
256,192,6670,1,0,0:0:0:0:
256,192,6801,1,8,0:0:0:0:
256,192,7192,1,8,0:0:0:0:
256,192,7583,1,0,0:0:0:0:
256,192,7844,1,8,0:0:0:0:
256,192,8888,1,8,0:0:0:0:
256,192,9931,1,0,0:0:0:0:
256,192,10192,1,0,0:0:0:0:
256,192,10453,1,8,0:0:0:0:
256,192,10714,1,8,0:0:0:0:
256,192,10844,1,0,0:0:0:0:
256,192,10975,1,8,0:0:0:0:
256,192,11105,1,0,0:0:0:0:
256,192,11236,1,0,0:0:0:0:
256,192,11497,1,8,0:0:0:0:
256,192,11757,1,8,0:0:0:0:
256,192,11888,1,8,0:0:0:0:
256,192,12018,1,0,0:0:0:0:
256,192,12279,1,0,0:0:0:0:
256,192,12540,1,8,0:0:0:0:
256,192,12801,1,8,0:0:0:0:
256,192,12931,1,0,0:0:0:0:
256,192,13062,1,8,0:0:0:0:
256,192,13192,1,0,0:0:0:0:
256,192,13323,1,8,0:0:0:0:
256,192,13583,1,8,0:0:0:0:
256,192,13844,1,8,0:0:0:0:
256,192,13910,1,8,0:0:0:0:
256,192,13975,1,8,0:0:0:0:
256,192,14040,1,8,0:0:0:0:
256,192,14105,1,0,0:0:0:0:
256,192,14366,1,0,0:0:0:0:
256,192,14627,1,8,0:0:0:0:
256,192,14888,1,8,0:0:0:0:
256,192,15018,1,0,0:0:0:0:
256,192,15149,1,8,0:0:0:0:
256,192,15279,1,0,0:0:0:0:
256,192,15410,1,0,0:0:0:0:
256,192,15670,1,8,0:0:0:0:
256,192,15931,1,8,0:0:0:0:
256,192,16062,1,0,0:0:0:0:
256,192,16192,1,8,0:0:0:0:
256,192,16453,1,8,0:0:0:0:
256,192,16583,1,0,0:0:0:0:
256,192,16714,1,0,0:0:0:0:
256,192,16975,1,8,0:0:0:0:
256,192,17105,1,0,0:0:0:0:
256,192,17236,1,0,0:0:0:0:
256,192,17301,1,0,0:0:0:0:
256,192,17366,1,8,0:0:0:0:
256,192,17497,1,0,0:0:0:0:
256,192,17627,1,8,0:0:0:0:
256,192,17692,1,8,0:0:0:0:
256,192,17757,1,0,0:0:0:0:
256,192,17888,1,8,0:0:0:0:
256,192,18018,1,8,0:0:0:0:
256,192,18062,1,8,0:0:0:0:
256,192,18105,1,8,0:0:0:0:
256,192,18149,1,0,0:0:0:0:
256,192,18279,1,12,0:0:0:0:
256,192,18540,1,0,0:0:0:0:
256,192,18801,1,0,0:0:0:0:
256,192,19062,1,0,0:0:0:0:
256,192,19323,1,0,0:0:0:0:
256,192,19583,1,0,0:0:0:0:
256,192,19844,1,0,0:0:0:0:
256,192,20105,1,0,0:0:0:0:
256,192,20366,1,12,0:0:0:0:
256,192,20627,1,0,0:0:0:0:
256,192,20888,1,0,0:0:0:0:
256,192,21149,1,0,0:0:0:0:
256,192,21410,1,0,0:0:0:0:
256,192,21670,1,0,0:0:0:0:
256,192,21931,1,0,0:0:0:0:
256,192,22192,1,0,0:0:0:0:
256,192,22453,1,8,0:0:0:0:
256,192,22583,1,0,0:0:0:0:
256,192,22714,1,0,0:0:0:0:
256,192,22844,1,0,0:0:0:0:
256,192,22975,1,8,0:0:0:0:
256,192,23105,1,0,0:0:0:0:
256,192,23236,1,0,0:0:0:0:
256,192,23366,1,0,0:0:0:0:
256,192,23497,1,8,0:0:0:0:
256,192,23562,1,0,0:0:0:0:
256,192,23627,1,8,0:0:0:0:
256,192,23692,1,0,0:0:0:0:
256,192,23757,1,8,0:0:0:0:
256,192,23823,1,8,0:0:0:0:
256,192,23888,1,0,0:0:0:0:
256,192,23953,1,0,0:0:0:0:
256,192,24018,1,8,0:0:0:0:
256,192,24083,1,0,0:0:0:0:
256,192,24149,1,8,0:0:0:0:
256,192,24279,1,12,0:0:0:0:
256,192,24540,1,4,0:0:0:0:
256,192,24670,1,4,0:0:0:0:
256,192,24931,1,4,0:0:0:0:
256,192,25192,1,4,0:0:0:0:
256,192,25323,1,12,0:0:0:0:
256,192,25583,1,12,0:0:0:0:
256,192,25844,1,4,0:0:0:0:
256,192,26105,1,4,0:0:0:0:
256,192,26366,1,12,0:0:0:0:
256,192,26627,1,12,0:0:0:0:
256,192,26757,1,0,0:0:0:0:
256,192,26888,1,8,0:0:0:0:
256,192,26953,1,8,0:0:0:0:
256,192,27018,1,0,0:0:0:0:
256,192,27149,1,8,0:0:0:0:
256,192,27214,1,0,0:0:0:0:
256,192,27279,1,8,0:0:0:0:
256,192,27410,1,8,0:0:0:0:
256,192,27475,1,0,0:0:0:0:
256,192,27540,1,8,0:0:0:0:
256,192,27605,1,8,0:0:0:0:
256,192,27670,1,0,0:0:0:0:
256,192,27801,1,8,0:0:0:0:
256,192,27931,1,0,0:0:0:0:
256,192,27997,1,0,0:0:0:0:
256,192,28062,1,8,0:0:0:0:
256,192,28192,1,8,0:0:0:0:
256,192,28323,1,0,0:0:0:0:
256,192,28388,1,0,0:0:0:0:
256,192,28453,1,8,0:0:0:0:
256,192,28518,1,0,0:0:0:0:
256,192,28583,1,8,0:0:0:0:
256,192,28714,1,0,0:0:0:0:
256,192,28844,1,8,0:0:0:0:
256,192,28975,1,0,0:0:0:0:
256,192,29040,1,0,0:0:0:0:
256,192,29105,1,8,0:0:0:0:
256,192,29236,1,8,0:0:0:0:
256,192,29301,1,0,0:0:0:0:
256,192,29366,1,8,0:0:0:0:
256,192,29497,1,8,0:0:0:0:
256,192,29562,1,8,0:0:0:0:
256,192,29627,1,8,0:0:0:0:
256,192,29692,1,8,0:0:0:0:
256,192,29757,1,0,0:0:0:0:
256,192,29888,1,8,0:0:0:0:
256,192,30018,1,0,0:0:0:0:
256,192,30083,1,0,0:0:0:0:
256,192,30149,1,8,0:0:0:0:
256,192,30279,1,8,0:0:0:0:
256,192,30540,1,0,0:0:0:0:
256,192,30801,1,8,0:0:0:0:
256,192,30866,1,0,0:0:0:0:
256,192,30931,1,8,0:0:0:0:
256,192,31062,1,0,0:0:0:0:
256,192,31127,1,0,0:0:0:0:
256,192,31192,1,8,0:0:0:0:
256,192,31323,1,8,0:0:0:0:
256,192,31388,1,0,0:0:0:0:
256,192,31453,1,8,0:0:0:0:
256,192,31583,1,0,0:0:0:0:
256,192,31649,1,8,0:0:0:0:
256,192,31714,1,0,0:0:0:0:
256,192,31779,1,0,0:0:0:0:
256,192,31844,1,8,0:0:0:0:
256,192,31975,1,0,0:0:0:0:
256,192,32105,1,8,0:0:0:0:
256,192,32170,1,0,0:0:0:0:
256,192,32236,1,8,0:0:0:0:
256,192,32366,1,8,0:0:0:0:
256,192,32497,1,0,0:0:0:0:
256,192,32562,1,0,0:0:0:0:
256,192,32627,1,8,0:0:0:0:
256,192,32692,1,0,0:0:0:0:
256,192,32757,1,8,0:0:0:0:
256,192,32888,1,8,0:0:0:0:
256,192,32953,1,8,0:0:0:0:
256,192,33018,1,0,0:0:0:0:
256,192,33149,1,0,0:0:0:0:
256,192,33214,1,0,0:0:0:0:
256,192,33279,1,8,0:0:0:0:
256,192,33410,1,8,0:0:0:0:
256,192,33475,1,0,0:0:0:0:
256,192,33540,1,8,0:0:0:0:
256,192,33670,1,8,0:0:0:0:
256,192,33801,1,8,0:0:0:0:
256,192,33931,1,12,0:0:0:0:
256,192,34192,1,0,0:0:0:0:
256,192,34323,1,8,0:0:0:0:
256,192,34453,1,8,0:0:0:0:
256,192,34583,1,8,0:0:0:0:
256,192,34714,1,8,0:0:0:0:
256,192,34844,1,8,0:0:0:0:
256,192,34975,1,4,0:0:0:0:
256,192,35105,1,0,0:0:0:0:
256,192,35236,1,8,0:0:0:0:
256,192,35301,1,8,0:0:0:0:
256,192,35366,1,0,0:0:0:0:
256,192,35497,1,8,0:0:0:0:
256,192,35562,1,0,0:0:0:0:
256,192,35627,1,8,0:0:0:0:
256,192,35758,1,8,0:0:0:0:
256,192,35823,1,0,0:0:0:0:
256,192,35888,1,8,0:0:0:0:
256,192,35953,1,8,0:0:0:0:
256,192,36018,1,0,0:0:0:0:
256,192,36149,1,8,0:0:0:0:
256,192,36279,1,0,0:0:0:0:
256,192,36345,1,0,0:0:0:0:
256,192,36410,1,8,0:0:0:0:
256,192,36540,1,8,0:0:0:0:
256,192,36671,1,0,0:0:0:0:
256,192,36736,1,0,0:0:0:0:
256,192,36801,1,8,0:0:0:0:
256,192,36866,1,0,0:0:0:0:
256,192,36931,1,8,0:0:0:0:
256,192,37062,1,0,0:0:0:0:
256,192,37192,1,8,0:0:0:0:
256,192,37323,1,0,0:0:0:0:
256,192,37388,1,0,0:0:0:0:
256,192,37453,1,8,0:0:0:0:
256,192,37584,1,8,0:0:0:0:
256,192,37649,1,0,0:0:0:0:
256,192,37714,1,8,0:0:0:0:
256,192,37845,1,8,0:0:0:0:
256,192,37910,1,8,0:0:0:0:
256,192,37975,1,8,0:0:0:0:
256,192,38040,1,8,0:0:0:0:
256,192,38105,1,0,0:0:0:0:
256,192,38236,1,8,0:0:0:0:
256,192,38366,1,0,0:0:0:0:
256,192,38431,1,0,0:0:0:0:
256,192,38497,1,8,0:0:0:0:
256,192,38627,1,8,0:0:0:0:
256,192,38888,1,0,0:0:0:0:
256,192,39149,1,8,0:0:0:0:
256,192,39279,1,0,0:0:0:0:
256,192,39344,1,0,0:0:0:0:
256,192,39410,1,8,0:0:0:0:
256,192,39540,1,8,0:0:0:0:
256,192,39670,1,8,0:0:0:0:
256,192,39736,1,0,0:0:0:0:
256,192,39801,1,8,0:0:0:0:
256,192,39931,1,8,0:0:0:0:
256,192,39997,1,8,0:0:0:0:
256,192,40062,1,8,0:0:0:0:
256,192,40127,1,0,0:0:0:0:
256,192,40192,1,8,0:0:0:0:
256,192,40323,1,0,0:0:0:0:
256,192,40388,1,0,0:0:0:0:
256,192,40453,1,8,0:0:0:0:
256,192,40583,1,0,0:0:0:0:
256,192,40649,1,0,0:0:0:0:
256,192,40714,1,8,0:0:0:0:
256,192,40844,1,0,0:0:0:0:
256,192,40910,1,0,0:0:0:0:
256,192,40975,1,8,0:0:0:0:
256,192,41105,1,0,0:0:0:0:
256,192,41170,1,0,0:0:0:0:
256,192,41236,1,8,0:0:0:0:
256,192,41301,1,0,0:0:0:0:
256,192,41366,1,8,0:0:0:0:
256,192,41497,1,8,0:0:0:0:
256,192,41562,1,0,0:0:0:0:
256,192,41627,1,8,0:0:0:0:
256,192,41692,1,0,0:0:0:0:
256,192,41757,1,8,0:0:0:0:
256,192,41823,1,8,0:0:0:0:
256,192,41888,1,0,0:0:0:0:
256,192,41953,1,0,0:0:0:0:
256,192,42018,1,8,0:0:0:0:
256,192,42083,1,0,0:0:0:0:
256,192,42149,1,8,0:0:0:0:
256,192,42214,1,8,0:0:0:0:
256,192,42279,1,4,0:0:0:0:
256,192,42410,1,4,0:0:0:0:
256,192,42540,1,12,0:0:0:0:
256,192,42670,1,0,0:0:0:0:
256,192,42736,1,0,0:0:0:0:
256,192,42801,1,0,0:0:0:0:
256,192,42866,1,0,0:0:0:0:
256,192,42931,1,8,0:0:0:0:
256,192,43062,1,12,0:0:0:0:
256,192,43323,1,4,0:0:0:0:
256,192,43453,1,0,0:0:0:0:
256,192,43583,1,8,0:0:0:0:
256,192,43714,1,8,0:0:0:0:
256,192,43975,1,8,0:0:0:0:
256,192,44105,1,8,0:0:0:0:
256,192,44236,1,0,0:0:0:0:
256,192,44366,1,8,0:0:0:0:
256,192,44562,1,0,0:0:0:0:
256,192,44757,1,8,0:0:0:0:
256,192,44888,1,0,0:0:0:0:
256,192,45149,1,8,0:0:0:0:
256,192,45410,1,0,0:0:0:0:
256,192,45540,1,0,0:0:0:0:
256,192,45670,1,8,0:0:0:0:
256,192,45801,1,8,0:0:0:0:
256,192,46062,1,8,0:0:0:0:
256,192,46192,1,8,0:0:0:0:
256,192,46323,1,0,0:0:0:0:
256,192,46453,1,8,0:0:0:0:
256,192,46649,1,0,0:0:0:0:
256,192,46844,1,8,0:0:0:0:
256,192,46975,1,8,0:0:0:0:
256,192,47062,1,0,0:0:0:0:
256,192,47149,1,0,0:0:0:0:
256,192,47236,1,8,0:0:0:0:
256,192,47323,1,8,0:0:0:0:
256,192,47410,1,0,0:0:0:0:
256,192,47497,1,8,0:0:0:0:
256,192,47627,1,8,0:0:0:0:
256,192,47757,1,0,0:0:0:0:
256,192,47888,1,8,0:0:0:0:
256,192,48018,1,0,0:0:0:0:
256,192,48149,1,8,0:0:0:0:
256,192,48410,1,0,0:0:0:0:
256,192,48540,1,8,0:0:0:0:
256,192,48736,1,8,0:0:0:0:
256,192,48931,1,8,0:0:0:0:
256,192,49062,1,0,0:0:0:0:
256,192,49323,1,8,0:0:0:0:
256,192,49583,1,8,0:0:0:0:
256,192,49714,1,8,0:0:0:0:
256,192,49844,1,0,0:0:0:0:
256,192,49975,1,8,0:0:0:0:
256,192,50105,1,0,0:0:0:0:
256,192,50236,1,8,0:0:0:0:
256,192,50497,1,0,0:0:0:0:
256,192,50627,1,8,0:0:0:0:
256,192,50823,1,8,0:0:0:0:
256,192,51018,1,0,0:0:0:0:
256,192,51149,1,8,0:0:0:0:
256,192,51236,1,0,0:0:0:0:
256,192,51323,1,0,0:0:0:0:
256,192,51410,1,8,0:0:0:0:
256,192,51497,1,8,0:0:0:0:
256,192,51583,1,0,0:0:0:0:
256,192,51670,1,12,0:0:0:0:
256,192,51801,1,0,0:0:0:0:
256,192,51931,1,8,0:0:0:0:
256,192,52062,1,12,0:0:0:0:
256,192,52323,1,0,0:0:0:0:
256,192,52583,1,0,0:0:0:0:
256,192,52714,1,8,0:0:0:0:
256,192,52910,1,8,0:0:0:0:
256,192,53105,1,8,0:0:0:0:
256,192,53236,1,0,0:0:0:0:
256,192,53497,1,8,0:0:0:0:
256,192,53757,1,12,0:0:0:0:
256,192,53888,1,0,0:0:0:0:
256,192,54018,1,8,0:0:0:0:
256,192,54149,1,12,0:0:0:0:
256,192,54410,1,0,0:0:0:0:
256,192,54670,1,0,0:0:0:0:
256,192,54801,1,8,0:0:0:0:
256,192,54997,1,8,0:0:0:0:
256,192,55192,1,8,0:0:0:0:
256,192,55323,1,8,0:0:0:0:
256,192,55410,1,0,0:0:0:0:
256,192,55497,1,0,0:0:0:0:
256,192,55583,1,8,0:0:0:0:
256,192,55670,1,8,0:0:0:0:
256,192,55757,1,0,0:0:0:0:
256,192,55844,1,8,0:0:0:0:
256,192,55975,1,0,0:0:0:0:
256,192,56105,1,8,0:0:0:0:
256,192,56236,1,8,0:0:0:0:
256,192,56366,1,0,0:0:0:0:
256,192,56497,1,8,0:0:0:0:
256,192,56757,1,8,0:0:0:0:
256,192,56888,1,8,0:0:0:0:
256,192,57018,1,8,0:0:0:0:
256,192,57149,1,0,0:0:0:0:
256,192,57279,1,8,0:0:0:0:
256,192,57410,1,0,0:0:0:0:
256,192,57540,1,8,0:0:0:0:
256,192,57801,1,0,0:0:0:0:
256,192,57931,1,8,0:0:0:0:
256,192,58062,1,0,0:0:0:0:
256,192,58192,1,8,0:0:0:0:
256,192,58323,1,8,0:0:0:0:
256,192,58453,1,0,0:0:0:0:
256,192,58583,1,0,0:0:0:0:
256,192,58714,1,8,0:0:0:0:
256,192,58844,1,0,0:0:0:0:
256,192,58975,1,8,0:0:0:0:
256,192,59497,1,8,0:0:0:0:
256,192,59627,1,8,0:0:0:0:
256,192,59757,1,8,0:0:0:0:
256,192,59823,1,8,0:0:0:0:
256,192,59888,1,0,0:0:0:0:
256,192,59953,1,0,0:0:0:0:
256,192,60018,1,12,0:0:0:0:
256,192,60344,1,8,0:0:0:0:
256,192,60540,1,8,0:0:0:0:
256,192,60670,1,0,0:0:0:0:
256,192,60801,1,0,0:0:0:0:
256,192,60931,1,8,0:0:0:0:
256,192,61192,1,0,0:0:0:0:
256,192,61323,1,8,0:0:0:0:
256,192,61453,1,0,0:0:0:0:
256,192,61583,1,8,0:0:0:0:
256,192,61714,1,0,0:0:0:0:
256,192,61844,1,8,0:0:0:0:
256,192,61975,1,8,0:0:0:0:
256,192,62105,1,0,0:0:0:0:
256,192,62366,1,8,0:0:0:0:
256,192,62627,1,0,0:0:0:0:
256,192,62757,1,8,0:0:0:0:
256,192,62888,1,0,0:0:0:0:
256,192,63018,1,8,0:0:0:0:
256,192,63279,1,0,0:0:0:0:
256,192,63410,1,8,0:0:0:0:
256,192,63540,1,0,0:0:0:0:
256,192,63670,1,8,0:0:0:0:
256,192,63801,1,0,0:0:0:0:
256,192,63931,1,8,0:0:0:0:
256,192,63975,1,8,0:0:0:0:
256,192,64018,1,8,0:0:0:0:
256,192,64062,1,8,0:0:0:0:
256,192,64192,1,4,0:0:0:0:
256,192,64388,1,0,0:0:0:0:
256,192,64453,1,8,0:0:0:0:
256,192,64583,1,0,0:0:0:0:
256,192,64714,1,0,0:0:0:0:
256,192,64844,1,8,0:0:0:0:
256,192,64975,1,0,0:0:0:0:
256,192,65105,1,8,0:0:0:0:
256,192,65366,1,8,0:0:0:0:
256,192,65497,1,0,0:0:0:0:
256,192,65627,1,0,0:0:0:0:
256,192,65757,1,8,0:0:0:0:
256,192,65888,1,0,0:0:0:0:
256,192,66018,1,8,0:0:0:0:
256,192,66149,1,8,0:0:0:0:
256,192,66279,1,12,0:0:0:0:
256,192,66540,1,0,0:0:0:0:
256,192,66670,1,8,0:0:0:0:
256,192,66801,1,0,0:0:0:0:
256,192,67062,1,8,0:0:0:0:
256,192,67323,1,0,0:0:0:0:
256,192,67453,1,8,0:0:0:0:
256,192,67583,1,0,0:0:0:0:
256,192,67714,1,0,0:0:0:0:
256,192,67779,1,8,0:0:0:0:
256,192,67844,1,0,0:0:0:0:
256,192,67975,1,0,0:0:0:0:
256,192,68105,1,8,0:0:0:0:
256,192,68170,1,8,0:0:0:0:
256,192,68236,1,0,0:0:0:0:
256,192,68301,1,0,0:0:0:0:
256,192,68366,1,12,0:0:0:0:
256,192,68692,1,8,0:0:0:0:
256,192,68888,1,0,0:0:0:0:
256,192,69018,1,8,0:0:0:0:
256,192,69149,1,0,0:0:0:0:
256,192,69279,1,8,0:0:0:0:
256,192,69540,1,0,0:0:0:0:
256,192,69670,1,8,0:0:0:0:
256,192,69801,1,0,0:0:0:0:
256,192,69931,1,8,0:0:0:0:
256,192,70062,1,0,0:0:0:0:
256,192,70127,1,0,0:0:0:0:
256,192,70192,1,8,0:0:0:0:
256,192,70323,1,8,0:0:0:0:
256,192,70453,1,0,0:0:0:0:
256,192,70714,1,8,0:0:0:0:
256,192,70975,1,0,0:0:0:0:
256,192,71105,1,8,0:0:0:0:
256,192,71236,1,0,0:0:0:0:
256,192,71366,1,8,0:0:0:0:
256,192,71627,1,8,0:0:0:0:
256,192,71757,1,8,0:0:0:0:
256,192,71888,1,0,0:0:0:0:
256,192,72018,1,8,0:0:0:0:
256,192,72149,1,0,0:0:0:0:
256,192,72279,1,8,0:0:0:0:
256,192,72323,1,8,0:0:0:0:
256,192,72366,1,8,0:0:0:0:
256,192,72410,1,8,0:0:0:0:
256,192,72540,1,4,0:0:0:0:
256,192,72670,1,0,0:0:0:0:
256,192,72801,1,8,0:0:0:0:
256,192,72931,1,0,0:0:0:0:
256,192,73062,1,0,0:0:0:0:
256,192,73192,1,8,0:0:0:0:
256,192,73323,1,0,0:0:0:0:
256,192,73453,1,8,0:0:0:0:
256,192,73714,1,8,0:0:0:0:
256,192,73844,1,8,0:0:0:0:
256,192,73975,1,0,0:0:0:0:
256,192,74105,1,8,0:0:0:0:
256,192,74236,1,0,0:0:0:0:
256,192,74366,1,8,0:0:0:0:
256,192,74497,1,8,0:0:0:0:
256,192,74627,1,4,0:0:0:0:
256,192,75670,1,12,0:0:0:0:
256,192,75931,1,4,0:0:0:0:
256,192,76192,1,4,0:0:0:0:
256,192,76453,1,12,0:0:0:0:
256,192,76714,1,4,0:0:0:0:
256,192,76844,1,0,0:0:0:0:
256,192,76910,1,0,0:0:0:0:
256,192,76975,1,8,0:0:0:0:
256,192,77105,1,8,0:0:0:0:
256,192,77236,1,8,0:0:0:0:
256,192,77301,1,0,0:0:0:0:
256,192,77366,1,8,0:0:0:0:
256,192,77497,1,8,0:0:0:0:
256,192,77562,1,0,0:0:0:0:
256,192,77627,1,8,0:0:0:0:
256,192,77692,1,8,0:0:0:0:
256,192,77757,1,0,0:0:0:0:
256,192,77888,1,0,0:0:0:0:
256,192,78018,1,8,0:0:0:0:
256,192,78083,1,8,0:0:0:0:
256,192,78149,1,0,0:0:0:0:
256,192,78279,1,12,0:0:0:0:
256,192,78475,1,12,0:0:0:0:
256,192,78670,1,12,0:0:0:0:
256,192,78801,1,0,0:0:0:0:
256,192,78931,1,8,0:0:0:0:
256,192,79062,1,0,0:0:0:0:
256,192,79127,1,0,0:0:0:0:
256,192,79192,1,8,0:0:0:0:
256,192,79323,1,8,0:0:0:0:
256,192,79388,1,0,0:0:0:0:
256,192,79453,1,8,0:0:0:0:
256,192,79583,1,8,0:0:0:0:
256,192,79649,1,0,0:0:0:0:
256,192,79714,1,8,0:0:0:0:
256,192,79779,1,8,0:0:0:0:
256,192,79844,1,8,0:0:0:0:
256,192,79975,1,8,0:0:0:0:
256,192,80105,1,0,0:0:0:0:
256,192,80170,1,0,0:0:0:0:
256,192,80236,1,8,0:0:0:0:
256,192,80366,1,8,0:0:0:0:
256,192,80627,1,0,0:0:0:0:
256,192,80888,1,8,0:0:0:0:
256,192,80953,1,0,0:0:0:0:
256,192,81018,1,8,0:0:0:0:
256,192,81149,1,0,0:0:0:0:
256,192,81214,1,0,0:0:0:0:
256,192,81279,1,8,0:0:0:0:
256,192,81410,1,8,0:0:0:0:
256,192,81475,1,0,0:0:0:0:
256,192,81540,1,8,0:0:0:0:
256,192,81670,1,0,0:0:0:0:
256,192,81736,1,8,0:0:0:0:
256,192,81801,1,0,0:0:0:0:
256,192,81866,1,0,0:0:0:0:
256,192,81931,1,8,0:0:0:0:
256,192,82062,1,8,0:0:0:0:
256,192,82192,1,0,0:0:0:0:
256,192,82257,1,0,0:0:0:0:
256,192,82323,1,8,0:0:0:0:
256,192,82453,1,12,0:0:0:0:
256,192,82649,1,12,0:0:0:0:
256,192,82844,1,12,0:0:0:0:
256,192,82975,1,0,0:0:0:0:
256,192,83105,1,8,0:0:0:0:
256,192,83236,1,0,0:0:0:0:
256,192,83301,1,0,0:0:0:0:
256,192,83366,1,8,0:0:0:0:
256,192,83497,1,8,0:0:0:0:
256,192,83562,1,0,0:0:0:0:
256,192,83627,1,8,0:0:0:0:
256,192,83757,1,8,0:0:0:0:
256,192,83888,1,8,0:0:0:0:
256,192,84018,1,12,0:0:0:0:
256,192,84279,1,0,0:0:0:0:
256,192,84410,1,8,0:0:0:0:
256,192,84540,1,8,0:0:0:0:
256,192,84670,1,8,0:0:0:0:
256,192,84801,1,8,0:0:0:0:
256,192,84931,1,8,0:0:0:0:
256,192,85062,1,4,0:0:0:0:
256,192,85192,1,0,0:0:0:0:
256,192,85323,1,8,0:0:0:0:
256,192,85388,1,8,0:0:0:0:
256,192,85453,1,0,0:0:0:0:
256,192,85583,1,8,0:0:0:0:
256,192,85649,1,0,0:0:0:0:
256,192,85714,1,8,0:0:0:0:
256,192,85844,1,8,0:0:0:0:
256,192,85910,1,0,0:0:0:0:
256,192,85975,1,8,0:0:0:0:
256,192,86040,1,8,0:0:0:0:
256,192,86105,1,0,0:0:0:0:
256,192,86236,1,0,0:0:0:0:
256,192,86366,1,8,0:0:0:0:
256,192,86431,1,8,0:0:0:0:
256,192,86497,1,0,0:0:0:0:
256,192,86627,1,8,0:0:0:0:
256,192,86757,1,8,0:0:0:0:
256,192,86823,1,8,0:0:0:0:
256,192,86888,1,8,0:0:0:0:
256,192,86953,1,0,0:0:0:0:
256,192,87018,1,8,0:0:0:0:
256,192,87083,1,0,0:0:0:0:
256,192,87149,1,8,0:0:0:0:
256,192,87279,1,8,0:0:0:0:
256,192,87410,1,0,0:0:0:0:
256,192,87475,1,0,0:0:0:0:
256,192,87540,1,8,0:0:0:0:
256,192,87670,1,8,0:0:0:0:
256,192,87736,1,0,0:0:0:0:
256,192,87801,1,8,0:0:0:0:
256,192,87931,1,8,0:0:0:0:
256,192,87997,1,8,0:0:0:0:
256,192,88062,1,0,0:0:0:0:
256,192,88192,1,4,0:0:0:0:
256,192,88323,1,8,0:0:0:0:
256,192,88453,1,8,0:0:0:0:
256,192,88583,1,8,0:0:0:0:
256,192,88714,1,8,0:0:0:0:
256,192,88779,1,8,0:0:0:0:
256,192,88844,1,8,0:0:0:0:
256,192,88910,1,8,0:0:0:0:
256,192,88975,1,8,0:0:0:0:
256,192,89040,1,8,0:0:0:0:
256,192,89105,1,0,0:0:0:0:
256,192,89170,1,0,0:0:0:0:
256,192,89236,1,8,0:0:0:0:
256,192,89301,1,0,0:0:0:0:
256,192,89366,1,8,0:0:0:0:
256,192,89497,1,0,0:0:0:0:
256,192,89562,1,0,0:0:0:0:
256,192,89627,1,8,0:0:0:0:
256,192,89757,1,8,0:0:0:0:
256,192,89823,1,0,0:0:0:0:
256,192,89888,1,8,0:0:0:0:
256,192,90018,1,8,0:0:0:0:
256,192,90083,1,8,0:0:0:0:
256,192,90149,1,8,0:0:0:0:
256,192,90214,1,0,0:0:0:0:
256,192,90279,1,8,0:0:0:0:
256,192,90410,1,0,0:0:0:0:
256,192,90475,1,0,0:0:0:0:
256,192,90540,1,8,0:0:0:0:
256,192,90670,1,0,0:0:0:0:
256,192,90736,1,0,0:0:0:0:
256,192,90801,1,8,0:0:0:0:
256,192,90931,1,0,0:0:0:0:
256,192,90997,1,0,0:0:0:0:
256,192,91062,1,8,0:0:0:0:
256,192,91192,1,0,0:0:0:0:
256,192,91257,1,0,0:0:0:0:
256,192,91323,1,8,0:0:0:0:
256,192,91388,1,0,0:0:0:0:
256,192,91453,1,8,0:0:0:0:
256,192,91583,1,8,0:0:0:0:
256,192,91649,1,0,0:0:0:0:
256,192,91714,1,8,0:0:0:0:
256,192,91779,1,0,0:0:0:0:
256,192,91844,1,8,0:0:0:0:
256,192,91910,1,8,0:0:0:0:
256,192,91975,1,0,0:0:0:0:
256,192,92040,1,0,0:0:0:0:
256,192,92105,1,8,0:0:0:0:
256,192,92170,1,0,0:0:0:0:
256,192,92236,1,8,0:0:0:0:
256,192,92301,1,8,0:0:0:0:
256,192,92366,1,4,0:0:0:0:
256,192,92497,1,4,0:0:0:0:
256,192,92627,1,12,0:0:0:0:
256,192,92757,1,0,0:0:0:0:
256,192,92823,1,0,0:0:0:0:
256,192,92888,1,0,0:0:0:0:
256,192,92953,1,0,0:0:0:0:
256,192,93018,1,8,0:0:0:0:
256,192,93149,1,12,0:0:0:0:
256,192,93410,1,12,0:0:0:0:
256,192,93540,1,0,0:0:0:0:
256,192,93670,1,8,0:0:0:0:
256,192,93736,1,8,0:0:0:0:
256,192,93801,1,0,0:0:0:0:
256,192,93931,1,8,0:0:0:0:
256,192,94062,1,0,0:0:0:0:
256,192,94127,1,0,0:0:0:0:
256,192,94192,1,8,0:0:0:0:
256,192,94323,1,8,0:0:0:0:
256,192,94388,1,8,0:0:0:0:
256,192,94453,1,0,0:0:0:0:
256,192,94583,1,0,0:0:0:0:
256,192,94714,1,8,0:0:0:0:
256,192,94844,1,0,0:0:0:0:
256,192,94910,1,0,0:0:0:0:
256,192,94975,1,8,0:0:0:0:
256,192,95105,1,0,0:0:0:0:
256,192,95236,1,8,0:0:0:0:
256,192,95301,1,8,0:0:0:0:
256,192,95366,1,0,0:0:0:0:
256,192,95497,1,8,0:0:0:0:
256,192,95562,1,8,0:0:0:0:
256,192,95627,1,8,0:0:0:0:
256,192,95757,1,8,0:0:0:0:
256,192,95888,1,0,0:0:0:0:
256,192,96018,1,8,0:0:0:0:
256,192,96149,1,8,0:0:0:0:
256,192,96192,1,0,0:0:0:0:
256,192,96236,1,0,0:0:0:0:
256,192,96279,1,8,0:0:0:0:
256,192,96410,1,8,0:0:0:0:
256,192,96475,1,8,0:0:0:0:
256,192,96540,1,0,0:0:0:0:
256,192,96670,1,0,0:0:0:0:
256,192,96801,1,8,0:0:0:0:
256,192,96866,1,0,0:0:0:0:
256,192,96931,1,8,0:0:0:0:
256,192,97062,1,12,0:0:0:0:
256,192,97192,1,0,0:0:0:0:
256,192,97323,1,12,0:0:0:0:
256,192,97453,1,0,0:0:0:0:
256,192,97583,1,12,0:0:0:0:
256,192,97714,1,8,0:0:0:0:
256,192,97779,1,0,0:0:0:0:
256,192,97844,1,8,0:0:0:0:
256,192,97975,1,8,0:0:0:0:
256,192,98040,1,8,0:0:0:0:
256,192,98105,1,0,0:0:0:0:
256,192,98236,1,8,0:0:0:0:
256,192,98366,1,0,0:0:0:0:
256,192,98431,1,0,0:0:0:0:
256,192,98497,1,8,0:0:0:0:
256,192,98627,1,8,0:0:0:0:
256,192,98692,1,8,0:0:0:0:
256,192,98757,1,0,0:0:0:0:
256,192,98888,1,8,0:0:0:0:
256,192,99018,1,0,0:0:0:0:
256,192,99149,1,8,0:0:0:0:
256,192,99279,1,0,0:0:0:0:
256,192,99410,1,8,0:0:0:0:
256,192,99540,1,8,0:0:0:0:
256,192,99670,1,8,0:0:0:0:
256,192,99736,1,0,0:0:0:0:
256,192,99801,1,8,0:0:0:0:
256,192,99931,1,0,0:0:0:0:
256,192,100062,1,8,0:0:0:0:
256,192,100127,1,0,0:0:0:0:
256,192,100192,1,0,0:0:0:0:
256,192,100323,1,8,0:0:0:0:
256,192,100388,1,8,0:0:0:0:
256,192,100453,1,0,0:0:0:0:
256,192,100583,1,8,0:0:0:0:
256,192,100714,1,4,0:0:0:0:
256,192,100975,1,8,0:0:0:0:
256,192,101105,1,0,0:0:0:0:
256,192,101236,1,8,0:0:0:0:
256,192,101323,1,0,0:0:0:0:
256,192,101410,1,0,0:0:0:0:
256,192,101497,1,8,0:0:0:0:
256,192,101583,1,8,0:0:0:0:
256,192,101670,1,0,0:0:0:0:
256,192,101757,1,12,0:0:0:0:
256,192,101888,1,0,0:0:0:0:
256,192,102018,1,8,0:0:0:0:
256,192,102083,1,8,0:0:0:0:
256,192,102149,1,0,0:0:0:0:
256,192,102279,1,8,0:0:0:0:
256,192,102344,1,0,0:0:0:0:
256,192,102410,1,8,0:0:0:0:
256,192,102540,1,0,0:0:0:0:
256,192,102670,1,8,0:0:0:0:
256,192,102736,1,8,0:0:0:0:
256,192,102801,1,0,0:0:0:0:
256,192,102931,1,0,0:0:0:0:
256,192,103062,1,8,0:0:0:0:
256,192,103192,1,0,0:0:0:0:
256,192,103257,1,0,0:0:0:0:
256,192,103323,1,8,0:0:0:0:
256,192,103453,1,0,0:0:0:0:
256,192,103583,1,8,0:0:0:0:
256,192,103649,1,8,0:0:0:0:
256,192,103714,1,0,0:0:0:0:
256,192,103844,1,8,0:0:0:0:
256,192,103910,1,8,0:0:0:0:
256,192,103975,1,8,0:0:0:0:
256,192,104105,1,8,0:0:0:0:
256,192,104236,1,0,0:0:0:0:
256,192,104366,1,8,0:0:0:0:
256,192,104497,1,8,0:0:0:0:
256,192,104540,1,0,0:0:0:0:
256,192,104583,1,0,0:0:0:0:
256,192,104627,1,8,0:0:0:0:
256,192,104757,1,8,0:0:0:0:
256,192,104823,1,8,0:0:0:0:
256,192,104888,1,0,0:0:0:0:
256,192,105018,1,0,0:0:0:0:
256,192,105149,1,8,0:0:0:0:
256,192,105214,1,0,0:0:0:0:
256,192,105279,1,8,0:0:0:0:
256,192,105410,1,12,0:0:0:0:
256,192,105540,1,0,0:0:0:0:
256,192,105670,1,12,0:0:0:0:
256,192,105801,1,0,0:0:0:0:
256,192,105931,1,12,0:0:0:0:
256,192,106062,1,8,0:0:0:0:
256,192,106127,1,0,0:0:0:0:
256,192,106192,1,8,0:0:0:0:
256,192,106323,1,8,0:0:0:0:
256,192,106388,1,8,0:0:0:0:
256,192,106453,1,0,0:0:0:0:
256,192,106584,1,8,0:0:0:0:
256,192,106714,1,0,0:0:0:0:
256,192,106779,1,0,0:0:0:0:
256,192,106845,1,8,0:0:0:0:
256,192,106975,1,8,0:0:0:0:
256,192,107040,1,8,0:0:0:0:
256,192,107105,1,0,0:0:0:0:
256,192,107236,1,8,0:0:0:0:
256,192,107366,1,0,0:0:0:0:
256,192,107497,1,8,0:0:0:0:
256,192,107627,1,0,0:0:0:0:
256,192,107758,1,8,0:0:0:0:
256,192,107888,1,8,0:0:0:0:
256,192,108018,1,8,0:0:0:0:
256,192,108084,1,0,0:0:0:0:
256,192,108149,1,8,0:0:0:0:
256,192,108279,1,0,0:0:0:0:
256,192,108410,1,8,0:0:0:0:
256,192,108475,1,0,0:0:0:0:
256,192,108540,1,0,0:0:0:0:
256,192,108671,1,8,0:0:0:0:
256,192,108736,1,8,0:0:0:0:
256,192,108801,1,0,0:0:0:0:
256,192,108931,1,8,0:0:0:0:
256,192,109062,1,8,0:0:0:0:
256,192,109127,1,8,0:0:0:0:
256,192,109192,1,0,0:0:0:0:
256,192,109323,1,8,0:0:0:0:
256,192,109388,1,0,0:0:0:0:
256,192,109453,1,8,0:0:0:0:
256,192,109583,1,8,0:0:0:0:
256,192,109649,1,0,0:0:0:0:
256,192,109714,1,0,0:0:0:0:
256,192,109844,1,8,0:0:0:0:
256,192,109910,1,8,0:0:0:0:
256,192,109975,1,8,0:0:0:0:
256,192,110040,1,8,0:0:0:0:
256,192,110105,1,0,0:0:0:0:
256,192,110236,1,0,0:0:0:0:
256,192,110366,1,8,0:0:0:0:
256,192,110497,1,8,0:0:0:0:
256,192,110627,1,0,0:0:0:0:
256,192,110757,1,0,0:0:0:0:
256,192,110888,1,8,0:0:0:0:
256,192,111018,1,8,0:0:0:0:
256,192,111149,1,8,0:0:0:0:
256,192,111214,1,0,0:0:0:0:
256,192,111279,1,8,0:0:0:0:
256,192,111344,1,0,0:0:0:0:
256,192,111410,1,8,0:0:0:0:
256,192,111475,1,8,0:0:0:0:
256,192,111540,1,0,0:0:0:0:
256,192,111605,1,0,0:0:0:0:
256,192,111670,1,8,0:0:0:0:
256,192,111736,1,0,0:0:0:0:
256,192,111801,1,8,0:0:0:0:
256,192,111866,1,0,0:0:0:0:
256,192,111931,1,8,0:0:0:0:
256,192,111997,1,8,0:0:0:0:
256,192,112062,1,0,0:0:0:0:
256,192,112127,1,0,0:0:0:0:
256,192,112192,1,12,0:0:0:0:
256,192,116366,8,0,118453,0:0:0:0:
