osu file format v14

[General]
AudioFilename: audio.mp3
AudioLeadIn: 0
PreviewTime: -1
Countdown: 0
SampleSet: Normal
StackLeniency: 0.2
Mode: 0
LetterboxInBreaks: 0
WidescreenStoryboard: 0

[Editor]
Bookmarks: 80327,80588
DistanceSpacing: 1
BeatDivisor: 4
GridSize: 32
TimelineZoom: 2.1

[Metadata]
Title:Make Magic
TitleUnicode:Make Magic
Artist:Lite Show Magic
ArtistUnicode:Lite Show Magic
Creator:JamSandvich
Version:Magic
Source:SOUND VOLTEX IV HEAVENLY HAVEN
Tags:sdvx iv lite show magic Jam
BeatmapID:1219445
BeatmapSetID:575946

[Difficulty]
HPDrainRate:5.6
CircleSize:4
OverallDifficulty:8.7
ApproachRate:9.3
SliderMultiplier:1.60000000596046
SliderTickRate:1

[Events]
//Background and Video events
0,0,"dying_stars_by_nanomortis-daa79jv.png",0,0
//Break Periods
2,112353,115773
//Storyboard Layer 0 (Background)
//Storyboard Layer 1 (Fail)
//Storyboard Layer 2 (Pass)
//Storyboard Layer 3 (Foreground)
//Storyboard Sound Samples

[TimingPoints]
1545,260.869565217391,4,1,0,70,1,0
1545,-125,4,1,0,70,0,0
3566,-125,4,1,0,5,0,0
3631,-125,4,1,0,70,0,0
7740,-125,4,1,0,5,0,0
7805,-125,4,1,0,70,0,0
11914,-125,4,1,0,5,0,0
11979,-125,4,1,0,70,0,0
14001,-125,4,1,0,5,0,0
14066,-125,4,1,0,70,0,0
16153,-200,4,1,0,70,0,0
18240,-100,4,1,0,70,0,0
19805,-66.6666666666667,4,1,0,70,0,0
20327,-80,4,1,0,70,0,0
24240,-50,4,1,0,70,0,0
25544,-200,4,1,0,70,0,0
26327,-50,4,1,0,70,0,0
26588,-66.6666666666667,4,1,0,70,0,0
27892,-55.5555555555556,4,1,0,70,0,0
28153,-58.8235294117647,4,1,0,70,0,0
28413,-62.5,4,1,0,70,0,0
29718,-55.5555555555556,4,1,0,70,0,0
30240,-100,4,1,0,70,0,0
32849,-58.8235294117647,4,1,0,70,0,0
33892,-83.3333333333333,4,1,0,70,0,0
40414,-133.333333333333,4,1,0,70,0,0
42240,-83.3333333333333,4,1,0,70,0,0
51631,-80,4,1,0,70,0,0
52023,-57.1428571428571,4,1,0,70,0,0
54110,-133.333333333333,4,1,0,70,0,0
54371,-57.1428571428571,4,1,0,70,0,0
58936,-200,4,1,0,70,0,0
59718,-50,4,1,0,70,0,0
59979,-57.1428571428571,4,1,0,70,0,0
62066,-200,4,1,0,70,0,0
62718,-57.1428571428571,4,1,0,70,0,0
66240,-133.333333333333,4,1,0,70,0,0
67805,-66.6666666666667,4,1,0,70,0,0
68066,-50,4,1,0,70,0,0
68588,-57.1428571428571,4,1,0,70,0,0
70023,-50,4,1,0,70,0,0
74197,-66.6666666666667,4,1,0,70,0,0
75631,-133.333333333333,4,1,0,70,0,0
75892,-100,4,1,0,70,0,0
76153,-66.6666666666667,4,1,0,70,0,0
76414,-50,4,1,0,70,0,0
77197,-80,4,1,0,70,0,0
90240,-133.333333333333,4,1,0,70,0,0
90501,-100,4,1,0,70,0,0
90762,-66.6666666666667,4,1,0,70,0,0
91284,-100,4,1,0,70,0,0
91544,-133.333333333333,4,1,0,70,0,0
93371,-50,4,1,0,70,0,0
95197,-100,4,1,0,70,0,0
95458,-200,4,1,0,70,0,0
95979,-100,4,1,0,70,0,0
99110,-133.333333333333,4,1,0,70,0,0
101718,-100,4,1,0,70,0,0
103805,-200,4,1,0,70,0,0
105371,-100,4,1,0,70,0,0
107458,-133.333333333333,4,1,0,70,0,0
109023,-100,4,1,0,70,0,0
109544,-133.333333333333,4,1,0,70,0,0
112153,-200,4,1,0,70,0,0

[HitObjects]
87,175,1545,6,0,P|151:259|132:111,1,384.00000143051
60,79,2458,5,0,0:0:0:0:
62,106,2588,2,0,B|150:74|150:74|118:120,1,128.000000476837
249,33,2979,2,0,B|233:125|233:125|209:74,1,128.000000476837
218,231,3371,2,0,B|164:182|164:182|196:186,1,96.0000003576276,0|0,2:0|2:0,2:0:0:0:
217,163,3631,6,0,P|323:325|147:233,1,512.000001907347
246,260,5718,6,0,P|310:127|176:189,1,384.00000143051
150,286,6631,5,0,0:0:0:0:
139,304,6762,2,0,B|139:217|139:217|97:166,1,128.000000476837
66,63,7153,2,0,B|141:106|141:106|206:95,1,128.000000476837
310,121,7544,2,0,B|234:164|234:164|222:198,1,96.0000003576276
227,205,7805,6,0,P|390:308|352:132,1,448.000001668929
325,230,8849,6,0,B|273:185|288:117|283:72|374:49|374:49|311:43|264:30|264:30|203:42|157:72,1,448.000001668929
73,52,9892,6,0,B|86:131|127:150|161:153|161:153|141:226|160:315|192:334|192:334|194:301|192:275,1,384.00000143051
246,221,10805,5,0,0:0:0:0:
277,200,10936,2,0,B|211:187|211:187|155:149,1,128.000000476837
358,92,11327,2,0,B|378:151|378:151|375:217,1,128.000000476837
290,330,11718,2,0,P|229:317|175:285,1,96.0000003576276
175,236,11979,6,0,B|256:284|379:294|379:294|359:261|359:261|324:253|291:230,1,320.000001192092
305,129,12762,2,0,P|335:138|363:154,1,64.0000002384184
418,265,13023,6,0,P|332:253|274:215,1,128.000000476837
196,189,13414,2,0,P|249:120|311:89,1,128.000000476837
372,34,13805,2,0,P|404:114|404:151,1,96.0000003576276
431,153,14066,6,0,P|440:244|387:97,1,832.000003099439
400,128,15892,5,0,0:0:0:0:
427,160,16023,1,0,0:0:0:0:
458,187,16153,2,0,P|469:138|381:219,1,360.000001341103
470,247,17458,5,0,0:0:0:0:
371,278,17588,1,0,0:0:0:0:
272,247,17718,1,0,0:0:0:0:
42,137,17849,5,0,0:0:0:0:
141,106,17979,1,0,0:0:0:0:
240,137,18109,1,0,0:0:0:0:
272,247,18240,6,0,L|365:256,1,80.000000298023
240,137,18501,2,0,L|147:128,1,80.000000298023
276,261,18762,6,0,L|394:273,1,80.000000298023
235,122,19023,2,0,L|117:110,1,80.000000298023
280,275,19284,6,0,L|398:286,1,80.000000298023
230,107,19545,2,0,L|111:95,1,80.000000298023
144,324,19805,6,0,B|133:267|133:267|152:208,1,120.000005024671
368,60,20066,2,0,B|379:117|379:117|359:175,1,120.000005024671
124,80,20327,6,0,L|238:92,1,100.000000372529
388,304,20588,2,0,L|274:292,1,100.000000372529
114,57,20849,2,0,L|228:69,1,100.000000372529
398,327,21110,2,0,L|284:315,1,100.000000372529
144,324,21371,6,0,L|156:210,1,100.000000372529
368,60,21631,2,0,L|356:174,1,100.000000372529
121,334,21892,2,0,L|133:220,1,100.000000372529
391,50,22153,2,0,L|379:164,1,100.000000372529
369,248,22414,5,0,0:0:0:0:
358,347,22544,1,0,0:0:0:0:
336,236,22675,5,0,0:0:0:0:
325,335,22805,1,0,0:0:0:0:
280,144,22936,5,0,0:0:0:0:
181,133,23066,1,0,0:0:0:0:
292,111,23197,5,0,0:0:0:0:
193,100,23327,1,0,0:0:0:0:
391,122,23458,6,0,L|448:120,3,50.0000001862644
237,225,23718,2,0,L|180:223,3,50.0000001862644
404,307,23979,5,0,0:0:0:0:
401,326,24044,1,0,0:0:0:0:
398,346,24109,1,0,0:0:0:0:
396,366,24174,1,0,0:0:0:0:
393,383,24240,2,0,P|368:288|328:220,1,160.000000596046
132,51,24501,5,0,0:0:0:0:
139,328,24631,1,0,0:0:0:0:
164,317,24892,5,0,0:0:0:0:
158,66,25153,1,0,0:0:0:0:
48,128,25284,2,0,P|104:182|188:188,1,160.000000596046
326,95,25544,6,0,P|346:75|359:57,1,40.0000001490115
244,12,25805,2,0,P|217:4|194:2,1,40.0000001490115
213,126,26066,2,0,P|219:152|229:173,1,40.0000001490115
333,218,26327,6,0,P|277:189|298:248,1,160.000000596046
368,299,26588,5,0,0:0:0:0:
146,323,26718,1,0,0:0:0:0:
224,164,26849,5,0,0:0:0:0:
323,370,26979,1,0,0:0:0:0:
146,323,27110,2,0,B|127:254|127:254|128:203,1,120.000005024671
155,94,27371,5,0,0:0:0:0:
194,48,27436,1,0,0:0:0:0:
252,37,27501,1,0,0:0:0:0:
310,36,27566,1,0,0:0:0:0:
365,60,27631,2,0,B|389:92|389:92|389:136|389:136|357:184,1,120.000005024671
127,205,27892,6,0,P|180:164|260:162,1,143.99999614191
344,126,28153,2,0,P|340:200|296:246,1,136.000003100633
201,265,28414,2,0,P|239:325|292:345,1,128.000000476837
468,303,28675,5,0,0:0:0:0:
344,126,28805,1,0,0:0:0:0:
466,144,28936,5,0,0:0:0:0:
290,344,29066,1,0,0:0:0:0:
155,164,29197,5,0,0:0:0:0:
308,222,29327,1,0,0:0:0:0:
181,325,29458,5,0,0:0:0:0:
143,295,29523,1,0,0:0:0:0:
105,266,29588,1,0,0:0:0:0:
80,225,29653,1,0,0:0:0:0:
60,182,29718,2,0,B|61:141|61:141|99:87|99:87|190:61,1,143.99999614191
344,126,29979,5,0,0:0:0:0:
155,164,30110,1,0,0:0:0:0:
181,325,30240,6,0,L|270:320,1,80.000000298023
370,287,30501,2,0,L|290:291,1,80.000000298023
141,248,30762,5,0,0:0:0:0:
299,324,30892,1,0,0:0:0:0:
105,266,31023,5,0,0:0:0:0:
335,306,31153,1,0,0:0:0:0:
70,285,31284,5,0,0:0:0:0:
370,287,31414,1,0,0:0:0:0:
261,203,31544,6,0,L|248:164,4,40.0000001490115
237,336,31936,5,0,0:0:0:0:
286,55,32066,1,0,0:0:0:0:
370,287,32197,5,0,0:0:0:0:
395,147,32327,1,0,0:0:0:0:
128,244,32458,5,0,0:0:0:0:
153,104,32588,1,0,0:0:0:0:
261,203,32718,1,0,0:0:0:0:
438,126,32849,6,0,L|413:259,1,136.000003100633
238,252,33110,5,0,0:0:0:0:
155,95,33241,1,0,0:0:0:0:
331,102,33371,1,0,0:0:0:0:
154,193,33501,6,0,L|196:132,1,68.0000015503166
248,44,33631,2,0,L|279:110,1,68.0000015503166
330,200,33762,2,0,L|256:193,1,68.0000015503166
236,349,33892,6,0,B|227:373|227:373|355:325|355:325|314:306,1,191.99999485588
238,252,34284,2,0,B|238:215|238:215|272:237|272:237|253:247,4,95.9999974279402
153,288,34936,6,0,L|154:188,1,95.9999974279402
171,75,35197,1,0,0:0:0:0:
342,161,35327,1,0,0:0:0:0:
153,192,35458,5,0,0:0:0:0:
288,55,35588,1,0,0:0:0:0:
255,245,35718,6,0,L|200:267,4,47.9999987139701
153,192,36110,5,0,0:0:0:0:
420,93,36240,1,0,0:0:0:0:
178,51,36371,5,0,0:0:0:0:
311,3,36501,1,0,0:0:0:0:
261,282,36631,5,0,0:0:0:0:
395,234,36762,2,0,P|409:282|405:347,1,95.9999974279402
319,292,37023,5,0,0:0:0:0:
162,132,37153,1,0,0:0:0:0:
102,348,37284,5,0,0:0:0:0:
259,188,37414,1,0,0:0:0:0:
42,132,37544,2,0,P|98:138|166:127,1,95.9999974279402
325,91,37805,5,0,0:0:0:0:
348,87,37870,1,0,0:0:0:0:
372,87,37935,1,0,0:0:0:0:
396,88,38000,1,0,0:0:0:0:
420,93,38065,1,0,0:0:0:0:
506,229,38197,5,0,0:0:0:0:
225,180,38327,1,0,0:0:0:0:
373,205,38458,1,0,0:0:0:0:
349,338,38588,6,0,B|386:295|386:295|394:252,1,95.9999974279402
325,91,38849,2,0,B|288:134|288:134|280:177,1,95.9999974279402
459,198,39110,6,0,B|416:161|416:161|373:153,1,95.9999974279402
165,319,39371,1,0,0:0:0:0:
225,180,39501,1,0,0:0:0:0:
53,198,39631,2,0,B|96:161|96:161|139:153,1,95.9999974279402
325,91,39892,5,0,0:0:0:0:
325,91,40023,1,0,0:0:0:0:
308,302,40153,5,0,0:0:0:0:
308,302,40284,1,0,0:0:0:0:
134,182,40414,6,0,L|51:185,1,60.0000025123357
325,91,40675,2,0,L|367:33,1,60.0000025123357
155,123,40936,2,0,L|97:80,1,60.0000025123357
187,293,41197,5,0,0:0:0:0:
187,293,41328,1,0,0:0:0:0:
357,261,41458,5,0,0:0:0:0:
357,261,41589,1,0,0:0:0:0:
325,91,41718,5,0,0:0:0:0:
373,226,41849,1,0,0:0:0:0:
259,314,41979,1,0,0:0:0:0:
140,233,42110,1,0,0:0:0:0:
181,95,42240,6,0,L|150:55,2,47.9999987139701
128,150,42631,5,0,0:0:0:0:
127,165,42696,1,0,0:0:0:0:
127,181,42761,1,0,0:0:0:0:
127,197,42826,1,0,0:0:0:0:
127,213,42891,1,0,0:0:0:0:
127,229,42957,1,0,0:0:0:0:
127,245,43023,2,0,B|166:205|166:205|222:188,1,95.9999974279402
296,160,43284,5,0,3:0:0:0:
379,140,43414,1,0,3:0:0:0:
437,203,43544,1,0,3:0:0:0:
411,285,43675,1,0,3:0:0:0:
328,304,43936,5,0,3:0:0:0:
270,240,44197,5,0,3:0:0:0:
286,124,44327,5,0,0:0:0:0:
179,73,44523,1,0,0:0:0:0:
98,159,44718,1,0,0:0:0:0:
155,262,44849,5,0,0:0:0:0:
270,240,45110,5,0,0:0:0:0:
286,124,45371,5,0,0:0:0:0:
371,96,45501,1,0,0:0:0:0:
446,145,45631,1,0,0:0:0:0:
454,235,45762,1,0,0:0:0:0:
391,298,46023,5,0,0:0:0:0:
302,288,46284,5,0,0:0:0:0:
254,212,46414,5,0,0:0:0:0:
15,183,46610,1,0,0:0:0:0:
148,78,46805,1,0,0:0:0:0:
121,317,46936,5,0,0:0:0:0:
172,291,47023,1,0,0:0:0:0:
223,291,47110,1,0,0:0:0:0:
274,317,47197,5,0,0:0:0:0:
325,342,47284,1,0,0:0:0:0:
377,342,47371,1,0,0:0:0:0:
428,317,47458,5,0,0:0:0:0:
420,227,47588,1,0,0:0:0:0:
339,159,47718,1,0,0:0:0:0:
331,69,47849,1,0,0:0:0:0:
173,158,48110,5,0,0:0:0:0:
262,316,48371,5,0,0:0:0:0:
420,227,48501,5,0,0:0:0:0:
499,188,48697,1,0,0:0:0:0:
487,102,48892,1,0,0:0:0:0:
401,87,49023,5,0,0:0:0:0:
360,164,49284,5,0,0:0:0:0:
360,164,49544,5,0,0:0:0:0:
152,220,49675,1,0,0:0:0:0:
284,296,49805,1,0,0:0:0:0:
228,88,49936,1,0,0:0:0:0:
76,352,50197,5,0,0:0:0:0:
20,144,50458,5,0,0:0:0:0:
65,262,50588,5,0,0:0:0:0:
191,255,50784,1,0,0:0:0:0:
224,133,50979,1,0,0:0:0:0:
118,64,51110,5,0,0:0:0:0:
169,38,51197,1,0,0:0:0:0:
220,38,51284,1,0,0:0:0:0:
271,64,51371,5,0,0:0:0:0:
322,89,51458,1,0,0:0:0:0:
374,89,51545,1,0,0:0:0:0:
425,64,51631,6,0,P|414:89|399:116,1,50.0000001862644
321,213,51762,2,0,P|298:229|272:245,1,50.0000001862644
156,283,51892,2,0,P|128:286|97:286,1,50.0000001862644
0,267,52023,6,0,P|79:175|188:142,1,210.000002785026
239,147,52284,2,0,P|288:204|194:182,1,210.000002785026
166,75,52544,6,0,P|158:138|166:167,1,70.0000009283421
243,337,52675,2,0,P|224:245|158:193,1,140.000001856684
113,215,52871,2,0,P|177:216|251:188,1,140.000001856684
326,151,53066,6,0,B|360:142|360:142|395:140,1,70.0000009283421
486,247,53197,2,0,B|360:310|360:310|379:276|379:276|373:242,1,210.000002785026
287,282,53458,2,0,B|303:260|303:260|297:226|297:226|258:207|258:207|215:249|215:249|170:273|170:273,1,210.000002785026
50,343,53718,6,0,B|76:328|76:328|107:298,1,70.0000009283421
113,215,53849,2,0,B|103:176|103:176|103:146,1,70.0000009283421
164,95,53979,2,0,B|202:105|202:105|228:120,1,70.0000009283421
306,182,54110,6,0,P|341:201|341:167,1,90.0000037685036
233,161,54371,2,0,P|258:255|364:271,1,210.000002785026
422,155,54631,6,0,L|491:181,1,70.0000009283421
358,273,54762,2,0,B|274:267|274:267|203:304,1,140.000001856684
180,351,54958,2,0,B|205:301|205:301|199:217,1,140.000001856684
107,275,55153,2,0,L|101:205,1,70.0000009283421
32,128,55284,5,0,0:0:0:0:
64,128,55371,1,0,0:0:0:0:
96,128,55458,1,0,0:0:0:0:
160,96,55544,5,0,0:0:0:0:
192,96,55631,1,0,0:0:0:0:
224,96,55718,1,0,0:0:0:0:
288,128,55805,6,0,L|384:128,1,70.0000009283421
486,192,55936,2,0,L|416:192,1,70.0000009283421
358,256,56066,2,0,L|288:256,1,70.0000009283421
224,192,56197,2,0,P|141:191|202:252,1,210.000002785026
260,323,56458,2,0,P|149:346|60:271,1,210.000002785026
56,254,56718,6,0,L|126:254,1,70.0000009283421
196,254,56849,2,0,L|266:254,1,70.0000009283421
86,137,56979,6,0,L|156:137,1,70.0000009283421
226,137,57110,2,0,L|296:137,1,70.0000009283421
371,138,57240,6,0,P|273:157|346:107,1,210.000002785026
202,89,57501,2,0,P|294:31|406:61,1,210.000002785026
448,160,57762,6,0,L|478:97,1,70.0000009283421
448,224,57892,2,0,L|478:288,1,70.0000009283421
320,128,58023,6,0,L|288:65,1,70.0000009283421
320,256,58153,2,0,L|288:320,1,70.0000009283421
192,96,58284,6,0,L|223:33,1,70.0000009283421
192,288,58414,2,0,L|223:350,1,70.0000009283421
64,64,58544,6,0,L|32:0,1,70.0000009283421
64,320,58675,2,0,L|32:384,1,70.0000009283421
0,192,58805,2,0,L|70:192,1,70.0000009283421
192,192,58936,6,0,B|256:192|256:192|320:224|320:224|256:224,1,200.000000745057
96,224,59718,6,0,B|64:224|64:224|128:256|128:256|192:256,1,160.000000596046
448,256,59979,6,0,B|352:256|352:256|288:288,1,140.000001856684
128,160,60240,2,0,B|192:160|192:160|256:192|256:192|320:160|320:160|416:160,1,280.000003713369
256,320,60631,6,0,B|160:320|160:320|96:288,1,140.000001856684
32,128,60892,2,0,B|128:128|128:128|192:160,1,140.000001856684
448,288,61153,2,0,L|512:320,1,70.0000009283421
320,224,61284,2,0,L|384:256,1,70.0000009283421
512,224,61544,6,0,L|386:161,1,140.000001856684
160,64,61805,2,0,L|160:160,1,70.0000009283421
96,288,61936,2,0,L|96:192,1,70.0000009283421
64,63,62066,6,0,B|64:95|64:95|96:191|96:191|96:223,1,160.000000596046
160,288,62718,6,0,L|204:155,1,140.000001856684
352,96,62979,2,0,L|307:228,1,140.000001856684
416,352,63240,6,0,L|448:256,1,70.0000009283421
489,130,63371,2,0,L|512:64,1,70.0000009283421
256,384,63631,5,0,0:0:0:0:
307,228,63762,2,0,B|341:128|341:128|384:128,2,140.000001856684
160,288,64153,6,0,B|128:192|128:192|64:192,1,140.000001856684
0,128,64414,2,0,L|96:128,4,70.0000009283421
128,64,64805,6,0,B|256:64|256:64|288:96,1,140.000001856684
352,224,65066,2,0,B|224:224|224:224|192:192,1,140.000001856684
64,64,65327,2,0,L|128:128,1,70.0000009283421
288,288,65458,2,0,L|352:352,1,70.0000009283421
480,320,65718,6,0,P|419:259|416:256,1,70.0000009283421
352,224,65849,2,0,L|288:160,1,70.0000009283421
160,224,65979,2,0,L|224:288,1,70.0000009283421
32,320,66110,2,0,L|96:384,1,70.0000009283421
192,352,66240,6,0,L|96:256,1,120.000005024671
160,128,66631,2,0,L|256:224,1,120.000005024671
320,288,67023,2,0,L|416:192,1,120.000005024671
416,64,67414,2,0,L|320:160,1,120.000005024671
256,64,67805,6,0,L|160:160,1,120.000005024671
64,256,68066,6,0,B|128:256|128:256|224:288|224:288|320:256|320:256|416:256,1,320.000001192092
331,148,68588,6,0,B|261:151|255:178|224:207|183:204|143:178|143:178|169:106|253:107,1,280.000003713369
172,33,68979,2,0,P|110:81|70:144,1,140.000001856684
228,270,69240,2,0,P|137:261|78:220,1,140.000001856684
191,119,69501,2,0,P|227:107|280:104,1,70.0000009283421
390,220,69631,2,0,P|354:232|301:235,1,70.0000009283421
43,221,69892,5,0,0:0:0:0:
223,251,70023,2,0,P|176:320|66:295,2,160.000000596046
133,236,70414,2,0,B|155:153|221:128|317:144|308:218|312:233|314:246|326:285|390:339|459:313|503:213,1,480.000001788138
479,361,71066,6,0,P|396:376|303:345,1,160.000000596046
223,251,71327,2,0,P|300:231|377:247,1,160.000000596046
471,248,71588,2,0,L|512:316,1,80.000000298023
419,168,71718,2,0,L|377:99,1,80.000000298023
419,168,71979,5,0,0:0:0:0:
315,181,72110,1,0,0:0:0:0:
223,251,72240,1,0,0:0:0:0:
117,263,72371,1,0,0:0:0:0:
117,343,72501,6,0,L|117:215,1,80.000000298023
90,339,72631,2,0,L|133:218,1,80.000000298023
66,326,72762,2,0,L|148:227,1,80.000000298023,0|0,2:0|2:0,2:0:0:0:
49,305,72892,2,0,L|159:241,1,80.000000298023,0|0,2:0|2:0,2:0:0:0:
48,181,73153,6,0,B|76:140|108:127|108:127|150:136|185:171,1,160.000000596046
223,251,73414,2,0,B|249:277|291:286|291:286|323:273|351:232,1,160.000000596046
411,146,73675,1,0,0:0:0:0:
121,41,73805,2,0,P|207:65|326:82,1,160.000000596046
440,115,74066,5,0,0:0:0:0:
305,46,74197,2,0,P|242:34|180:26,3,120.000005024671
373,185,75631,6,0,L|312:133,1,60.0000025123357
204,61,75892,6,0,L|188:139,1,80.000000298023
175,269,76153,6,0,L|288:230,1,120.000005024671
373,185,76414,6,0,L|242:68,1,160.000000596046
74,36,76675,5,0,0:0:0:0:
126,212,76805,1,0,0:0:0:0:
9,97,76936,5,0,0:0:0:0:
187,139,77066,1,0,0:0:0:0:
61,272,77197,2,0,P|106:296|190:317,1,100.000000372529
338,281,77458,6,0,P|284:262|272:262,4,50.0000001862644
284,342,77849,5,0,0:0:0:0:
394,193,77979,1,0,0:0:0:0:
209,172,78110,1,0,0:0:0:0:
246,257,78240,5,0,0:0:0:0:
301,182,78436,1,0,0:0:0:0:
338,267,78631,1,0,0:0:0:0:
295,235,78762,5,0,0:0:0:0:
111,215,78892,1,0,0:0:0:0:
221,66,79022,5,0,0:0:0:0:
36,45,79153,1,0,0:0:0:0:
209,172,79284,2,0,P|163:147|80:127,1,100.000000372529
54,286,79544,6,0,P|107:304|120:305,4,50.0000001862644
223,290,79936,5,0,0:0:0:0:
143,120,80066,1,0,0:0:0:0:
275,224,80197,5,0,0:0:0:0:
379,92,80327,2,0,P|363:139|339:183,1,100.000000372529
248,313,80588,2,0,P|292:290|340:275,1,100.000000372529
505,316,80849,5,0,0:0:0:0:
458,152,80979,1,0,0:0:0:0:
339,275,81110,1,0,0:0:0:0:
433,247,81240,2,0,P|396:213|354:186,1,100.000000372529
157,186,81501,5,0,0:0:0:0:
100,81,81631,2,0,L|63:35,4,50.0000001862644
219,84,82023,5,0,0:0:0:0:
276,189,82153,1,0,0:0:0:0:
214,291,82284,1,0,0:0:0:0:
157,186,82414,5,0,0:0:0:0:
94,287,82610,1,0,0:0:0:0:
38,181,82805,1,0,0:0:0:0:
214,291,82936,6,0,P|256:264|292:230,1,100.000000372529
348,76,83197,5,0,0:0:0:0:
220,84,83328,1,0,0:0:0:0:
158,186,83458,1,0,0:0:0:0:
286,178,83588,6,0,L|286:243,1,50.0000001862644
312,192,83718,2,0,L|312:257,1,50.0000001862644
338,206,83849,2,0,L|338:271,1,50.0000001862644
437,206,83979,6,0,B|474:152|480:85|480:85|444:108|366:131|333:60|333:60|279:62|228:75|228:75|260:56|288:32|288:32|242:49|216:54|216:54|187:66|156:89|156:89|126:84|76:84,1,700.000002607701
113,187,85023,5,0,0:0:0:0:
165,339,85153,1,0,0:0:0:0:
317,287,85284,1,0,0:0:0:0:
265,135,85414,1,0,0:0:0:0:
139,263,85544,5,0,0:0:0:0:
241,313,85675,1,0,0:0:0:0:
291,211,85805,5,0,0:0:0:0:
240,186,85871,1,0,0:0:0:0:
189,161,85936,1,0,0:0:0:0:
215,237,86066,5,0,0:0:0:0:
27,182,86197,6,0,B|45:197|70:209|70:209|98:202|114:185,1,100.000000372529
84,96,86458,2,0,B|98:80|126:73|126:73|151:85|169:100,1,100.000000372529
240,186,86718,6,0,B|258:201|283:213|283:213|311:206|325:190,2,100.000000372529
169,100,87110,2,0,B|121:70|121:70|79:62,1,100.000000372529
40,151,87371,1,0,0:0:0:0:
130,190,87501,1,0,0:0:0:0:
240,186,87631,6,0,B|232:228|232:228|202:276,1,100.000000372529
89,294,87892,2,0,L|121:242,4,50.0000001862644
79,178,88284,5,0,0:0:0:0:
164,124,88414,1,0,0:0:0:0:
75,77,88544,1,0,0:0:0:0:
106,126,88675,5,0,0:0:0:0:
106,126,88936,1,0,0:0:0:0:
106,126,89197,5,0,0:0:0:0:
214,143,89327,1,0,0:0:0:0:
175,41,89458,5,0,0:0:0:0:
145,228,89588,1,0,0:0:0:0:
292,347,89718,5,0,0:0:0:0:
322,160,89849,1,0,0:0:0:0:
253,245,89979,5,0,0:0:0:0:
361,262,90110,1,0,0:0:0:0:
400,364,90240,6,0,L|446:318,1,60.0000025123357
400,364,90501,2,0,L|423:280,1,80.000000298023
400,364,90762,2,0,L|368:244,1,120.000005024671
338,132,91023,6,0,L|368:247,1,120.000005024671
338,132,91284,2,0,L|316:209,1,80.000000298023
338,132,91544,2,0,L|295:174,1,60.0000025123357
253,216,91805,2,0,L|295:173,1,60.0000025123357
253,216,92066,2,0,L|210:258,1,60.0000025123357
139,205,92327,6,0,L|162:181,1,30.0000012561679
25,194,92458,2,0,L|48:170,1,30.0000012561679
73,299,92718,5,0,0:0:0:0:
94,311,92783,1,0,0:0:0:0:
116,323,92848,1,0,0:0:0:0:
138,335,92913,1,0,0:0:0:0:
163,336,92978,1,0,0:0:0:0:
188,337,93044,1,0,0:0:0:0:
214,339,93110,2,0,L|289:330,1,60.0000025123357
436,346,93371,6,0,P|479:257|322:153,1,320.000001192092
369,322,93892,2,0,P|395:259|403:278,1,160.000000596046
460,279,94153,5,0,0:0:0:0:
377,221,94284,1,0,0:0:0:0:
406,124,94414,1,0,0:0:0:0:
322,66,94544,1,0,0:0:0:0:
240,127,94675,1,0,0:0:0:0:
272,223,94805,1,0,0:0:0:0:
190,283,94936,1,0,0:0:0:0:
107,223,95066,1,0,0:0:0:0:
138,125,95197,6,0,B|124:52|42:9,1,80.000000298023
138,125,95458,6,0,B|151:52|233:9,1,80.000000298023
240,127,95849,5,0,0:0:0:0:
240,127,95979,2,0,B|253:54|335:11,1,80.000000298023
319,124,96240,5,0,0:0:0:0:
283,194,96371,1,0,0:0:0:0:
407,344,96501,1,0,0:0:0:0:
363,278,96632,1,0,0:0:0:0:
172,310,96762,1,0,0:0:0:0:
251,305,96893,1,0,0:0:0:0:
363,278,97023,6,0,P|416:261|460:261,1,80.000000298023
283,194,97284,2,0,P|230:177|186:177,1,80.000000298023
316,83,97544,5,0,0:0:0:0:
396,167,97675,1,0,0:0:0:0:
316,83,97805,1,0,0:0:0:0:
396,167,97936,1,0,0:0:0:0:
204,111,98197,5,0,0:0:0:0:
60,250,98458,5,0,0:0:0:0:
60,250,98588,2,0,P|91:182|72:129,2,120.000000447034
164,212,99110,2,0,P|108:191|79:140,1,120.000000447034
203,107,99631,5,0,0:0:0:0:
395,162,99762,1,0,0:0:0:0:
315,79,99893,5,0,0:0:0:0:
395,162,100023,1,0,0:0:0:0:
283,189,100284,5,0,0:0:0:0:
427,52,100544,5,0,0:0:0:0:
411,107,100675,2,0,B|399:163|400:201|400:201|371:185|335:175,1,160.000006699562
253,163,101110,5,0,0:0:0:0:
214,176,101197,1,0,0:0:0:0:
206,216,101284,1,0,0:0:0:0:
237,243,101371,1,0,0:0:0:0:
275,229,101458,1,0,0:0:0:0:
283,189,101545,1,0,0:0:0:0:
253,163,101631,1,0,0:0:0:0:
214,176,101718,6,0,B|141:162|98:80,1,80.000000298023
72,105,101979,2,0,B|144:118|187:200,1,80.000000298023
177,210,102240,6,0,B|163:137|81:94,1,80.000000298023
106,68,102501,2,0,B|119:140|201:183,1,80.000000298023
19,201,102762,5,0,0:0:0:0:
75,303,102892,1,0,0:0:0:0:
189,281,103023,1,0,0:0:0:0:
203,165,103153,1,0,0:0:0:0:
317,142,103284,1,0,0:0:0:0:
374,243,103414,1,0,0:0:0:0:
295,328,103544,6,0,B|366:350|390:381,1,80.000000298023
295,328,103805,6,0,B|224:306|200:275,1,80.000000298023
203,165,104327,5,0,0:0:0:0:
317,142,104458,1,0,0:0:0:0:
330,26,104588,1,0,0:0:0:0:
444,2,104718,1,0,0:0:0:0:
502,103,104849,1,0,0:0:0:0:
423,189,104979,1,0,0:0:0:0:
316,140,105110,1,0,0:0:0:0:
236,226,105240,1,0,0:0:0:0:
293,328,105371,6,0,B|364:306|388:275,1,80.000000298023
293,328,105631,2,0,B|222:306|198:275,1,80.000000298023
203,165,105892,5,0,0:0:0:0:
217,47,106022,1,0,0:0:0:0:
203,165,106153,1,0,0:0:0:0:
217,47,106283,1,0,0:0:0:0:
108,94,106544,5,0,0:0:0:0:
94,211,106805,1,0,0:0:0:0:
141,320,106936,6,0,P|224:278|267:281,2,120.000000447034
206,170,107458,2,0,P|214:228|248:277,1,120.000000447034
293,164,107979,5,0,0:0:0:0:
279,46,108109,1,0,0:0:0:0:
293,164,108240,1,0,0:0:0:0:
279,46,108370,1,0,0:0:0:0:
388,93,108631,5,0,0:0:0:0:
402,210,108892,1,0,0:0:0:0:
355,319,109023,6,0,P|272:277|229:280,2,120.000000447034
290,169,109545,2,0,P|281:227|247:276,1,120.000000447034
77,129,110066,5,0,0:0:0:0:
290,169,110197,1,0,0:0:0:0:
148,334,110327,1,0,0:0:0:0:
171,210,110458,1,0,0:0:0:0:
384,88,110588,5,0,0:0:0:0:
171,128,110719,1,0,0:0:0:0:
313,293,110849,1,0,0:0:0:0:
290,169,110980,1,0,0:0:0:0:
267,45,111110,5,0,0:0:0:0:
403,203,111240,1,0,0:0:0:0:
245,339,111371,1,0,0:0:0:0:
109,181,111501,1,0,0:0:0:0:
352,303,111631,5,0,0:0:0:0:
159,80,111762,1,0,0:0:0:0:
159,303,111892,1,0,0:0:0:0:
352,80,112023,1,0,0:0:0:0:
256,192,112153,5,0,0:0:0:0:
293,103,116327,5,0,0:0:0:0:
293,103,116392,1,0,0:0:0:0:
293,103,116458,2,0,L|306:74,1,30.0000012561679
218,280,116588,5,0,0:0:0:0:
218,280,116653,1,0,0:0:0:0:
218,280,116719,2,0,L|205:309,1,30.0000012561679
344,229,116849,5,0,0:0:0:0:
344,229,116914,1,0,0:0:0:0:
344,229,116980,2,0,L|373:242,1,30.0000012561679
167,154,117110,5,0,0:0:0:0:
167,154,117175,1,0,0:0:0:0:
167,154,117241,2,0,L|138:141,1,30.0000012561679
345,156,117371,5,0,0:0:0:0:
345,156,117436,1,0,0:0:0:0:
345,156,117502,2,0,L|374:144,1,30.0000012561679
291,281,117632,5,0,0:0:0:0:
291,281,117697,1,0,0:0:0:0:
291,281,117763,2,0,L|303:310,1,30.0000012561679
220,102,117892,5,0,0:0:0:0:
220,102,117957,1,0,0:0:0:0:
220,102,118023,2,0,L|208:73,1,30.0000012561679
166,227,118153,5,0,0:0:0:0:
166,227,118218,1,0,0:0:0:0:
166,227,118284,2,0,L|137:239,1,30.0000012561679
256,191,118414,5,0,0:0:0:0:
