osu file format v14

[General]
AudioFilename: audio.mp3
AudioLeadIn: 0
PreviewTime: 80676
Countdown: 0
SampleSet: Normal
StackLeniency: 0.7
Mode: 1
LetterboxInBreaks: 0
WidescreenStoryboard: 1

[Editor]
DistanceSpacing: 1.1
BeatDivisor: 2
GridSize: 32
TimelineZoom: 3.699999

[Metadata]
Title:Juggler's Maddness
TitleUnicode:Juggler's Maddness
Artist:Lite Show Magic
ArtistUnicode:Lite Show Magic
Creator:incandescence
Version:Oni
Source:SOUND VOLTEX IV HEAVENLY HAVEN
Tags:t+pazolite tpazolite tpz c-show cshow jugglers madness lsm video game electronic instrumental xtrem3x taikocracy sdvx konami bemani
BeatmapID:2259233
BeatmapSetID:1079808

[Difficulty]
HPDrainRate:6
CircleSize:2
OverallDifficulty:6
ApproachRate:10
SliderMultiplier:1.4
SliderTickRate:1

[Events]
//Background and Video events
0,0,"img_6651_small_1920x1080.jpg",0,60
//Break Periods
//Storyboard Layer 0 (Background)
//Storyboard Layer 1 (Fail)
//Storyboard Layer 2 (Pass)
//Storyboard Layer 3 (Foreground)
//Storyboard Layer 4 (Overlay)
//Storyboard Sound Samples

[TimingPoints]
3876,240,4,1,0,90,1,0
10956,-102.564102564103,4,1,0,90,0,0
11076,-105.263157894737,4,1,0,90,0,0
11316,-108.108108108108,4,1,0,90,0,0
11556,-111.111111111111,4,1,0,90,0,0
18756,-105.263157894737,4,1,0,90,0,0
19236,-100,4,1,0,90,0,0
56916,-103.448275933413,4,1,0,90,0,0
57036,-107.142895408177,4,1,0,90,0,0
57156,-111.111111111111,4,1,0,90,0,0
57636,-125,4,1,0,90,0,0
65196,-121.212121212121,4,1,0,90,0,0
65316,-117.647058823529,4,1,0,90,0,0
71196,-116.279069767442,4,1,0,90,0,0
71256,-114.942528735632,4,1,0,90,0,0
71316,-113.636363636364,4,1,0,90,0,0
71436,-112.359550561798,4,1,0,90,0,0
71556,-111.111111111111,4,1,0,90,0,0
71676,-109.89010989011,4,1,0,90,0,0
71796,-108.695652173913,4,1,0,90,0,0
71856,-107.52688172043,4,1,0,90,0,0
71916,-106.382978723404,4,1,0,90,0,0
72036,-105.263157894737,4,1,0,90,0,0
72276,-104.166666666667,4,1,0,90,0,0
72396,-103.092783505155,4,1,0,90,0,0
72636,-102.040816326531,4,1,0,90,0,0
72756,-101.010101010101,4,1,0,90,0,0
72996,-100,4,1,0,90,0,0
80676,-100,4,1,0,90,0,1
88116,-100,4,1,0,90,0,0
88356,-100,4,1,0,90,0,1
96036,-100,4,1,0,90,0,0
97956,-100,4,1,0,90,0,1
99876,-100,4,1,0,90,0,0
101796,-100,4,1,0,90,0,1
103476,-100,4,1,0,90,0,0

[HitObjects]
256,192,3876,5,4,0:0:0:0:
256,192,3996,1,8,0:0:0:0:
256,192,4236,1,8,0:0:0:0:
256,192,4356,1,0,0:0:0:0:
256,192,4476,1,0,0:0:0:0:
256,192,4596,1,8,0:0:0:0:
256,192,4716,1,8,0:0:0:0:
256,192,4836,1,0,0:0:0:0:
256,192,4956,1,8,0:0:0:0:
256,192,5196,1,8,0:0:0:0:
256,192,5316,1,0,0:0:0:0:
256,192,5436,1,0,0:0:0:0:
256,192,5556,1,8,0:0:0:0:
256,192,5796,1,4,0:0:0:0:
256,192,5916,1,8,0:0:0:0:
256,192,6156,1,8,0:0:0:0:
256,192,6276,1,0,0:0:0:0:
256,192,6396,1,0,0:0:0:0:
256,192,6516,1,8,0:0:0:0:
256,192,6636,1,0,0:0:0:0:
256,192,6756,1,8,0:0:0:0:
256,192,6876,1,8,0:0:0:0:
256,192,6936,1,8,0:0:0:0:
256,192,6996,1,0,0:0:0:0:
256,192,7116,1,0,0:0:0:0:
256,192,7236,1,12,0:0:0:0:
256,192,7596,1,8,0:0:0:0:
256,192,7716,1,4,0:0:0:0:
256,192,7836,1,8,0:0:0:0:
256,192,8076,1,8,0:0:0:0:
256,192,8196,1,0,0:0:0:0:
256,192,8316,1,0,0:0:0:0:
256,192,8436,1,8,0:0:0:0:
256,192,8556,1,8,0:0:0:0:
256,192,8676,1,0,0:0:0:0:
256,192,8796,1,8,0:0:0:0:
256,192,9036,1,8,0:0:0:0:
256,192,9156,1,0,0:0:0:0:
256,192,9276,1,8,0:0:0:0:
256,192,9396,1,0,0:0:0:0:
256,192,9636,1,8,0:0:0:0:
256,192,9756,1,0,0:0:0:0:
256,192,9816,1,0,0:0:0:0:
256,192,9876,1,8,0:0:0:0:
256,192,9996,1,0,0:0:0:0:
256,192,10116,1,8,0:0:0:0:
256,192,10356,1,0,0:0:0:0:
256,192,10476,1,8,0:0:0:0:
256,192,10596,1,0,0:0:0:0:
256,192,10716,1,8,0:0:0:0:
256,192,10776,1,8,0:0:0:0:
256,192,10836,1,0,0:0:0:0:
256,192,10956,1,8,0:0:0:0:
256,192,11076,1,0,0:0:0:0:
256,192,11316,1,8,0:0:0:0:
256,192,11556,1,4,0:0:0:0:
256,192,12036,1,8,0:0:0:0:
256,192,12156,1,8,0:0:0:0:
256,192,12276,1,8,0:0:0:0:
256,192,12396,1,0,0:0:0:0:
256,192,12636,1,0,0:0:0:0:
256,192,12756,1,8,0:0:0:0:
256,192,12876,1,8,0:0:0:0:
256,192,12996,1,0,0:0:0:0:
256,192,13236,1,8,0:0:0:0:
256,192,13476,1,0,0:0:0:0:
256,192,13716,1,8,0:0:0:0:
256,192,13956,1,8,0:0:0:0:
256,192,14076,1,8,0:0:0:0:
256,192,14196,1,0,0:0:0:0:
256,192,14316,1,8,0:0:0:0:
256,192,14436,1,0,0:0:0:0:
256,192,14496,1,0,0:0:0:0:
256,192,14556,1,0,0:0:0:0:
256,192,14676,1,8,0:0:0:0:
256,192,14796,1,0,0:0:0:0:
256,192,14916,1,12,0:0:0:0:
256,192,15396,1,4,0:0:0:0:
256,192,15636,1,8,0:0:0:0:
256,192,15876,1,8,0:0:0:0:
256,192,15996,1,8,0:0:0:0:
256,192,16116,1,0,0:0:0:0:
256,192,16236,1,8,0:0:0:0:
256,192,16476,1,0,0:0:0:0:
256,192,16596,1,8,0:0:0:0:
256,192,16716,1,8,0:0:0:0:
256,192,16836,1,0,0:0:0:0:
256,192,17076,1,8,0:0:0:0:
256,192,17316,1,8,0:0:0:0:
256,192,17436,1,0,0:0:0:0:
256,192,17496,1,0,0:0:0:0:
256,192,17556,1,8,0:0:0:0:
256,192,17676,1,0,0:0:0:0:
256,192,17796,1,8,0:0:0:0:
256,192,18036,1,0,0:0:0:0:
256,192,18156,1,0,0:0:0:0:
256,192,18276,1,8,0:0:0:0:
256,192,18756,1,4,0:0:0:0:
256,192,19236,1,12,0:0:0:0:
256,192,19476,1,8,0:0:0:0:
256,192,19716,1,8,0:0:0:0:
256,192,19836,1,8,0:0:0:0:
256,192,19956,1,0,0:0:0:0:
256,192,20076,1,8,0:0:0:0:
256,192,20316,1,0,0:0:0:0:
256,192,20436,1,8,0:0:0:0:
256,192,20556,1,8,0:0:0:0:
256,192,20676,1,0,0:0:0:0:
256,192,20916,1,8,0:0:0:0:
256,192,21156,1,0,0:0:0:0:
256,192,21396,1,8,0:0:0:0:
256,192,21636,1,8,0:0:0:0:
256,192,21756,1,0,0:0:0:0:
256,192,21876,1,8,0:0:0:0:
256,192,21996,1,8,0:0:0:0:
256,192,22236,1,0,0:0:0:0:
256,192,22356,1,8,0:0:0:0:
256,192,22476,1,0,0:0:0:0:
256,192,22596,1,8,0:0:0:0:
256,192,22836,1,0,0:0:0:0:
256,192,23076,1,4,0:0:0:0:
256,192,23196,1,0,0:0:0:0:
256,192,23316,1,8,0:0:0:0:
256,192,23436,1,8,0:0:0:0:
256,192,23556,1,0,0:0:0:0:
256,192,23676,1,8,0:0:0:0:
256,192,23796,1,0,0:0:0:0:
256,192,23916,1,0,0:0:0:0:
256,192,24036,1,8,0:0:0:0:
256,192,24156,1,8,0:0:0:0:
256,192,24276,1,0,0:0:0:0:
256,192,24396,1,8,0:0:0:0:
256,192,24516,1,0,0:0:0:0:
256,192,24636,1,0,0:0:0:0:
256,192,24696,1,0,0:0:0:0:
256,192,24756,1,8,0:0:0:0:
256,192,24876,1,0,0:0:0:0:
256,192,24996,12,0,25956,0:0:0:0:
256,192,26676,5,8,0:0:0:0:
256,192,26916,1,4,0:0:0:0:
256,192,27156,1,8,0:0:0:0:
256,192,27276,1,0,0:0:0:0:
256,192,27396,1,8,0:0:0:0:
256,192,27516,1,0,0:0:0:0:
256,192,27576,1,0,0:0:0:0:
256,192,27636,1,8,0:0:0:0:
256,192,27756,1,4,0:0:0:0:
256,192,27996,1,4,0:0:0:0:
256,192,28116,1,8,0:0:0:0:
256,192,28236,1,0,0:0:0:0:
256,192,28356,1,8,0:0:0:0:
256,192,28596,1,0,0:0:0:0:
256,192,28836,1,12,0:0:0:0:
256,192,29076,1,0,0:0:0:0:
256,192,29196,1,0,0:0:0:0:
256,192,29316,1,8,0:0:0:0:
256,192,29436,1,8,0:0:0:0:
256,192,29496,1,0,0:0:0:0:
256,192,29556,1,8,0:0:0:0:
256,192,29676,1,4,0:0:0:0:
256,192,29916,1,4,0:0:0:0:
256,192,30036,1,8,0:0:0:0:
256,192,30156,1,0,0:0:0:0:
256,192,30276,1,0,0:0:0:0:
256,192,30516,1,8,0:0:0:0:
256,192,30636,1,8,0:0:0:0:
256,192,30756,1,4,0:0:0:0:
256,192,30996,1,0,0:0:0:0:
256,192,31116,1,0,0:0:0:0:
256,192,31236,1,8,0:0:0:0:
256,192,31356,1,0,0:0:0:0:
256,192,31416,1,0,0:0:0:0:
256,192,31476,1,8,0:0:0:0:
256,192,31596,1,4,0:0:0:0:
256,192,31836,1,4,0:0:0:0:
256,192,31956,1,8,0:0:0:0:
256,192,32076,1,0,0:0:0:0:
256,192,32196,1,8,0:0:0:0:
256,192,32436,1,0,0:0:0:0:
256,192,32676,1,12,0:0:0:0:
256,192,32916,1,8,0:0:0:0:
256,192,33036,1,8,0:0:0:0:
256,192,33156,1,0,0:0:0:0:
256,192,33276,1,8,0:0:0:0:
256,192,33336,1,0,0:0:0:0:
256,192,33396,1,8,0:0:0:0:
256,192,33516,1,8,0:0:0:0:
256,192,33636,1,0,0:0:0:0:
256,192,33756,12,0,34356,0:0:0:0:
256,192,34596,5,4,0:0:0:0:
256,192,34836,1,8,0:0:0:0:
256,192,34956,1,8,0:0:0:0:
256,192,35016,1,8,0:0:0:0:
256,192,35076,1,0,0:0:0:0:
256,192,35196,1,0,0:0:0:0:
256,192,35316,1,8,0:0:0:0:
256,192,35436,1,4,0:0:0:0:
256,192,35676,1,4,0:0:0:0:
256,192,35796,1,8,0:0:0:0:
256,192,35916,1,0,0:0:0:0:
256,192,36036,1,8,0:0:0:0:
256,192,36276,1,0,0:0:0:0:
256,192,36516,1,12,0:0:0:0:
256,192,36756,1,0,0:0:0:0:
256,192,36876,1,0,0:0:0:0:
256,192,36936,1,0,0:0:0:0:
256,192,36996,1,8,0:0:0:0:
256,192,37116,1,0,0:0:0:0:
256,192,37236,1,8,0:0:0:0:
256,192,37356,1,8,0:0:0:0:
256,192,37476,1,0,0:0:0:0:
256,192,37716,1,8,0:0:0:0:
256,192,37796,1,8,0:0:0:0:
256,192,37876,1,0,0:0:0:0:
256,192,37956,1,8,0:0:0:0:
256,192,38196,1,8,0:0:0:0:
256,192,38316,1,8,0:0:0:0:
256,192,38436,1,4,0:0:0:0:
256,192,38676,1,0,0:0:0:0:
256,192,38796,1,0,0:0:0:0:
256,192,38916,1,8,0:0:0:0:
256,192,39036,1,0,0:0:0:0:
256,192,39096,1,0,0:0:0:0:
256,192,39156,1,8,0:0:0:0:
256,192,39276,1,4,0:0:0:0:
256,192,39516,1,4,0:0:0:0:
256,192,39636,1,8,0:0:0:0:
256,192,39756,1,0,0:0:0:0:
256,192,39876,1,8,0:0:0:0:
256,192,40116,1,0,0:0:0:0:
256,192,40356,1,12,0:0:0:0:
256,192,40596,1,8,0:0:0:0:
256,192,40716,1,8,0:0:0:0:
256,192,40776,1,8,0:0:0:0:
256,192,40836,1,0,0:0:0:0:
256,192,40956,1,0,0:0:0:0:
256,192,41076,1,8,0:0:0:0:
256,192,41316,1,0,0:0:0:0:
256,192,41376,1,0,0:0:0:0:
256,192,41436,1,8,0:0:0:0:
256,192,41556,1,0,0:0:0:0:
256,192,41676,1,8,0:0:0:0:
256,192,41796,1,0,0:0:0:0:
256,192,41856,1,0,0:0:0:0:
256,192,41916,1,8,0:0:0:0:
256,192,42036,1,0,0:0:0:0:
256,192,42156,1,8,0:0:0:0:
256,192,42276,1,4,0:0:0:0:
256,192,42756,1,8,0:0:0:0:
256,192,43236,1,8,0:0:0:0:
256,192,43476,1,0,0:0:0:0:
256,192,43596,1,8,0:0:0:0:
256,192,43956,1,8,0:0:0:0:
256,192,44016,1,8,0:0:0:0:
256,192,44076,1,8,0:0:0:0:
256,192,44196,1,4,0:0:0:0:
256,192,44436,1,0,0:0:0:0:
256,192,44556,1,0,0:0:0:0:
256,192,44676,1,8,0:0:0:0:
256,192,44796,1,8,0:0:0:0:
256,192,44916,1,0,0:0:0:0:
256,192,45036,1,8,0:0:0:0:
256,192,45156,1,0,0:0:0:0:
256,192,45396,1,8,0:0:0:0:
256,192,45456,1,8,0:0:0:0:
256,192,45516,1,0,0:0:0:0:
256,192,45636,1,8,0:0:0:0:
256,192,45876,1,0,0:0:0:0:
256,192,45996,1,8,0:0:0:0:
256,192,46116,1,4,0:0:0:0:
256,192,46356,1,8,0:0:0:0:
256,192,46476,1,0,0:0:0:0:
256,192,46536,1,0,0:0:0:0:
256,192,46596,1,8,0:0:0:0:
256,192,46716,1,0,0:0:0:0:
256,192,46836,1,8,0:0:0:0:
256,192,46956,1,4,0:0:0:0:
256,192,47196,1,4,0:0:0:0:
256,192,47316,1,8,0:0:0:0:
256,192,47436,1,0,0:0:0:0:
256,192,47556,1,8,0:0:0:0:
256,192,47676,1,0,0:0:0:0:
256,192,47736,1,0,0:0:0:0:
256,192,47796,1,0,0:0:0:0:
256,192,47916,1,0,0:0:0:0:
256,192,48036,1,12,0:0:0:0:
256,192,48276,1,0,0:0:0:0:
256,192,48396,1,8,0:0:0:0:
256,192,48456,1,8,0:0:0:0:
256,192,48516,1,0,0:0:0:0:
256,192,48636,1,0,0:0:0:0:
256,192,48756,1,8,0:0:0:0:
256,192,48876,1,0,0:0:0:0:
256,192,48996,12,8,49716,0:0:0:0:
256,192,49956,5,4,0:0:0:0:
256,192,50196,1,8,0:0:0:0:
256,192,50316,1,0,0:0:0:0:
256,192,50376,1,0,0:0:0:0:
256,192,50436,1,8,0:0:0:0:
256,192,50556,1,0,0:0:0:0:
256,192,50676,1,8,0:0:0:0:
256,192,50796,1,4,0:0:0:0:
256,192,51036,1,4,0:0:0:0:
256,192,51156,1,8,0:0:0:0:
256,192,51276,1,0,0:0:0:0:
256,192,51396,1,8,0:0:0:0:
256,192,51516,1,0,0:0:0:0:
256,192,51576,1,0,0:0:0:0:
256,192,51636,1,0,0:0:0:0:
256,192,51756,1,0,0:0:0:0:
256,192,51876,1,12,0:0:0:0:
256,192,52116,1,8,0:0:0:0:
256,192,52236,1,8,0:0:0:0:
256,192,52356,1,0,0:0:0:0:
256,192,52476,1,8,0:0:0:0:
256,192,52536,1,8,0:0:0:0:
256,192,52596,1,0,0:0:0:0:
256,192,52716,1,8,0:0:0:0:
256,192,52836,1,0,0:0:0:0:
256,192,53076,1,8,0:0:0:0:
256,192,53156,1,0,0:0:0:0:
256,192,53236,1,0,0:0:0:0:
256,192,53316,1,8,0:0:0:0:
256,192,53556,1,8,0:0:0:0:
256,192,53796,1,4,0:0:0:0:
256,192,54036,1,8,0:0:0:0:
256,192,54156,1,8,0:0:0:0:
256,192,54276,1,0,0:0:0:0:
256,192,54396,1,8,0:0:0:0:
256,192,54456,1,0,0:0:0:0:
256,192,54516,1,8,0:0:0:0:
256,192,54636,1,4,0:0:0:0:
256,192,54876,1,4,0:0:0:0:
256,192,54996,1,8,0:0:0:0:
256,192,55116,1,0,0:0:0:0:
256,192,55236,1,8,0:0:0:0:
256,192,55356,1,8,0:0:0:0:
256,192,55416,1,8,0:0:0:0:
256,192,55476,1,8,0:0:0:0:
256,192,55596,1,0,0:0:0:0:
256,192,55716,1,8,0:0:0:0:
256,192,55776,1,8,0:0:0:0:
256,192,55836,1,0,0:0:0:0:
256,192,55956,1,8,0:0:0:0:
256,192,56076,1,0,0:0:0:0:
256,192,56196,1,0,0:0:0:0:
256,192,56256,1,0,0:0:0:0:
256,192,56316,1,8,0:0:0:0:
256,192,56376,1,8,0:0:0:0:
256,192,56436,1,0,0:0:0:0:
256,192,56556,1,8,0:0:0:0:
256,192,56676,1,0,0:0:0:0:
256,192,56916,1,0,0:0:0:0:
256,192,57036,1,0,0:0:0:0:
256,192,57156,1,12,0:0:0:0:
256,192,57636,1,4,0:0:0:0:
256,192,57756,1,0,0:0:0:0:
256,192,57876,1,8,0:0:0:0:
256,192,57996,1,0,0:0:0:0:
256,192,58116,1,8,0:0:0:0:
256,192,58356,1,8,0:0:0:0:
256,192,58476,1,8,0:0:0:0:
256,192,58596,1,0,0:0:0:0:
256,192,58716,1,8,0:0:0:0:
256,192,58836,1,0,0:0:0:0:
256,192,58956,1,0,0:0:0:0:
256,192,59076,1,8,0:0:0:0:
256,192,59316,1,0,0:0:0:0:
256,192,59556,1,8,0:0:0:0:
256,192,59676,1,0,0:0:0:0:
256,192,59796,1,8,0:0:0:0:
256,192,59916,1,8,0:0:0:0:
256,192,60036,1,0,0:0:0:0:
256,192,60276,1,0,0:0:0:0:
256,192,60396,1,0,0:0:0:0:
256,192,60516,1,8,0:0:0:0:
256,192,60636,1,8,0:0:0:0:
256,192,60756,1,0,0:0:0:0:
256,192,60876,1,8,0:0:0:0:
256,192,60996,1,0,0:0:0:0:
256,192,61116,1,0,0:0:0:0:
256,192,61236,1,8,0:0:0:0:
256,192,61356,1,0,0:0:0:0:
256,192,61476,1,8,0:0:0:0:
256,192,61716,1,0,0:0:0:0:
256,192,61836,1,0,0:0:0:0:
256,192,61956,1,8,0:0:0:0:
256,192,62196,1,8,0:0:0:0:
256,192,62316,1,8,0:0:0:0:
256,192,62436,1,0,0:0:0:0:
256,192,62556,1,8,0:0:0:0:
256,192,62676,1,0,0:0:0:0:
256,192,62796,1,0,0:0:0:0:
256,192,62916,1,8,0:0:0:0:
256,192,63156,1,0,0:0:0:0:
256,192,63396,1,8,0:0:0:0:
256,192,63516,1,0,0:0:0:0:
256,192,63636,1,0,0:0:0:0:
256,192,63756,1,0,0:0:0:0:
256,192,63876,1,8,0:0:0:0:
256,192,63996,1,8,0:0:0:0:
256,192,64116,1,8,0:0:0:0:
256,192,64236,1,8,0:0:0:0:
256,192,64356,1,0,0:0:0:0:
256,192,64476,1,8,0:0:0:0:
256,192,64716,1,8,0:0:0:0:
256,192,65076,1,0,0:0:0:0:
256,192,65196,1,8,0:0:0:0:
256,192,65316,1,4,0:0:0:0:
256,192,65556,1,0,0:0:0:0:
256,192,65676,1,0,0:0:0:0:
256,192,65796,1,8,0:0:0:0:
256,192,66036,1,8,0:0:0:0:
256,192,66096,1,8,0:0:0:0:
256,192,66156,1,8,0:0:0:0:
256,192,66276,1,0,0:0:0:0:
256,192,66396,1,8,0:0:0:0:
256,192,66516,1,0,0:0:0:0:
256,192,66636,1,0,0:0:0:0:
256,192,66756,1,8,0:0:0:0:
256,192,66996,1,0,0:0:0:0:
256,192,67236,1,0,0:0:0:0:
256,192,67356,1,0,0:0:0:0:
256,192,67476,1,8,0:0:0:0:
256,192,67596,1,8,0:0:0:0:
256,192,67716,1,8,0:0:0:0:
256,192,67956,1,0,0:0:0:0:
256,192,68076,1,8,0:0:0:0:
256,192,68196,1,0,0:0:0:0:
256,192,68316,1,0,0:0:0:0:
256,192,68376,1,0,0:0:0:0:
256,192,68436,1,8,0:0:0:0:
256,192,68556,1,8,0:0:0:0:
256,192,68676,1,0,0:0:0:0:
256,192,68796,1,8,0:0:0:0:
256,192,68856,1,8,0:0:0:0:
256,192,68916,1,0,0:0:0:0:
256,192,69036,1,0,0:0:0:0:
256,192,69156,1,8,0:0:0:0:
256,192,69396,1,0,0:0:0:0:
256,192,69516,1,0,0:0:0:0:
256,192,69636,1,8,0:0:0:0:
256,192,69876,1,8,0:0:0:0:
256,192,69936,1,8,0:0:0:0:
256,192,69996,1,8,0:0:0:0:
256,192,70116,1,0,0:0:0:0:
256,192,70236,1,8,0:0:0:0:
256,192,70356,1,0,0:0:0:0:
256,192,70476,1,0,0:0:0:0:
256,192,70596,1,8,0:0:0:0:
256,192,70836,1,0,0:0:0:0:
256,192,71076,1,8,0:0:0:0:
256,192,71196,1,8,0:0:0:0:
256,192,71256,1,8,0:0:0:0:
256,192,71316,1,8,0:0:0:0:
256,192,71436,1,8,0:0:0:0:
256,192,71556,1,8,0:0:0:0:
256,192,71676,1,8,0:0:0:0:
256,192,71796,1,8,0:0:0:0:
256,192,71856,1,8,0:0:0:0:
256,192,71916,1,8,0:0:0:0:
256,192,72036,1,0,0:0:0:0:
256,192,72276,1,0,0:0:0:0:
256,192,72396,1,8,0:0:0:0:
256,192,72636,1,8,0:0:0:0:
256,192,72756,1,0,0:0:0:0:
256,192,72996,1,4,0:0:0:0:
256,192,73356,1,0,0:0:0:0:
256,192,73476,1,8,0:0:0:0:
256,192,73596,1,8,0:0:0:0:
256,192,73716,1,0,0:0:0:0:
256,192,73836,1,8,0:0:0:0:
256,192,73956,1,0,0:0:0:0:
256,192,74316,1,8,0:0:0:0:
256,192,74436,1,0,0:0:0:0:
256,192,74556,1,0,0:0:0:0:
256,192,74676,1,8,0:0:0:0:
256,192,74916,1,4,0:0:0:0:
256,192,75276,1,8,0:0:0:0:
256,192,75396,1,0,0:0:0:0:
256,192,75516,1,0,0:0:0:0:
256,192,75636,1,8,0:0:0:0:
256,192,75756,1,0,0:0:0:0:
256,192,75876,1,8,0:0:0:0:
256,192,76116,1,0,0:0:0:0:
256,192,76236,1,8,0:0:0:0:
256,192,76476,1,8,0:0:0:0:
256,192,76596,1,0,0:0:0:0:
256,192,76716,1,8,0:0:0:0:
256,192,76836,1,4,0:0:0:0:
256,192,76956,1,0,0:0:0:0:
256,192,77076,1,8,0:0:0:0:
256,192,77196,1,8,0:0:0:0:
256,192,77316,1,0,0:0:0:0:
256,192,77436,1,8,0:0:0:0:
256,192,77556,1,0,0:0:0:0:
256,192,77676,1,0,0:0:0:0:
256,192,77796,1,8,0:0:0:0:
256,192,77916,1,0,0:0:0:0:
256,192,78036,1,8,0:0:0:0:
256,192,78156,1,8,0:0:0:0:
256,192,78276,1,0,0:0:0:0:
256,192,78396,1,8,0:0:0:0:
256,192,78516,1,0,0:0:0:0:
256,192,78636,1,0,0:0:0:0:
256,192,78756,12,8,79716,0:0:0:0:
256,192,80196,5,0,0:0:0:0:
256,192,80316,1,0,0:0:0:0:
256,192,80436,1,12,0:0:0:0:
256,192,80676,1,4,0:0:0:0:
256,192,80796,1,0,0:0:0:0:
256,192,80856,1,0,0:0:0:0:
256,192,80916,1,8,0:0:0:0:
256,192,81036,1,0,0:0:0:0:
256,192,81156,1,8,0:0:0:0:
256,192,81396,1,8,0:0:0:0:
256,192,81516,1,8,0:0:0:0:
256,192,81636,1,0,0:0:0:0:
256,192,81696,1,0,0:0:0:0:
256,192,81756,1,8,0:0:0:0:
256,192,81816,1,8,0:0:0:0:
256,192,81876,1,0,0:0:0:0:
256,192,81996,1,0,0:0:0:0:
256,192,82116,1,8,0:0:0:0:
256,192,82356,1,0,0:0:0:0:
256,192,82596,1,8,0:0:0:0:
256,192,82716,1,0,0:0:0:0:
256,192,82776,1,0,0:0:0:0:
256,192,82836,1,8,0:0:0:0:
256,192,82956,1,0,0:0:0:0:
256,192,83076,1,8,0:0:0:0:
256,192,83136,1,8,0:0:0:0:
256,192,83196,1,8,0:0:0:0:
256,192,83316,1,0,0:0:0:0:
256,192,83436,1,8,0:0:0:0:
256,192,83676,1,8,0:0:0:0:
256,192,83736,1,8,0:0:0:0:
256,192,83796,1,0,0:0:0:0:
256,192,83916,1,8,0:0:0:0:
256,192,84036,1,0,0:0:0:0:
256,192,84096,1,0,0:0:0:0:
256,192,84156,1,0,0:0:0:0:
256,192,84216,1,0,0:0:0:0:
256,192,84276,1,8,0:0:0:0:
256,192,84396,1,0,0:0:0:0:
256,192,84516,1,4,0:0:0:0:
256,192,84636,1,8,0:0:0:0:
256,192,84696,1,8,0:0:0:0:
256,192,84756,1,0,0:0:0:0:
256,192,84876,1,0,0:0:0:0:
256,192,84996,1,8,0:0:0:0:
256,192,85236,1,8,0:0:0:0:
256,192,85356,1,0,0:0:0:0:
256,192,85476,1,8,0:0:0:0:
256,192,85536,1,8,0:0:0:0:
256,192,85596,1,0,0:0:0:0:
256,192,85656,1,0,0:0:0:0:
256,192,85716,1,8,0:0:0:0:
256,192,85836,1,0,0:0:0:0:
256,192,85956,1,8,0:0:0:0:
256,192,86196,1,0,0:0:0:0:
256,192,86436,1,8,0:0:0:0:
256,192,86496,1,8,0:0:0:0:
256,192,86556,1,0,0:0:0:0:
256,192,86676,1,0,0:0:0:0:
256,192,86796,1,8,0:0:0:0:
256,192,86916,1,0,0:0:0:0:
256,192,86976,1,0,0:0:0:0:
256,192,87036,1,0,0:0:0:0:
256,192,87156,1,8,0:0:0:0:
256,192,87276,1,0,0:0:0:0:
256,192,87396,1,8,0:0:0:0:
256,192,87516,1,8,0:0:0:0:
256,192,87636,1,0,0:0:0:0:
256,192,87756,1,8,0:0:0:0:
256,192,87876,1,0,0:0:0:0:
256,192,87996,1,8,0:0:0:0:
256,192,88116,1,12,0:0:0:0:
256,192,88356,1,4,0:0:0:0:
256,192,88476,1,0,0:0:0:0:
256,192,88536,1,0,0:0:0:0:
256,192,88596,1,8,0:0:0:0:
256,192,88716,1,0,0:0:0:0:
256,192,88836,1,8,0:0:0:0:
256,192,89076,1,8,0:0:0:0:
256,192,89136,1,8,0:0:0:0:
256,192,89196,1,0,0:0:0:0:
256,192,89316,1,8,0:0:0:0:
256,192,89436,1,0,0:0:0:0:
256,192,89496,1,0,0:0:0:0:
256,192,89556,1,8,0:0:0:0:
256,192,89616,1,8,0:0:0:0:
256,192,89676,1,0,0:0:0:0:
256,192,89796,1,8,0:0:0:0:
256,192,90036,1,0,0:0:0:0:
256,192,90276,1,8,0:0:0:0:
256,192,90396,1,0,0:0:0:0:
256,192,90456,1,0,0:0:0:0:
256,192,90516,1,8,0:0:0:0:
256,192,90636,1,0,0:0:0:0:
256,192,90756,1,8,0:0:0:0:
256,192,90996,1,8,0:0:0:0:
256,192,91116,1,8,0:0:0:0:
256,192,91236,1,0,0:0:0:0:
256,192,91356,1,8,0:0:0:0:
256,192,91416,1,8,0:0:0:0:
256,192,91476,1,0,0:0:0:0:
256,192,91536,1,0,0:0:0:0:
256,192,91596,1,8,0:0:0:0:
256,192,91716,1,0,0:0:0:0:
256,192,91836,1,8,0:0:0:0:
256,192,91896,1,8,0:0:0:0:
256,192,91956,1,0,0:0:0:0:
256,192,92076,1,8,0:0:0:0:
256,192,92196,1,4,0:0:0:0:
256,192,92316,1,0,0:0:0:0:
256,192,92376,1,0,0:0:0:0:
256,192,92436,1,8,0:0:0:0:
256,192,92556,1,0,0:0:0:0:
256,192,92676,1,8,0:0:0:0:
256,192,92916,1,8,0:0:0:0:
256,192,93036,1,8,0:0:0:0:
256,192,93156,1,4,0:0:0:0:
256,192,93276,1,8,0:0:0:0:
256,192,93336,1,0,0:0:0:0:
256,192,93396,1,0,0:0:0:0:
256,192,93456,1,0,0:0:0:0:
256,192,93516,1,8,0:0:0:0:
256,192,93636,1,8,0:0:0:0:
256,192,93756,1,0,0:0:0:0:
256,192,93876,1,8,0:0:0:0:
256,192,93936,1,8,0:0:0:0:
256,192,93996,1,8,0:0:0:0:
256,192,94056,1,8,0:0:0:0:
256,192,94116,1,0,0:0:0:0:
256,192,94356,1,0,0:0:0:0:
256,192,94416,1,0,0:0:0:0:
256,192,94476,1,0,0:0:0:0:
256,192,94596,1,8,0:0:0:0:
256,192,94716,1,0,0:0:0:0:
256,192,94836,1,8,0:0:0:0:
256,192,94896,1,8,0:0:0:0:
256,192,94956,1,8,0:0:0:0:
256,192,95076,1,0,0:0:0:0:
256,192,95196,1,8,0:0:0:0:
256,192,95316,1,0,0:0:0:0:
256,192,95436,1,8,0:0:0:0:
256,192,95556,1,0,0:0:0:0:
256,192,95676,1,8,0:0:0:0:
256,192,95796,1,12,0:0:0:0:
256,192,96036,1,4,0:0:0:0:
256,192,96156,1,0,0:0:0:0:
256,192,96276,1,8,0:0:0:0:
256,192,96396,1,0,0:0:0:0:
256,192,96516,1,8,0:0:0:0:
256,192,96756,1,8,0:0:0:0:
256,192,96876,1,8,0:0:0:0:
256,192,96996,1,0,0:0:0:0:
256,192,97116,1,0,0:0:0:0:
256,192,97236,1,8,0:0:0:0:
256,192,97356,1,0,0:0:0:0:
256,192,97476,1,8,0:0:0:0:
256,192,97716,1,0,0:0:0:0:
256,192,97956,1,4,0:0:0:0:
256,192,98076,1,0,0:0:0:0:
256,192,98136,1,0,0:0:0:0:
256,192,98196,1,8,0:0:0:0:
256,192,98316,1,0,0:0:0:0:
256,192,98436,1,8,0:0:0:0:
256,192,98676,1,8,0:0:0:0:
256,192,98796,1,8,0:0:0:0:
256,192,98916,1,0,0:0:0:0:
256,192,99036,1,8,0:0:0:0:
256,192,99096,1,8,0:0:0:0:
256,192,99156,1,0,0:0:0:0:
256,192,99216,1,0,0:0:0:0:
256,192,99276,1,8,0:0:0:0:
256,192,99396,1,0,0:0:0:0:
256,192,99516,1,8,0:0:0:0:
256,192,99576,1,0,0:0:0:0:
256,192,99636,1,8,0:0:0:0:
256,192,99756,1,0,0:0:0:0:
256,192,99876,1,4,0:0:0:0:
256,192,100116,1,0,0:0:0:0:
256,192,100236,1,0,0:0:0:0:
256,192,100356,1,8,0:0:0:0:
256,192,100596,1,0,0:0:0:0:
256,192,100716,1,0,0:0:0:0:
256,192,100836,1,8,0:0:0:0:
256,192,100956,1,0,0:0:0:0:
256,192,101076,1,8,0:0:0:0:
256,192,101196,1,8,0:0:0:0:
256,192,101316,1,0,0:0:0:0:
256,192,101556,1,8,0:0:0:0:
256,192,101796,1,4,0:0:0:0:
256,192,101916,1,8,0:0:0:0:
256,192,101976,1,8,0:0:0:0:
256,192,102036,1,0,0:0:0:0:
256,192,102156,1,0,0:0:0:0:
256,192,102276,1,8,0:0:0:0:
256,192,102516,1,8,0:0:0:0:
256,192,102636,1,8,0:0:0:0:
256,192,102756,1,0,0:0:0:0:
256,192,102816,1,0,0:0:0:0:
256,192,102876,1,8,0:0:0:0:
256,192,102996,1,0,0:0:0:0:
256,192,103116,1,8,0:0:0:0:
256,192,103236,1,0,0:0:0:0:
256,192,103296,1,0,0:0:0:0:
256,192,103356,1,8,0:0:0:0:
256,192,103476,1,12,0:0:0:0:
256,192,103716,1,4,0:0:0:0:
256,192,103956,1,8,0:0:0:0:
256,192,104196,1,8,0:0:0:0:
256,192,104436,1,8,0:0:0:0:
256,192,104676,1,8,0:0:0:0:
256,192,104916,1,8,0:0:0:0:
256,192,105156,1,4,0:0:0:0:
256,192,105636,1,4,0:0:0:0:
256,192,105876,1,8,0:0:0:0:
256,192,106116,1,8,0:0:0:0:
256,192,106356,1,8,0:0:0:0:
256,192,106596,1,8,0:0:0:0:
256,192,106836,1,8,0:0:0:0:
256,192,107076,1,0,0:0:0:0:
256,192,107316,1,8,0:0:0:0:
256,192,107396,1,8,0:0:0:0:
256,192,107476,1,0,0:0:0:0:
256,192,107556,1,8,0:0:0:0:
256,192,107676,1,0,0:0:0:0:
256,192,107736,1,0,0:0:0:0:
256,192,107796,1,8,0:0:0:0:
256,192,107916,1,0,0:0:0:0:
256,192,108036,1,8,0:0:0:0:
256,192,108156,1,8,0:0:0:0:
256,192,108276,1,0,0:0:0:0:
256,192,108396,1,8,0:0:0:0:
256,192,108516,1,0,0:0:0:0:
256,192,108636,1,8,0:0:0:0:
256,192,108696,1,8,0:0:0:0:
256,192,108756,1,0,0:0:0:0:
256,192,108876,1,8,0:0:0:0:
256,192,108996,1,0,0:0:0:0:
256,192,109056,1,0,0:0:0:0:
256,192,109116,1,0,0:0:0:0:
256,192,109236,1,8,0:0:0:0:
256,192,109356,1,0,0:0:0:0:
256,192,109476,12,8,110196,0:0:0:0:
256,192,110436,5,4,0:0:0:0:
256,192,110676,1,4,0:0:0:0:
256,192,110796,1,4,0:0:0:0:
256,192,111036,1,4,0:0:0:0:
256,192,111156,1,12,0:0:0:0:
256,192,111396,1,4,0:0:0:0:
256,192,111636,1,8,0:0:0:0:
256,192,111756,1,0,0:0:0:0:
256,192,111816,1,0,0:0:0:0:
256,192,111876,1,8,0:0:0:0:
256,192,111996,1,0,0:0:0:0:
256,192,112116,1,8,0:0:0:0:
256,192,112236,1,4,0:0:0:0:
256,192,112476,1,4,0:0:0:0:
256,192,112596,1,8,0:0:0:0:
256,192,112716,1,0,0:0:0:0:
256,192,112836,1,8,0:0:0:0:
256,192,113076,1,0,0:0:0:0:
256,192,113316,1,12,0:0:0:0:
256,192,113556,1,0,0:0:0:0:
256,192,113676,1,8,0:0:0:0:
256,192,113736,1,8,0:0:0:0:
256,192,113796,1,0,0:0:0:0:
256,192,113916,1,8,0:0:0:0:
256,192,114036,1,0,0:0:0:0:
256,192,114156,1,8,0:0:0:0:
256,192,114276,1,0,0:0:0:0:
256,192,114516,1,8,0:0:0:0:
256,192,114596,1,0,0:0:0:0:
256,192,114676,1,0,0:0:0:0:
256,192,114756,1,8,0:0:0:0:
256,192,114996,1,0,0:0:0:0:
256,192,115236,1,4,0:0:0:0:
256,192,115476,1,8,0:0:0:0:
256,192,115596,1,0,0:0:0:0:
256,192,115656,1,0,0:0:0:0:
256,192,115716,1,0,0:0:0:0:
256,192,115836,1,8,0:0:0:0:
256,192,115956,1,0,0:0:0:0:
256,192,116076,1,4,0:0:0:0:
256,192,116316,1,4,0:0:0:0:
256,192,116436,1,8,0:0:0:0:
256,192,116556,1,0,0:0:0:0:
256,192,116676,1,8,0:0:0:0:
256,192,116916,1,0,0:0:0:0:
256,192,117156,1,0,0:0:0:0:
256,192,117216,1,0,0:0:0:0:
256,192,117276,1,8,0:0:0:0:
256,192,117396,1,0,0:0:0:0:
256,192,117516,1,8,0:0:0:0:
256,192,117636,1,8,0:0:0:0:
256,192,117696,1,0,0:0:0:0:
256,192,117756,1,0,0:0:0:0:
256,192,117816,1,0,0:0:0:0:
256,192,117876,1,8,0:0:0:0:
256,192,117996,1,0,0:0:0:0:
256,192,118116,1,8,0:0:0:0:
256,192,118356,1,8,0:0:0:0:
256,192,118476,1,0,0:0:0:0:
256,192,118596,1,12,0:0:0:0:
