osu file format v14

[General]
AudioFilename: audio.mp3
AudioLeadIn: 0
PreviewTime: 63745
Countdown: 0
SampleSet: None
StackLeniency: 0.7
Mode: 3
LetterboxInBreaks: 0
SpecialStyle: 0
WidescreenStoryboard: 1

[Editor]
Bookmarks: 81200
DistanceSpacing: 0.9
BeatDivisor: 4
GridSize: 8
TimelineZoom: 2.599999

[Metadata]
Title:Crack Traxxxx
TitleUnicode:Crack Traxxxx
Artist:Lite Show Magic
ArtistUnicode:Lite Show Magic
Creator:[ Bacun ]
Version:ADVANCED
Source:SOUND VOLTEX II -infinite infection-
Tags:
BeatmapID:1429478
BeatmapSetID:675791

[Difficulty]
HPDrainRate:7
CircleSize:4
OverallDifficulty:7
ApproachRate:5
SliderMultiplier:1.4
SliderTickRate:1

[Events]
//Background and Video events
0,0,"bg.jpg",0,0
//Break Periods
//Storyboard Layer 0 (Background)
//Storyboard Layer 1 (Fail)
//Storyboard Layer 2 (Pass)
//Storyboard Layer 3 (Foreground)
//Storyboard Sound Samples

[TimingPoints]
2655,272.727272727273,4,3,0,20,1,0
11382,-100,4,3,0,25,0,0
23927,-83.3333333333333,4,3,0,25,0,0
23995,-200,4,3,0,25,0,0
24064,-100,4,3,0,25,0,0
27745,-83.3333333333333,4,3,0,25,0,0
27814,-200,4,3,0,25,0,0
28018,-83.3333333333333,4,3,0,25,0,0
28086,-200,4,3,0,25,0,0
28291,-83.3333333333333,4,3,0,25,0,0
28359,-200,4,3,0,25,0,0
28564,-100,4,3,0,25,0,0
35109,-83.3333333333333,4,3,0,25,0,0
35177,-200,4,3,0,25,0,0
35382,-100,4,3,0,25,0,0
55018,-125,4,3,0,25,0,0
59382,-111.111111111111,4,3,0,25,0,0
62655,-100,4,3,0,25,0,0

[HitObjects]
64,192,2655,128,0,4836:0:0:0:0:
192,192,2655,1,0,0:0:0:0:
320,192,4836,128,0,7018:0:0:0:0:
448,192,4836,128,0,7018:0:0:0:0:
192,192,4836,128,0,7018:0:0:0:0:
64,192,7018,1,0,0:0:0:0:
64,192,7155,1,0,0:0:0:0:
192,192,7223,1,0,0:0:0:0:
320,192,7291,1,0,0:0:0:0:
64,192,7427,128,0,7836:0:0:0:0:
192,192,7427,128,0,7836:0:0:0:0:
448,192,7427,128,0,7836:0:0:0:0:
320,192,7836,1,0,0:0:0:0:
192,192,7905,1,0,0:0:0:0:
64,192,7973,1,0,0:0:0:0:
448,192,8041,1,0,0:0:0:0:
320,192,8109,1,0,0:0:0:0:
192,192,8109,1,0,0:0:0:0:
64,192,8245,1,0,0:0:0:0:
448,192,8245,1,0,0:0:0:0:
192,192,8382,1,0,0:0:0:0:
320,192,8382,1,0,0:0:0:0:
448,192,8518,1,0,0:0:0:0:
192,192,8655,1,0,0:0:0:0:
64,192,8655,1,0,0:0:0:0:
320,192,8791,1,0,0:0:0:0:
448,192,8927,1,0,0:0:0:0:
192,192,8927,1,0,0:0:0:0:
64,192,9064,1,0,0:0:0:0:
448,192,9200,1,0,0:0:0:0:
320,192,9200,1,0,0:0:0:0:
192,192,9336,1,0,0:0:0:0:
64,192,9473,1,0,0:0:0:0:
320,192,9473,1,0,0:0:0:0:
448,192,9609,1,0,0:0:0:0:
320,192,9745,1,0,0:0:0:0:
192,192,9745,1,0,0:0:0:0:
64,192,9882,1,0,0:0:0:0:
192,192,10018,1,0,0:0:0:0:
448,192,10018,1,0,0:0:0:0:
320,192,10155,1,0,0:0:0:0:
64,192,10291,1,0,0:0:0:0:
192,192,10359,1,0,0:0:0:0:
320,192,10427,1,0,0:0:0:0:
448,192,10495,1,0,0:0:0:0:
320,192,10564,1,0,0:0:0:0:
192,192,10632,1,0,0:0:0:0:
64,192,10700,1,0,0:0:0:0:
192,192,10768,1,0,0:0:0:0:
320,192,10836,1,0,0:0:0:0:
448,192,10836,1,0,0:0:0:0:
192,192,10973,1,0,0:0:0:0:
320,192,11109,1,0,0:0:0:0:
448,192,11109,1,0,0:0:0:0:
64,192,11109,1,0,0:0:0:0:
64,192,11382,1,0,0:0:0:0:
320,192,11382,1,0,0:0:0:0:
448,192,11382,1,0,0:0:0:0:
192,192,11518,1,0,0:0:0:0:
64,192,11655,1,0,0:0:0:0:
320,192,11655,1,0,0:0:0:0:
192,192,11791,1,0,0:0:0:0:
320,192,11927,1,0,0:0:0:0:
64,192,11927,1,0,0:0:0:0:
448,192,12064,1,0,0:0:0:0:
320,192,12200,1,0,0:0:0:0:
192,192,12200,1,0,0:0:0:0:
64,192,12200,1,0,0:0:0:0:
448,192,12336,1,0,0:0:0:0:
64,192,12473,1,0,0:0:0:0:
320,192,12473,1,0,0:0:0:0:
448,192,12473,1,0,0:0:0:0:
192,192,12609,1,0,0:0:0:0:
64,192,12745,1,0,0:0:0:0:
320,192,12745,1,0,0:0:0:0:
448,192,12745,1,0,0:0:0:0:
192,192,12882,1,0,0:0:0:0:
64,192,13018,1,0,0:0:0:0:
320,192,13018,1,0,0:0:0:0:
448,192,13018,1,0,0:0:0:0:
192,192,13155,1,0,0:0:0:0:
64,192,13291,1,0,0:0:0:0:
320,192,13291,1,0,0:0:0:0:
448,192,13291,1,0,0:0:0:0:
192,192,13427,1,0,0:0:0:0:
320,192,13564,1,0,0:0:0:0:
448,192,13564,1,0,0:0:0:0:
64,192,13700,1,0,0:0:0:0:
192,192,13836,1,0,0:0:0:0:
448,192,13836,1,0,0:0:0:0:
320,192,13973,1,0,0:0:0:0:
64,192,14109,1,0,0:0:0:0:
192,192,14109,1,0,0:0:0:0:
448,192,14245,1,0,0:0:0:0:
320,192,14382,1,0,0:0:0:0:
64,192,14382,1,0,0:0:0:0:
320,192,14518,1,0,0:0:0:0:
448,192,14655,1,0,0:0:0:0:
64,192,14655,1,0,0:0:0:0:
192,192,14655,1,0,0:0:0:0:
320,192,14791,1,0,0:0:0:0:
64,192,14927,1,0,0:0:0:0:
192,192,14927,1,0,0:0:0:0:
448,192,14927,1,0,0:0:0:0:
320,192,15064,1,0,0:0:0:0:
448,192,15200,1,0,0:0:0:0:
192,192,15200,1,0,0:0:0:0:
64,192,15200,1,0,0:0:0:0:
320,192,15336,1,0,0:0:0:0:
64,192,15473,1,0,0:0:0:0:
192,192,15473,1,0,0:0:0:0:
448,192,15541,1,0,0:0:0:0:
320,192,15609,1,0,0:0:0:0:
192,192,15677,1,0,0:0:0:0:
64,192,15745,1,0,0:0:0:0:
448,192,15745,1,0,0:0:0:0:
320,192,15882,1,0,0:0:0:0:
64,192,16018,1,0,0:0:0:0:
192,192,16018,1,0,0:0:0:0:
448,192,16155,1,0,0:0:0:0:
192,192,16291,128,0,16564:0:0:0:0:
320,192,16291,128,0,16564:0:0:0:0:
448,192,16427,1,0,0:0:0:0:
64,192,16564,1,0,0:0:0:0:
448,192,16700,1,0,0:0:0:0:
192,192,16836,1,0,0:0:0:0:
64,192,16836,1,0,0:0:0:0:
320,192,16905,1,0,0:0:0:0:
448,192,16973,1,0,0:0:0:0:
64,192,17041,1,0,0:0:0:0:
192,192,17109,1,0,0:0:0:0:
320,192,17177,1,0,0:0:0:0:
448,192,17245,1,0,0:0:0:0:
64,192,17314,1,0,0:0:0:0:
192,192,17382,128,0,17655:0:0:0:0:
320,192,17382,128,0,17655:0:0:0:0:
448,192,17518,1,0,0:0:0:0:
64,192,17655,1,0,0:0:0:0:
448,192,17791,1,0,0:0:0:0:
192,192,17927,1,0,0:0:0:0:
64,192,17927,1,0,0:0:0:0:
320,192,18064,1,0,0:0:0:0:
448,192,18200,1,0,0:0:0:0:
64,192,18336,1,0,0:0:0:0:
320,192,18473,1,0,0:0:0:0:
192,192,18609,1,0,0:0:0:0:
64,192,18745,1,0,0:0:0:0:
192,192,18882,1,0,0:0:0:0:
320,192,19018,1,0,0:0:0:0:
64,192,19291,1,0,0:0:0:0:
320,192,19291,1,0,0:0:0:0:
448,192,19564,1,0,0:0:0:0:
192,192,19564,1,0,0:0:0:0:
64,192,19836,1,0,0:0:0:0:
192,192,19836,1,0,0:0:0:0:
320,192,19836,1,0,0:0:0:0:
448,192,19836,1,0,0:0:0:0:
64,192,20109,1,0,0:0:0:0:
192,192,20109,1,0,0:0:0:0:
448,192,20245,1,0,0:0:0:0:
320,192,20382,1,0,0:0:0:0:
192,192,20382,1,0,0:0:0:0:
64,192,20518,1,0,0:0:0:0:
448,192,20655,1,0,0:0:0:0:
192,192,20655,1,0,0:0:0:0:
320,192,20791,1,0,0:0:0:0:
64,192,20927,1,0,0:0:0:0:
192,192,20927,1,0,0:0:0:0:
320,192,21064,1,0,0:0:0:0:
448,192,21200,1,0,0:0:0:0:
192,192,21200,1,0,0:0:0:0:
64,192,21336,1,0,0:0:0:0:
320,192,21473,1,0,0:0:0:0:
192,192,21473,1,0,0:0:0:0:
448,192,21609,1,0,0:0:0:0:
64,192,21745,1,0,0:0:0:0:
192,192,21745,1,0,0:0:0:0:
320,192,21882,1,0,0:0:0:0:
448,192,22018,1,0,0:0:0:0:
192,192,22018,1,0,0:0:0:0:
320,192,22155,1,0,0:0:0:0:
64,192,22291,1,0,0:0:0:0:
192,192,22291,1,0,0:0:0:0:
320,192,22427,1,0,0:0:0:0:
448,192,22564,1,0,0:0:0:0:
192,192,22564,1,0,0:0:0:0:
64,192,22700,1,0,0:0:0:0:
448,192,22836,1,0,0:0:0:0:
320,192,22836,1,0,0:0:0:0:
64,192,22973,1,0,0:0:0:0:
192,192,23109,1,0,0:0:0:0:
320,192,23109,1,0,0:0:0:0:
448,192,23245,1,0,0:0:0:0:
192,192,23382,1,0,0:0:0:0:
320,192,23382,1,0,0:0:0:0:
64,192,23518,1,0,0:0:0:0:
192,192,23655,1,0,0:0:0:0:
448,192,23655,1,0,0:0:0:0:
320,192,23791,1,0,0:0:0:0:
64,192,23927,128,0,24064:0:0:0:0:
192,192,23927,128,0,24064:0:0:0:0:
448,192,23927,128,0,24064:0:0:0:0:
448,192,24200,1,0,0:0:0:0:
320,192,24200,1,0,0:0:0:0:
192,192,24200,1,0,0:0:0:0:
64,192,24200,1,0,0:0:0:0:
64,192,24473,1,0,0:0:0:0:
192,192,24473,1,0,0:0:0:0:
448,192,24609,1,0,0:0:0:0:
320,192,24745,1,0,0:0:0:0:
64,192,24745,1,0,0:0:0:0:
192,192,24882,1,0,0:0:0:0:
448,192,25018,1,0,0:0:0:0:
320,192,25018,1,0,0:0:0:0:
192,192,25155,1,0,0:0:0:0:
64,192,25291,1,0,0:0:0:0:
320,192,25291,1,0,0:0:0:0:
448,192,25427,1,0,0:0:0:0:
192,192,25564,1,0,0:0:0:0:
64,192,25564,1,0,0:0:0:0:
320,192,25700,1,0,0:0:0:0:
448,192,25836,1,0,0:0:0:0:
192,192,25836,1,0,0:0:0:0:
64,192,25973,1,0,0:0:0:0:
448,192,26109,1,0,0:0:0:0:
192,192,26109,1,0,0:0:0:0:
64,192,26245,1,0,0:0:0:0:
192,192,26382,1,0,0:0:0:0:
320,192,26382,1,0,0:0:0:0:
64,192,26518,1,0,0:0:0:0:
448,192,26655,1,0,0:0:0:0:
320,192,26723,1,0,0:0:0:0:
192,192,26791,1,0,0:0:0:0:
64,192,26859,1,0,0:0:0:0:
448,192,26927,128,0,27064:0:0:0:0:
64,192,27064,128,0,27200:0:0:0:0:
320,192,27200,128,0,27336:0:0:0:0:
448,192,27336,128,0,27473:0:0:0:0:
64,192,27473,1,0,0:0:0:0:
192,192,27541,1,0,0:0:0:0:
320,192,27609,1,0,0:0:0:0:
448,192,27677,1,0,0:0:0:0:
192,192,27745,1,0,0:0:0:0:
320,192,27745,1,0,0:0:0:0:
64,192,27745,128,0,28018:0:0:0:0:
192,192,28018,1,0,0:0:0:0:
448,192,28018,128,0,28291:0:0:0:0:
320,192,28018,1,0,0:0:0:0:
320,192,28291,1,0,0:0:0:0:
64,192,28291,128,0,28564:0:0:0:0:
320,192,28564,1,0,0:0:0:0:
448,192,28564,1,0,0:0:0:0:
192,192,28564,1,0,0:0:0:0:
448,192,28836,1,0,0:0:0:0:
320,192,28836,1,0,0:0:0:0:
64,192,28836,1,0,0:0:0:0:
192,192,28973,1,0,0:0:0:0:
64,192,29109,1,0,0:0:0:0:
320,192,29109,1,0,0:0:0:0:
448,192,29245,1,0,0:0:0:0:
320,192,29382,1,0,0:0:0:0:
192,192,29382,1,0,0:0:0:0:
64,192,29518,1,0,0:0:0:0:
192,192,29655,1,0,0:0:0:0:
448,192,29655,1,0,0:0:0:0:
320,192,29791,1,0,0:0:0:0:
192,192,29927,1,0,0:0:0:0:
64,192,29927,1,0,0:0:0:0:
320,192,30064,1,0,0:0:0:0:
448,192,30200,1,0,0:0:0:0:
192,192,30200,1,0,0:0:0:0:
320,192,30336,1,0,0:0:0:0:
192,192,30473,1,0,0:0:0:0:
64,192,30473,1,0,0:0:0:0:
448,192,30609,1,0,0:0:0:0:
64,192,30745,1,0,0:0:0:0:
192,192,30814,1,0,0:0:0:0:
320,192,30882,1,0,0:0:0:0:
448,192,30950,1,0,0:0:0:0:
192,192,31018,1,0,0:0:0:0:
64,192,31018,1,0,0:0:0:0:
320,192,31155,1,0,0:0:0:0:
448,192,31291,1,0,0:0:0:0:
192,192,31291,1,0,0:0:0:0:
320,192,31427,1,0,0:0:0:0:
64,192,31564,1,0,0:0:0:0:
192,192,31564,1,0,0:0:0:0:
448,192,31700,1,0,0:0:0:0:
320,192,31836,1,0,0:0:0:0:
64,192,31836,1,0,0:0:0:0:
192,192,31973,1,0,0:0:0:0:
448,192,32109,1,0,0:0:0:0:
64,192,32109,1,0,0:0:0:0:
320,192,32245,1,0,0:0:0:0:
192,192,32382,1,0,0:0:0:0:
64,192,32382,1,0,0:0:0:0:
448,192,32518,1,0,0:0:0:0:
320,192,32655,1,0,0:0:0:0:
64,192,32655,1,0,0:0:0:0:
448,192,32791,1,0,0:0:0:0:
64,192,32927,1,0,0:0:0:0:
192,192,32995,1,0,0:0:0:0:
320,192,33064,1,0,0:0:0:0:
448,192,33132,1,0,0:0:0:0:
64,192,33200,1,0,0:0:0:0:
192,192,33200,1,0,0:0:0:0:
320,192,33336,1,0,0:0:0:0:
64,192,33473,1,0,0:0:0:0:
448,192,33473,1,0,0:0:0:0:
192,192,33609,1,0,0:0:0:0:
64,192,33745,1,0,0:0:0:0:
320,192,33745,1,0,0:0:0:0:
192,192,33882,1,0,0:0:0:0:
448,192,34018,1,0,0:0:0:0:
64,192,34018,1,0,0:0:0:0:
320,192,34086,1,0,0:0:0:0:
192,192,34155,1,0,0:0:0:0:
64,192,34223,1,0,0:0:0:0:
448,192,34291,1,0,0:0:0:0:
320,192,34291,1,0,0:0:0:0:
192,192,34427,1,0,0:0:0:0:
64,192,34564,1,0,0:0:0:0:
320,192,34564,1,0,0:0:0:0:
192,192,34700,1,0,0:0:0:0:
320,192,34836,1,0,0:0:0:0:
448,192,34836,1,0,0:0:0:0:
192,192,34973,1,0,0:0:0:0:
448,192,35109,128,0,35382:0:0:0:0:
64,192,35109,128,0,35382:0:0:0:0:
192,192,35382,1,0,0:0:0:0:
448,192,35518,1,0,0:0:0:0:
320,192,35586,1,0,0:0:0:0:
192,192,35655,1,0,0:0:0:0:
64,192,35791,1,0,0:0:0:0:
448,192,35927,128,0,36200:0:0:0:0:
320,192,35927,1,0,0:0:0:0:
192,192,36200,1,0,0:0:0:0:
64,192,36200,128,0,36473:0:0:0:0:
192,192,36473,1,0,0:0:0:0:
320,192,36473,1,0,0:0:0:0:
448,192,36473,1,0,0:0:0:0:
64,192,36745,1,0,0:0:0:0:
192,192,36745,1,0,0:0:0:0:
320,192,36745,1,0,0:0:0:0:
448,192,36745,1,0,0:0:0:0:
448,192,37018,1,0,0:0:0:0:
320,192,37018,1,0,0:0:0:0:
192,192,37018,1,0,0:0:0:0:
64,192,37018,1,0,0:0:0:0:
64,192,37291,1,0,0:0:0:0:
192,192,37291,1,0,0:0:0:0:
320,192,37291,1,0,0:0:0:0:
448,192,37291,1,0,0:0:0:0:
64,192,37564,1,0,0:0:0:0:
192,192,37632,1,0,0:0:0:0:
320,192,37700,1,0,0:0:0:0:
448,192,37768,1,0,0:0:0:0:
64,192,37836,128,0,38109:0:0:0:0:
192,192,37836,1,0,0:0:0:0:
320,192,38109,128,0,38382:0:0:0:0:
448,192,38109,128,0,38382:0:0:0:0:
192,192,38109,1,0,0:0:0:0:
192,192,38382,1,0,0:0:0:0:
64,192,38518,1,0,0:0:0:0:
448,192,38655,1,0,0:0:0:0:
320,192,38655,1,0,0:0:0:0:
192,192,38791,128,0,38927:0:0:0:0:
64,192,38927,128,0,39064:0:0:0:0:
192,192,39064,128,0,39200:0:0:0:0:
320,192,39200,128,0,39473:0:0:0:0:
64,192,39473,128,0,39745:0:0:0:0:
192,192,39745,128,0,40018:0:0:0:0:
448,192,40018,128,0,40155:0:0:0:0:
64,192,40155,128,0,40291:0:0:0:0:
192,192,40291,128,0,40564:0:0:0:0:
320,192,40564,128,0,40836:0:0:0:0:
64,192,40836,128,0,40973:0:0:0:0:
448,192,41109,128,0,41245:0:0:0:0:
192,192,41245,128,0,41382:0:0:0:0:
64,192,41382,128,0,41655:0:0:0:0:
320,192,41382,128,0,41655:0:0:0:0:
192,192,41655,128,0,41927:0:0:0:0:
448,192,41655,128,0,41927:0:0:0:0:
64,192,41927,1,0,0:0:0:0:
320,192,41995,1,0,0:0:0:0:
64,192,42064,1,0,0:0:0:0:
320,192,42132,1,0,0:0:0:0:
192,192,42200,1,0,0:0:0:0:
64,192,42200,1,0,0:0:0:0:
320,192,42336,1,0,0:0:0:0:
448,192,42473,1,0,0:0:0:0:
192,192,42473,1,0,0:0:0:0:
64,192,42473,1,0,0:0:0:0:
320,192,42609,1,0,0:0:0:0:
192,192,42745,1,0,0:0:0:0:
64,192,42745,1,0,0:0:0:0:
320,192,42882,1,0,0:0:0:0:
448,192,43018,1,0,0:0:0:0:
192,192,43018,1,0,0:0:0:0:
320,192,43155,128,0,43291:0:0:0:0:
64,192,43291,128,0,43427:0:0:0:0:
192,192,43427,128,0,43564:0:0:0:0:
448,192,43564,128,0,43836:0:0:0:0:
192,192,43836,128,0,44109:0:0:0:0:
320,192,44109,1,0,0:0:0:0:
448,192,44109,1,0,0:0:0:0:
64,192,44245,1,0,0:0:0:0:
192,192,44382,1,0,0:0:0:0:
320,192,44518,1,0,0:0:0:0:
448,192,44655,1,0,0:0:0:0:
192,192,44791,1,0,0:0:0:0:
64,192,44927,1,0,0:0:0:0:
320,192,45064,1,0,0:0:0:0:
64,192,45200,1,0,0:0:0:0:
192,192,45200,1,0,0:0:0:0:
448,192,45200,1,0,0:0:0:0:
64,192,45473,1,0,0:0:0:0:
192,192,45473,1,0,0:0:0:0:
448,192,45473,1,0,0:0:0:0:
448,192,45745,1,0,0:0:0:0:
320,192,45745,1,0,0:0:0:0:
64,192,45745,1,0,0:0:0:0:
64,192,46018,1,0,0:0:0:0:
320,192,46018,1,0,0:0:0:0:
448,192,46018,1,0,0:0:0:0:
64,192,46291,1,0,0:0:0:0:
192,192,46359,1,0,0:0:0:0:
320,192,46427,1,0,0:0:0:0:
448,192,46495,1,0,0:0:0:0:
64,192,46564,1,0,0:0:0:0:
192,192,46564,1,0,0:0:0:0:
64,192,46836,1,0,0:0:0:0:
192,192,46836,1,0,0:0:0:0:
320,192,46836,1,0,0:0:0:0:
448,192,47109,1,0,0:0:0:0:
320,192,47109,1,0,0:0:0:0:
192,192,47245,1,0,0:0:0:0:
64,192,47382,1,0,0:0:0:0:
320,192,47382,1,0,0:0:0:0:
448,192,47518,128,0,47655:0:0:0:0:
64,192,47655,128,0,47791:0:0:0:0:
192,192,47791,128,0,47927:0:0:0:0:
320,192,47927,128,0,48200:0:0:0:0:
64,192,48200,128,0,48473:0:0:0:0:
192,192,48473,128,0,48745:0:0:0:0:
320,192,48745,128,0,48882:0:0:0:0:
64,192,48882,128,0,49018:0:0:0:0:
192,192,49018,128,0,49291:0:0:0:0:
448,192,49291,128,0,49427:0:0:0:0:
64,192,49427,128,0,49564:0:0:0:0:
192,192,49700,128,0,49836:0:0:0:0:
64,192,49973,128,0,50109:0:0:0:0:
192,192,50109,1,0,0:0:0:0:
320,192,50109,1,0,0:0:0:0:
448,192,50109,1,0,0:0:0:0:
64,192,50382,1,0,0:0:0:0:
192,192,50382,1,0,0:0:0:0:
320,192,50382,1,0,0:0:0:0:
448,192,50382,1,0,0:0:0:0:
64,192,50655,1,0,0:0:0:0:
192,192,50723,1,0,0:0:0:0:
320,192,50791,1,0,0:0:0:0:
448,192,50859,1,0,0:0:0:0:
192,192,50927,1,0,0:0:0:0:
64,192,50927,1,0,0:0:0:0:
320,192,51064,1,0,0:0:0:0:
64,192,51200,1,0,0:0:0:0:
448,192,51200,1,0,0:0:0:0:
192,192,51336,1,0,0:0:0:0:
448,192,51473,1,0,0:0:0:0:
320,192,51473,1,0,0:0:0:0:
64,192,51609,1,0,0:0:0:0:
448,192,51745,1,0,0:0:0:0:
320,192,51814,1,0,0:0:0:0:
192,192,51882,1,0,0:0:0:0:
64,192,51950,1,0,0:0:0:0:
320,192,52018,1,0,0:0:0:0:
448,192,52018,1,0,0:0:0:0:
192,192,52155,1,0,0:0:0:0:
64,192,52291,1,0,0:0:0:0:
320,192,52291,1,0,0:0:0:0:
448,192,52427,1,0,0:0:0:0:
64,192,52564,1,0,0:0:0:0:
192,192,52632,1,0,0:0:0:0:
320,192,52700,1,0,0:0:0:0:
448,192,52768,1,0,0:0:0:0:
192,192,52836,1,0,0:0:0:0:
64,192,52836,1,0,0:0:0:0:
320,192,52973,1,0,0:0:0:0:
448,192,53109,1,0,0:0:0:0:
64,192,53245,1,0,0:0:0:0:
192,192,53245,1,0,0:0:0:0:
320,192,53382,1,0,0:0:0:0:
64,192,53518,1,0,0:0:0:0:
192,192,53518,1,0,0:0:0:0:
448,192,53655,1,0,0:0:0:0:
192,192,53791,1,0,0:0:0:0:
64,192,53791,1,0,0:0:0:0:
320,192,53927,1,0,0:0:0:0:
448,192,53927,1,0,0:0:0:0:
192,192,54064,1,0,0:0:0:0:
64,192,54200,1,0,0:0:0:0:
192,192,54336,1,0,0:0:0:0:
320,192,54473,1,0,0:0:0:0:
448,192,54609,1,0,0:0:0:0:
192,192,54745,1,0,0:0:0:0:
64,192,54882,1,0,0:0:0:0:
320,192,55018,1,0,0:0:0:0:
448,192,55018,128,0,55291:0:0:0:0:
320,192,55291,128,0,55564:0:0:0:0:
64,192,55564,128,0,55836:0:0:0:0:
192,192,55836,128,0,55973:0:0:0:0:
448,192,55973,128,0,56109:0:0:0:0:
320,192,56109,128,0,56382:0:0:0:0:
192,192,56382,128,0,56655:0:0:0:0:
64,192,56655,128,0,56927:0:0:0:0:
448,192,56927,128,0,57200:0:0:0:0:
192,192,57200,128,0,57473:0:0:0:0:
320,192,57609,128,0,57882:0:0:0:0:
64,192,57882,128,0,58155:0:0:0:0:
192,192,58155,128,0,58291:0:0:0:0:
320,192,58291,128,0,58427:0:0:0:0:
192,192,58564,128,0,58700:0:0:0:0:
64,192,58836,128,0,58973:0:0:0:0:
448,192,59109,128,0,59245:0:0:0:0:
64,192,59382,128,0,59655:0:0:0:0:
448,192,59382,128,0,59655:0:0:0:0:
192,192,59655,128,0,59927:0:0:0:0:
320,192,59927,128,0,60200:0:0:0:0:
64,192,60200,128,0,60336:0:0:0:0:
448,192,60336,128,0,60473:0:0:0:0:
320,192,60473,128,0,60745:0:0:0:0:
64,192,60473,128,0,60745:0:0:0:0:
192,192,60745,128,0,61018:0:0:0:0:
64,192,61018,128,0,61291:0:0:0:0:
320,192,61291,128,0,61564:0:0:0:0:
64,192,61564,128,0,61836:0:0:0:0:
448,192,61564,128,0,61836:0:0:0:0:
192,192,61973,128,0,62245:0:0:0:0:
320,192,61973,128,0,62245:0:0:0:0:
64,192,62245,128,0,62382:0:0:0:0:
192,192,62382,128,0,62518:0:0:0:0:
320,192,62518,128,0,62655:0:0:0:0:
64,192,62655,1,0,0:0:0:0:
192,192,62723,1,0,0:0:0:0:
320,192,62791,1,0,0:0:0:0:
448,192,62859,1,0,0:0:0:0:
320,192,62927,1,0,0:0:0:0:
192,192,62995,1,0,0:0:0:0:
64,192,63064,1,0,0:0:0:0:
192,192,63132,1,0,0:0:0:0:
320,192,63200,1,0,0:0:0:0:
448,192,63268,1,0,0:0:0:0:
320,192,63336,1,0,0:0:0:0:
192,192,63405,1,0,0:0:0:0:
64,192,63473,1,0,0:0:0:0:
320,192,63473,1,0,0:0:0:0:
448,192,63473,1,0,0:0:0:0:
64,192,63745,1,0,0:0:0:0:
320,192,63745,1,0,0:0:0:0:
192,192,63882,1,0,0:0:0:0:
448,192,64018,1,0,0:0:0:0:
320,192,64018,1,0,0:0:0:0:
192,192,64155,1,0,0:0:0:0:
64,192,64291,1,0,0:0:0:0:
320,192,64291,1,0,0:0:0:0:
192,192,64427,1,0,0:0:0:0:
448,192,64564,1,0,0:0:0:0:
320,192,64564,1,0,0:0:0:0:
192,192,64700,1,0,0:0:0:0:
64,192,64836,1,0,0:0:0:0:
320,192,64836,1,0,0:0:0:0:
448,192,64973,1,0,0:0:0:0:
320,192,65109,1,0,0:0:0:0:
192,192,65109,1,0,0:0:0:0:
64,192,65245,1,0,0:0:0:0:
192,192,65382,1,0,0:0:0:0:
448,192,65382,1,0,0:0:0:0:
320,192,65518,1,0,0:0:0:0:
64,192,65655,1,0,0:0:0:0:
192,192,65655,1,0,0:0:0:0:
448,192,65791,1,0,0:0:0:0:
64,192,65927,1,0,0:0:0:0:
320,192,65927,1,0,0:0:0:0:
192,192,66064,1,0,0:0:0:0:
64,192,66200,1,0,0:0:0:0:
448,192,66200,1,0,0:0:0:0:
192,192,66336,1,0,0:0:0:0:
448,192,66473,1,0,0:0:0:0:
320,192,66473,1,0,0:0:0:0:
192,192,66609,1,0,0:0:0:0:
64,192,66745,1,0,0:0:0:0:
320,192,66745,1,0,0:0:0:0:
448,192,66882,1,0,0:0:0:0:
320,192,67018,1,0,0:0:0:0:
64,192,67018,1,0,0:0:0:0:
192,192,67155,1,0,0:0:0:0:
448,192,67291,1,0,0:0:0:0:
320,192,67291,1,0,0:0:0:0:
64,192,67427,1,0,0:0:0:0:
448,192,67564,1,0,0:0:0:0:
320,192,67564,1,0,0:0:0:0:
192,192,67564,1,0,0:0:0:0:
64,192,67564,1,0,0:0:0:0:
64,192,67836,1,0,0:0:0:0:
192,192,67836,1,0,0:0:0:0:
320,192,67836,1,0,0:0:0:0:
448,192,67836,1,0,0:0:0:0:
64,192,68109,1,0,0:0:0:0:
192,192,68109,1,0,0:0:0:0:
448,192,68245,1,0,0:0:0:0:
320,192,68382,1,0,0:0:0:0:
192,192,68382,1,0,0:0:0:0:
64,192,68518,1,0,0:0:0:0:
192,192,68655,1,0,0:0:0:0:
448,192,68655,1,0,0:0:0:0:
320,192,68791,1,0,0:0:0:0:
64,192,68927,1,0,0:0:0:0:
192,192,68927,1,0,0:0:0:0:
320,192,69064,1,0,0:0:0:0:
448,192,69200,1,0,0:0:0:0:
64,192,69200,1,0,0:0:0:0:
192,192,69336,1,0,0:0:0:0:
64,192,69473,1,0,0:0:0:0:
320,192,69473,1,0,0:0:0:0:
192,192,69609,1,0,0:0:0:0:
448,192,69745,1,0,0:0:0:0:
320,192,69745,1,0,0:0:0:0:
192,192,69882,1,0,0:0:0:0:
64,192,70018,1,0,0:0:0:0:
320,192,70018,1,0,0:0:0:0:
448,192,70155,1,0,0:0:0:0:
64,192,70291,1,0,0:0:0:0:
192,192,70359,1,0,0:0:0:0:
320,192,70427,1,0,0:0:0:0:
448,192,70495,1,0,0:0:0:0:
64,192,70564,1,0,0:0:0:0:
192,192,70564,1,0,0:0:0:0:
320,192,70700,1,0,0:0:0:0:
448,192,70700,1,0,0:0:0:0:
448,192,70836,1,0,0:0:0:0:
320,192,70905,1,0,0:0:0:0:
192,192,70973,1,0,0:0:0:0:
64,192,71041,1,0,0:0:0:0:
448,192,71109,1,0,0:0:0:0:
320,192,71109,1,0,0:0:0:0:
64,192,71245,1,0,0:0:0:0:
192,192,71245,1,0,0:0:0:0:
448,192,71382,1,0,0:0:0:0:
320,192,71382,1,0,0:0:0:0:
64,192,71382,1,0,0:0:0:0:
64,192,71655,1,0,0:0:0:0:
192,192,71655,1,0,0:0:0:0:
448,192,71655,1,0,0:0:0:0:
448,192,71927,1,0,0:0:0:0:
320,192,71927,1,0,0:0:0:0:
64,192,71927,1,0,0:0:0:0:
64,192,72200,1,0,0:0:0:0:
192,192,72200,1,0,0:0:0:0:
448,192,72200,1,0,0:0:0:0:
64,192,72473,1,0,0:0:0:0:
320,192,72473,1,0,0:0:0:0:
192,192,72609,1,0,0:0:0:0:
448,192,72745,1,0,0:0:0:0:
320,192,72745,1,0,0:0:0:0:
192,192,72882,1,0,0:0:0:0:
64,192,73018,1,0,0:0:0:0:
320,192,73018,1,0,0:0:0:0:
192,192,73155,1,0,0:0:0:0:
448,192,73291,1,0,0:0:0:0:
320,192,73291,1,0,0:0:0:0:
192,192,73427,1,0,0:0:0:0:
64,192,73564,1,0,0:0:0:0:
448,192,73564,1,0,0:0:0:0:
320,192,73700,1,0,0:0:0:0:
64,192,73836,1,0,0:0:0:0:
192,192,73836,1,0,0:0:0:0:
320,192,73973,1,0,0:0:0:0:
64,192,74109,1,0,0:0:0:0:
448,192,74109,1,0,0:0:0:0:
192,192,74245,1,0,0:0:0:0:
448,192,74382,1,0,0:0:0:0:
320,192,74382,1,0,0:0:0:0:
192,192,74518,1,0,0:0:0:0:
64,192,74655,1,0,0:0:0:0:
320,192,74655,1,0,0:0:0:0:
192,192,74791,1,0,0:0:0:0:
448,192,74927,1,0,0:0:0:0:
320,192,74927,1,0,0:0:0:0:
64,192,75064,1,0,0:0:0:0:
192,192,75200,1,0,0:0:0:0:
448,192,75200,1,0,0:0:0:0:
320,192,75336,1,0,0:0:0:0:
192,192,75473,1,0,0:0:0:0:
64,192,75473,1,0,0:0:0:0:
320,192,75609,1,0,0:0:0:0:
448,192,75745,1,0,0:0:0:0:
64,192,75745,1,0,0:0:0:0:
192,192,75882,1,0,0:0:0:0:
320,192,76018,1,0,0:0:0:0:
448,192,76018,1,0,0:0:0:0:
192,192,76155,1,0,0:0:0:0:
64,192,76291,1,0,0:0:0:0:
448,192,76291,1,0,0:0:0:0:
320,192,76427,1,0,0:0:0:0:
192,192,76427,1,0,0:0:0:0:
64,192,76564,1,0,0:0:0:0:
448,192,76564,1,0,0:0:0:0:
320,192,76632,1,0,0:0:0:0:
192,192,76632,1,0,0:0:0:0:
64,192,76700,1,0,0:0:0:0:
448,192,76700,1,0,0:0:0:0:
320,192,76768,1,0,0:0:0:0:
192,192,76836,1,0,0:0:0:0:
64,192,76836,1,0,0:0:0:0:
320,192,76973,1,0,0:0:0:0:
448,192,76973,1,0,0:0:0:0:
192,192,77109,1,0,0:0:0:0:
192,192,77245,1,0,0:0:0:0:
64,192,77245,1,0,0:0:0:0:
320,192,77382,1,0,0:0:0:0:
448,192,77382,1,0,0:0:0:0:
192,192,77518,1,0,0:0:0:0:
192,192,77655,1,0,0:0:0:0:
64,192,77655,1,0,0:0:0:0:
320,192,77791,1,0,0:0:0:0:
448,192,77791,1,0,0:0:0:0:
192,192,78064,1,0,0:0:0:0:
64,192,78064,1,0,0:0:0:0:
320,192,78200,1,0,0:0:0:0:
192,192,78268,1,0,0:0:0:0:
64,192,78336,1,0,0:0:0:0:
320,192,78336,1,0,0:0:0:0:
448,192,78405,1,0,0:0:0:0:
320,192,78473,1,0,0:0:0:0:
192,192,78473,1,0,0:0:0:0:
64,192,78541,1,0,0:0:0:0:
448,192,78609,1,0,0:0:0:0:
320,192,78677,1,0,0:0:0:0:
192,192,78745,1,0,0:0:0:0:
64,192,78814,1,0,0:0:0:0:
448,192,78882,1,0,0:0:0:0:
320,192,78950,1,0,0:0:0:0:
192,192,79018,1,0,0:0:0:0:
448,192,79155,1,0,0:0:0:0:
320,192,79155,1,0,0:0:0:0:
192,192,79291,1,0,0:0:0:0:
320,192,79291,1,0,0:0:0:0:
64,192,79427,1,0,0:0:0:0:
192,192,79427,1,0,0:0:0:0:
320,192,79564,1,0,0:0:0:0:
192,192,79564,1,0,0:0:0:0:
320,192,79700,1,0,0:0:0:0:
448,192,79700,1,0,0:0:0:0:
192,192,79836,1,0,0:0:0:0:
64,192,79836,1,0,0:0:0:0:
320,192,79973,1,0,0:0:0:0:
448,192,79973,1,0,0:0:0:0:
192,192,80109,128,0,80927:0:0:0:0:
64,192,80109,128,0,81200:0:0:0:0:
320,192,80109,1,0,0:0:0:0:
448,192,80382,1,0,0:0:0:0:
320,192,80655,1,0,0:0:0:0:
320,192,80927,1,0,0:0:0:0:
448,192,80927,1,0,0:0:0:0:
192,192,81200,1,0,0:0:0:0:
320,192,81200,128,0,81473:0:0:0:0:
192,192,81473,128,0,81745:0:0:0:0:
64,192,81745,128,0,82018:0:0:0:0:
192,192,82018,128,0,82155:0:0:0:0:
448,192,82155,128,0,82291:0:0:0:0:
320,192,82291,128,0,82564:0:0:0:0:
192,192,82564,128,0,82836:0:0:0:0:
64,192,82836,128,0,83109:0:0:0:0:
192,192,83109,128,0,83382:0:0:0:0:
448,192,83382,128,0,83655:0:0:0:0:
320,192,83791,128,0,84064:0:0:0:0:
192,192,84064,128,0,84336:0:0:0:0:
64,192,84336,128,0,84473:0:0:0:0:
192,192,84473,128,0,84609:0:0:0:0:
64,192,84745,128,0,84882:0:0:0:0:
320,192,85018,128,0,85155:0:0:0:0:
64,192,85291,128,0,85427:0:0:0:0:
320,192,85564,128,0,85836:0:0:0:0:
192,192,85836,128,0,86109:0:0:0:0:
64,192,86109,128,0,86382:0:0:0:0:
448,192,86382,128,0,86518:0:0:0:0:
192,192,86518,128,0,86655:0:0:0:0:
64,192,86655,1,0,0:0:0:0:
320,192,86655,1,0,0:0:0:0:
448,192,86655,1,0,0:0:0:0:
192,192,86927,128,0,87473:0:0:0:0:
320,192,86927,1,0,0:0:0:0:
448,192,87473,1,0,0:0:0:0:
320,192,87541,1,0,0:0:0:0:
192,192,87609,1,0,0:0:0:0:
64,192,87677,1,0,0:0:0:0:
448,192,87745,1,0,0:0:0:0:
320,192,87745,1,0,0:0:0:0:
192,192,87882,1,0,0:0:0:0:
64,192,87882,1,0,0:0:0:0:
320,192,88018,128,0,88155:0:0:0:0:
448,192,88018,128,0,88155:0:0:0:0:
192,192,88291,1,0,0:0:0:0:
64,192,88291,1,0,0:0:0:0:
320,192,88427,1,0,0:0:0:0:
448,192,88427,1,0,0:0:0:0:
64,192,88564,128,0,88836:0:0:0:0:
192,192,88564,128,0,88836:0:0:0:0:
320,192,88836,1,0,0:0:0:0:
448,192,88836,1,0,0:0:0:0:
320,192,88973,1,0,0:0:0:0:
64,192,89109,1,0,0:0:0:0:
192,192,89177,1,0,0:0:0:0:
320,192,89245,1,0,0:0:0:0:
448,192,89314,1,0,0:0:0:0:
64,192,89382,1,0,0:0:0:0:
192,192,89450,1,0,0:0:0:0:
320,192,89518,1,0,0:0:0:0:
448,192,89586,1,0,0:0:0:0:
192,192,89655,1,0,0:0:0:0:
320,192,89655,1,0,0:0:0:0:
64,192,89791,1,0,0:0:0:0:
192,192,89927,1,0,0:0:0:0:
320,192,89927,1,0,0:0:0:0:
448,192,90064,1,0,0:0:0:0:
64,192,90200,1,0,0:0:0:0:
192,192,90200,1,0,0:0:0:0:
320,192,90336,1,0,0:0:0:0:
448,192,90473,1,0,0:0:0:0:
64,192,90473,1,0,0:0:0:0:
192,192,90609,1,0,0:0:0:0:
64,192,90745,1,0,0:0:0:0:
448,192,90745,1,0,0:0:0:0:
320,192,90882,1,0,0:0:0:0:
448,192,91018,1,0,0:0:0:0:
192,192,91018,1,0,0:0:0:0:
320,192,91155,1,0,0:0:0:0:
64,192,91291,1,0,0:0:0:0:
448,192,91291,1,0,0:0:0:0:
192,192,91427,1,0,0:0:0:0:
448,192,91564,1,0,0:0:0:0:
64,192,91564,1,0,0:0:0:0:
320,192,91564,1,0,0:0:0:0:
192,192,91700,1,0,0:0:0:0:
64,192,91836,1,0,0:0:0:0:
320,192,91836,1,0,0:0:0:0:
448,192,91836,1,0,0:0:0:0:
192,192,91973,1,0,0:0:0:0:
448,192,92109,1,0,0:0:0:0:
320,192,92109,1,0,0:0:0:0:
192,192,92245,1,0,0:0:0:0:
64,192,92245,1,0,0:0:0:0:
448,192,92382,1,0,0:0:0:0:
320,192,92450,1,0,0:0:0:0:
192,192,92518,1,0,0:0:0:0:
64,192,92586,1,0,0:0:0:0:
448,192,92655,1,0,0:0:0:0:
320,192,92723,1,0,0:0:0:0:
192,192,92791,1,0,0:0:0:0:
64,192,92859,1,0,0:0:0:0:
448,192,92927,1,0,0:0:0:0:
320,192,92995,1,0,0:0:0:0:
192,192,93064,1,0,0:0:0:0:
64,192,93132,1,0,0:0:0:0:
448,192,93200,1,0,0:0:0:0:
320,192,93200,1,0,0:0:0:0:
64,192,93336,1,0,0:0:0:0:
192,192,93336,1,0,0:0:0:0:
448,192,93473,1,0,0:0:0:0:
320,192,93473,1,0,0:0:0:0:
192,192,93609,1,0,0:0:0:0:
64,192,93609,1,0,0:0:0:0:
320,192,93745,1,0,0:0:0:0:
448,192,93745,1,0,0:0:0:0:
64,192,93882,1,0,0:0:0:0:
320,192,94018,1,0,0:0:0:0:
192,192,94018,1,0,0:0:0:0:
320,192,94291,1,0,0:0:0:0:
448,192,94291,1,0,0:0:0:0:
192,192,94427,1,0,0:0:0:0:
64,192,94564,1,0,0:0:0:0:
320,192,94564,1,0,0:0:0:0:
448,192,94700,1,0,0:0:0:0:
320,192,94836,1,0,0:0:0:0:
192,192,94836,1,0,0:0:0:0:
64,192,94973,1,0,0:0:0:0:
448,192,95109,1,0,0:0:0:0:
320,192,95109,1,0,0:0:0:0:
192,192,95245,1,0,0:0:0:0:
64,192,95382,1,0,0:0:0:0:
320,192,95382,1,0,0:0:0:0:
448,192,95518,1,0,0:0:0:0:
320,192,95655,1,0,0:0:0:0:
192,192,95655,1,0,0:0:0:0:
64,192,95791,1,0,0:0:0:0:
448,192,95927,1,0,0:0:0:0:
192,192,95927,1,0,0:0:0:0:
320,192,95927,1,0,0:0:0:0:
64,192,96064,1,0,0:0:0:0:
192,192,96200,1,0,0:0:0:0:
320,192,96200,1,0,0:0:0:0:
448,192,96200,1,0,0:0:0:0:
64,192,96336,1,0,0:0:0:0:
192,192,96473,1,0,0:0:0:0:
448,192,96473,1,0,0:0:0:0:
192,192,96609,1,0,0:0:0:0:
448,192,96609,1,0,0:0:0:0:
64,192,96745,1,0,0:0:0:0:
320,192,96745,1,0,0:0:0:0:
192,192,96814,1,0,0:0:0:0:
320,192,96882,1,0,0:0:0:0:
448,192,96950,1,0,0:0:0:0:
320,192,97018,1,0,0:0:0:0:
192,192,97018,1,0,0:0:0:0:
64,192,97155,1,0,0:0:0:0:
448,192,97155,1,0,0:0:0:0:
192,192,97291,128,0,97564:0:0:0:0:
320,192,97291,128,0,97564:0:0:0:0:
64,192,97564,1,0,0:0:0:0:
448,192,97564,1,0,0:0:0:0:
320,192,97700,1,0,0:0:0:0:
192,192,97700,1,0,0:0:0:0:
64,192,97836,1,0,0:0:0:0:
448,192,97836,1,0,0:0:0:0:
320,192,97973,1,0,0:0:0:0:
192,192,97973,1,0,0:0:0:0:
64,192,98109,1,0,0:0:0:0:
448,192,98109,1,0,0:0:0:0:
192,192,98245,1,0,0:0:0:0:
320,192,98245,1,0,0:0:0:0:
448,192,98382,128,0,98655:0:0:0:0:
64,192,98382,128,0,98655:0:0:0:0:
192,192,98655,1,0,0:0:0:0:
320,192,98655,1,0,0:0:0:0:
448,192,98791,1,0,0:0:0:0:
320,192,98927,1,0,0:0:0:0:
64,192,98927,1,0,0:0:0:0:
192,192,99064,1,0,0:0:0:0:
448,192,99200,1,0,0:0:0:0:
64,192,99200,1,0,0:0:0:0:
320,192,99336,1,0,0:0:0:0:
64,192,99473,1,0,0:0:0:0:
192,192,99473,1,0,0:0:0:0:
448,192,99609,1,0,0:0:0:0:
320,192,99745,1,0,0:0:0:0:
64,192,99745,1,0,0:0:0:0:
192,192,99882,1,0,0:0:0:0:
448,192,100018,1,0,0:0:0:0:
64,192,100018,1,0,0:0:0:0:
320,192,100155,1,0,0:0:0:0:
448,192,100291,1,0,0:0:0:0:
192,192,100291,1,0,0:0:0:0:
64,192,100291,1,0,0:0:0:0:
320,192,100427,1,0,0:0:0:0:
448,192,100564,1,0,0:0:0:0:
192,192,100564,1,0,0:0:0:0:
64,192,100564,1,0,0:0:0:0:
320,192,100700,1,0,0:0:0:0:
448,192,100836,1,0,0:0:0:0:
64,192,100836,1,0,0:0:0:0:
192,192,100836,128,0,100973:0:0:0:0:
320,192,100973,128,0,101109:0:0:0:0:
448,192,101109,128,0,101245:0:0:0:0:
64,192,101245,128,0,101382:0:0:0:0:
192,192,101382,128,0,101518:0:0:0:0:
320,192,101518,128,0,101655:0:0:0:0:
448,192,101655,128,0,101791:0:0:0:0:
64,192,101791,128,0,101927:0:0:0:0:
192,192,101927,128,0,102064:0:0:0:0:
320,192,102064,128,0,102200:0:0:0:0:
448,192,102200,128,0,102336:0:0:0:0:
64,192,102336,128,0,102473:0:0:0:0:
192,192,102473,128,0,102609:0:0:0:0:
320,192,102609,128,0,102745:0:0:0:0:
192,192,102745,128,0,102950:0:0:0:0:
64,192,102745,128,0,103018:0:0:0:0:
320,192,102950,128,0,103018:0:0:0:0:
448,192,103018,1,0,0:0:0:0:
192,192,103155,1,0,0:0:0:0:
64,192,103291,1,0,0:0:0:0:
448,192,103291,1,0,0:0:0:0:
320,192,103427,1,0,0:0:0:0:
192,192,103564,1,0,0:0:0:0:
64,192,103564,1,0,0:0:0:0:
320,192,103700,1,0,0:0:0:0:
448,192,103836,1,0,0:0:0:0:
192,192,103836,1,0,0:0:0:0:
64,192,103973,1,0,0:0:0:0:
192,192,104109,1,0,0:0:0:0:
320,192,104109,1,0,0:0:0:0:
448,192,104245,1,0,0:0:0:0:
64,192,104382,1,0,0:0:0:0:
192,192,104450,1,0,0:0:0:0:
320,192,104518,1,0,0:0:0:0:
448,192,104586,1,0,0:0:0:0:
64,192,104655,1,0,0:0:0:0:
192,192,104655,1,0,0:0:0:0:
320,192,104791,1,0,0:0:0:0:
448,192,104927,1,0,0:0:0:0:
320,192,104995,1,0,0:0:0:0:
192,192,105064,1,0,0:0:0:0:
64,192,105132,1,0,0:0:0:0:
448,192,105200,1,0,0:0:0:0:
320,192,105200,1,0,0:0:0:0:
192,192,105336,1,0,0:0:0:0:
64,192,105405,1,0,0:0:0:0:
192,192,105473,1,0,0:0:0:0:
320,192,105541,1,0,0:0:0:0:
448,192,105609,1,0,0:0:0:0:
192,192,105609,1,0,0:0:0:0:
64,192,105745,1,0,0:0:0:0:
320,192,105745,1,0,0:0:0:0:
192,192,105882,1,0,0:0:0:0:
448,192,105882,1,0,0:0:0:0:
320,192,105950,1,0,0:0:0:0:
192,192,106018,1,0,0:0:0:0:
64,192,106086,1,0,0:0:0:0:
192,192,106155,1,0,0:0:0:0:
320,192,106223,1,0,0:0:0:0:
64,192,106291,1,0,0:0:0:0:
448,192,106291,1,0,0:0:0:0:
192,192,106291,1,0,0:0:0:0:
448,192,106564,1,0,0:0:0:0:
320,192,106564,1,0,0:0:0:0:
64,192,106564,1,0,0:0:0:0:
64,192,106836,1,0,0:0:0:0:
192,192,106836,1,0,0:0:0:0:
448,192,106836,1,0,0:0:0:0:
320,192,106973,1,0,0:0:0:0:
192,192,107041,1,0,0:0:0:0:
64,192,107109,1,0,0:0:0:0:
192,192,107177,1,0,0:0:0:0:
320,192,107245,1,0,0:0:0:0:
448,192,107314,1,0,0:0:0:0:
320,192,107382,1,0,0:0:0:0:
192,192,107382,1,0,0:0:0:0:
64,192,107382,1,0,0:0:0:0:
448,192,107518,1,0,0:0:0:0:
320,192,107655,1,0,0:0:0:0:
192,192,107655,1,0,0:0:0:0:
64,192,107791,1,0,0:0:0:0:
192,192,107927,1,0,0:0:0:0:
448,192,107927,1,0,0:0:0:0:
320,192,107927,1,0,0:0:0:0:
64,192,108064,1,0,0:0:0:0:
192,192,108200,1,0,0:0:0:0:
448,192,108200,1,0,0:0:0:0:
320,192,108336,1,0,0:0:0:0:
64,192,108473,1,0,0:0:0:0:
192,192,108473,1,0,0:0:0:0:
448,192,108473,1,0,0:0:0:0:
320,192,108609,1,0,0:0:0:0:
64,192,108745,1,0,0:0:0:0:
192,192,108745,1,0,0:0:0:0:
448,192,108745,1,0,0:0:0:0:
320,192,108882,1,0,0:0:0:0:
64,192,109018,1,0,0:0:0:0:
192,192,109018,1,0,0:0:0:0:
448,192,109018,1,0,0:0:0:0:
320,192,109155,1,0,0:0:0:0:
64,192,109291,1,0,0:0:0:0:
192,192,109291,1,0,0:0:0:0:
448,192,109291,1,0,0:0:0:0:
64,192,109564,1,0,0:0:0:0:
320,192,109564,1,0,0:0:0:0:
448,192,109564,1,0,0:0:0:0:
192,192,109700,1,0,0:0:0:0:
64,192,109836,1,0,0:0:0:0:
320,192,109836,1,0,0:0:0:0:
448,192,109973,1,0,0:0:0:0:
320,192,110109,1,0,0:0:0:0:
192,192,110109,1,0,0:0:0:0:
64,192,110245,1,0,0:0:0:0:
192,192,110382,1,0,0:0:0:0:
448,192,110382,1,0,0:0:0:0:
320,192,110518,1,0,0:0:0:0:
64,192,110655,1,0,0:0:0:0:
448,192,110655,1,0,0:0:0:0:
320,192,110655,1,0,0:0:0:0:
192,192,110791,1,0,0:0:0:0:
64,192,110927,1,0,0:0:0:0:
320,192,110927,1,0,0:0:0:0:
448,192,110927,1,0,0:0:0:0:
192,192,111064,1,0,0:0:0:0:
64,192,111200,1,0,0:0:0:0:
320,192,111200,1,0,0:0:0:0:
448,192,111200,1,0,0:0:0:0:
192,192,111336,1,0,0:0:0:0:
64,192,111473,1,0,0:0:0:0:
320,192,111473,1,0,0:0:0:0:
448,192,111473,1,0,0:0:0:0:
192,192,111541,1,0,0:0:0:0:
320,192,111609,1,0,0:0:0:0:
448,192,111677,1,0,0:0:0:0:
192,192,111745,1,0,0:0:0:0:
64,192,111745,1,0,0:0:0:0:
320,192,111814,1,0,0:0:0:0:
448,192,111882,1,0,0:0:0:0:
320,192,111950,1,0,0:0:0:0:
192,192,112018,1,0,0:0:0:0:
64,192,112086,1,0,0:0:0:0:
192,192,112155,1,0,0:0:0:0:
320,192,112223,1,0,0:0:0:0:
192,192,112291,1,0,0:0:0:0:
64,192,112291,1,0,0:0:0:0:
448,192,112291,128,0,112564:0:0:0:0:
320,192,112427,128,0,112564:0:0:0:0:
192,192,112564,1,0,0:0:0:0:
64,192,112564,1,0,0:0:0:0:
320,192,112700,1,0,0:0:0:0:
448,192,112700,1,0,0:0:0:0:
192,192,112836,1,0,0:0:0:0:
64,192,112836,1,0,0:0:0:0:
320,192,112973,1,0,0:0:0:0:
448,192,113109,1,0,0:0:0:0:
320,192,113245,1,0,0:0:0:0:
192,192,113382,1,0,0:0:0:0:
64,192,113382,1,0,0:0:0:0:
320,192,113518,1,0,0:0:0:0:
448,192,113518,1,0,0:0:0:0:
192,192,113655,1,0,0:0:0:0:
64,192,113655,1,0,0:0:0:0:
320,192,113791,1,0,0:0:0:0:
448,192,113791,1,0,0:0:0:0:
192,192,113927,1,0,0:0:0:0:
64,192,113927,1,0,0:0:0:0:
320,192,114064,1,0,0:0:0:0:
448,192,114200,1,0,0:0:0:0:
320,192,114336,1,0,0:0:0:0:
64,192,114336,1,0,0:0:0:0:
192,192,114473,1,0,0:0:0:0:
64,192,114609,1,0,0:0:0:0:
320,192,114745,1,0,0:0:0:0:
448,192,114745,1,0,0:0:0:0:
192,192,114882,1,0,0:0:0:0:
64,192,115018,1,0,0:0:0:0:
320,192,115018,1,0,0:0:0:0:
448,192,115018,1,0,0:0:0:0:
64,192,115291,1,0,0:0:0:0:
448,192,115291,1,0,0:0:0:0:
192,192,115291,1,0,0:0:0:0:
448,192,115564,1,0,0:0:0:0:
320,192,115564,1,0,0:0:0:0:
64,192,115564,1,0,0:0:0:0:
64,192,115836,1,0,0:0:0:0:
192,192,115836,1,0,0:0:0:0:
320,192,115836,1,0,0:0:0:0:
448,192,115836,1,0,0:0:0:0:
