osu file format v14

[General]
AudioFilename: Crack Traxxxx.mp3
AudioLeadIn: 0
PreviewTime: 63751
Countdown: 0
SampleSet: Soft
StackLeniency: 0.7
Mode: 3
LetterboxInBreaks: 0
SpecialStyle: 0
WidescreenStoryboard: 0

[Editor]
DistanceSpacing: 0.8
BeatDivisor: 4
GridSize: 4
TimelineZoom: 3.6

[Metadata]
Title:Crack Traxxxx
TitleUnicode:Crack Traxxxx
Artist:Lite Show Magic (t+pazolite vs C-Show)
ArtistUnicode:Lite Show Magic (t+pazolite vs C-Show)
Creator:-BANGKE-
Version:NOVICE Lv.8
Source:SOUND VOLTEX II -infinite infection-
Tags:SDVX 2 FLOOR sherrysina Konami Bemani jubeat 制作決定記念 オリジナル楽曲コンテスト Production Confirmation Commemorative Original Song Contest CAWOL ASHITA
BeatmapID:831610
BeatmapSetID:353037

[Difficulty]
HPDrainRate:7
CircleSize:4
OverallDifficulty:7
ApproachRate:5
SliderMultiplier:1.4
SliderTickRate:1

[Events]
//Background and Video events
0,0,"BG.png",0,0
//Break Periods
//Storyboard Layer 0 (Background)
//Storyboard Layer 1 (Fail)
//Storyboard Layer 2 (Pass)
//Storyboard Layer 3 (Foreground)
//Storyboard Layer 4 (Overlay)
//Storyboard Sound Samples

[TimingPoints]
2661,272.727272727273,4,2,1,40,1,0
63751,-100,4,2,1,40,0,1
81206,-100,4,2,1,40,0,0
89933,-100,4,2,1,40,0,1
107388,-100,4,2,1,40,0,0

[HitObjects]
448,192,615,128,0,2661:0:0:0:0:
64,192,2661,128,0,7024:0:0:0:0:
192,192,2661,1,0,0:0:0:0:
320,192,7024,1,0,0:0:0:0:
448,192,7024,1,4,0:0:0:0:
64,192,7433,1,4,0:0:0:0:
192,192,7433,1,0,0:0:0:0:
448,192,7842,128,0,8115:0:0:0:0:
320,192,8115,128,0,10297:0:0:0:0:
64,192,10297,128,0,10842:0:0:0:0:
192,192,10842,128,0,11115:0:0:0:0:
320,192,11115,1,4,0:0:0:0:
448,192,11115,1,0,0:0:0:0:
64,192,11388,1,0,0:0:0:40:normal-hitclap.wav
192,192,11388,1,0,0:0:0:0:
320,192,11797,1,0,0:0:0:40:normal-hitclap.wav
448,192,11797,1,0,0:0:0:0:
192,192,12206,1,0,0:0:0:40:normal-hitclap.wav
64,192,12206,1,0,0:0:0:0:
64,192,12479,1,4,0:0:0:0:
448,192,12479,1,0,0:0:0:0:
192,192,12751,1,0,0:0:0:0:
320,192,12751,1,4,0:0:0:0:
64,192,13024,1,0,0:0:0:0:
448,192,13024,1,4,0:0:0:0:
320,192,13297,1,0,0:0:0:0:
192,192,13297,1,4,0:0:0:0:
448,192,13570,1,0,0:0:0:40:normal-hitclap.wav
64,192,13570,1,0,0:0:0:0:
192,192,13979,1,0,0:0:0:40:normal-hitclap.wav
448,192,13979,1,0,0:0:0:0:
64,192,14388,1,0,0:0:0:40:normal-hitclap.wav
320,192,14388,1,0,0:0:0:0:
192,192,14661,1,4,0:0:0:0:
320,192,14661,1,0,0:0:0:0:
64,192,14933,1,0,0:0:0:0:
448,192,14933,1,4,0:0:0:0:
192,192,15206,1,0,0:0:0:0:
320,192,15206,1,4,0:0:0:0:
64,192,15479,1,0,0:0:0:0:
448,192,15479,1,4,0:0:0:0:
320,192,15751,128,0,16297:0:0:0:0:
64,192,16297,128,0,16570:0:0:0:40:LR_Clap DS.wav
448,192,16570,128,0,16842:0:0:0:0:
192,192,16842,128,0,17388:0:0:0:0:
448,192,17388,128,0,17661:0:0:0:40:LR_Clap DS.wav
320,192,17661,128,0,17933:0:0:0:0:
64,192,17933,1,0,0:0:0:0:
192,192,17933,1,0,0:0:0:40:normal-hitclap.wav
448,192,18342,1,0,0:0:0:0:
320,192,18342,1,0,0:0:0:40:normal-hitclap.wav
64,192,18751,1,0,0:0:0:0:
320,192,18751,1,0,0:0:0:40:normal-hitclap.wav
192,192,19024,1,2,0:0:0:0:
448,192,19024,1,0,0:0:0:40:normal-hitclap.wav
320,192,19297,1,8,0:0:0:0:
192,192,19570,1,2,0:0:0:0:
320,192,19842,1,0,0:0:0:0:
64,192,19842,1,4,0:0:0:0:
448,192,20115,1,0,0:0:0:0:
192,192,20115,1,0,0:0:0:0:
320,192,20388,1,0,0:0:0:0:
64,192,20661,1,0,0:0:0:0:
192,192,20933,1,0,0:0:0:0:
320,192,21206,1,0,0:0:0:0:
448,192,21479,1,0,0:0:0:0:
192,192,21751,1,0,0:0:0:0:
64,192,22024,128,0,22297:0:0:0:0:
448,192,22297,1,0,0:0:0:0:
320,192,22570,1,0,0:0:0:0:
64,192,22842,1,0,0:0:0:0:
448,192,23115,1,0,0:0:0:0:
320,192,23388,1,0,0:0:0:0:
64,192,23661,1,0,0:0:0:0:
192,192,23933,128,0,24206:0:0:0:40:normal-hitclap.wav
320,192,24206,1,0,0:0:0:0:
64,192,24206,1,4,0:0:0:0:
448,192,24479,1,0,0:0:0:0:
192,192,24479,1,0,0:0:0:0:
320,192,24751,1,0,0:0:0:0:
64,192,25024,1,0,0:0:0:0:
192,192,25297,1,0,0:0:0:0:
448,192,25570,1,0,0:0:0:0:
320,192,25842,1,0,0:0:0:0:
64,192,26115,1,0,0:0:0:0:
192,192,26388,1,0,0:0:0:0:
448,192,26661,128,0,26933:0:0:0:0:
320,192,26933,128,0,27206:0:0:0:0:
192,192,27206,128,0,27479:0:0:0:0:
64,192,27479,128,0,27751:0:0:0:0:
320,192,27751,1,4,0:0:0:0:
192,192,27751,1,0,0:0:0:0:
64,192,28024,1,0,0:0:0:0:
448,192,28024,1,4,0:0:0:0:
192,192,28297,128,0,28570:0:0:0:0:
448,192,28570,1,4,0:0:0:0:
320,192,28570,1,0,0:0:0:0:
64,192,28842,1,0,0:0:0:0:
192,192,28842,1,0,0:0:0:0:
448,192,29115,1,0,0:0:0:0:
192,192,29388,1,0,0:0:0:0:
64,192,29661,1,0,0:0:0:0:
320,192,29933,1,0,0:0:0:0:
192,192,30206,1,0,0:0:0:0:
448,192,30479,1,0,0:0:0:0:
192,192,30751,128,0,31024:0:0:0:0:
64,192,31024,1,0,0:0:0:0:
448,192,31297,1,0,0:0:0:0:
192,192,31570,1,0,0:0:0:0:
320,192,31842,1,0,0:0:0:0:
64,192,32115,1,0,0:0:0:0:
448,192,32388,1,0,0:0:0:0:
192,192,32661,1,0,0:0:0:0:
320,192,32933,128,0,33206:0:0:0:0:
448,192,33206,1,0,0:0:0:0:
64,192,33479,1,0,0:0:0:0:
320,192,33751,1,0,0:0:0:0:
192,192,34024,128,0,34297:0:0:0:0:
64,192,34297,1,0,0:0:0:0:
448,192,34570,1,0,0:0:0:0:
320,192,34842,1,0,0:0:0:0:
64,192,35115,128,0,35388:0:0:0:0:
448,192,35388,128,0,35933:0:0:0:0:
192,192,35933,128,0,36479:0:0:0:0:
64,192,36479,1,4,0:0:0:0:
320,192,36479,1,0,0:0:0:0:
192,192,36751,1,0,0:0:0:0:
448,192,36751,1,4,0:0:0:0:
320,192,37024,1,0,0:0:0:0:
64,192,37024,1,4,0:0:0:0:
192,192,37297,1,0,0:0:0:0:
448,192,37297,1,4,0:0:0:0:
320,192,37570,128,0,37842:0:0:0:0:
64,192,37842,1,0,0:0:0:0:
448,192,37842,1,4,0:0:0:0:
192,192,38115,1,0,0:0:0:0:
320,192,38115,1,4,0:0:0:0:
448,192,38661,128,0,39751:0:0:0:0:
192,192,39206,1,0,0:0:0:40:LR_Clap DS.wav
64,192,39751,128,0,40842:0:0:0:0:
320,192,40297,1,0,0:0:0:40:LR_Clap DS.wav
448,192,40842,128,0,41661:0:0:0:0:
192,192,41388,1,0,0:0:0:40:LR_Clap DS.wav
64,192,41661,1,4,0:0:0:0:
320,192,41661,1,0,0:0:0:0:
192,192,41933,128,0,42206:0:0:0:0:
320,192,42206,1,0,0:0:0:0:
448,192,42206,1,4,0:0:0:0:
192,192,42479,1,0,0:0:0:0:
64,192,42479,1,4,0:0:0:0:
448,192,43024,128,0,44115:0:0:0:0:
64,192,43433,1,0,0:0:0:0:
320,192,43570,1,0,0:0:0:40:LR_Clap DS.wav
192,192,43842,1,0,0:0:0:0:
64,192,44115,128,0,44661:0:0:0:0:
192,192,44661,128,0,45206:0:0:0:0:
320,192,45206,1,0,0:0:0:0:
448,192,45206,1,4,0:0:0:0:
192,192,45479,1,0,0:0:0:0:
64,192,45479,1,4,0:0:0:0:
320,192,45751,1,0,0:0:0:0:
448,192,45751,1,4,0:0:0:0:
192,192,46024,1,0,0:0:0:0:
448,192,46297,128,0,46570:0:0:0:0:
64,192,46570,1,4,0:0:0:0:
320,192,46570,1,0,0:0:0:0:
192,192,46842,1,0,0:0:0:0:
448,192,46842,1,4,0:0:0:0:
64,192,47388,128,0,48479:0:0:0:0:
320,192,47933,1,0,0:0:0:40:LR_Clap DS.wav
448,192,48479,128,0,49570:0:0:0:0:
192,192,49024,1,0,0:0:0:40:LR_Clap DS.wav
64,192,49570,128,0,50388:0:0:0:0:
448,192,50115,1,0,0:0:0:40:LR_Clap DS.wav
320,192,50388,1,0,0:0:0:0:
192,192,50388,1,4,0:0:0:0:
448,192,50661,128,0,50933:0:0:0:0:
64,192,50933,1,4,0:0:0:0:
192,192,50933,1,0,0:0:0:0:
320,192,51206,1,0,0:0:0:0:
448,192,51206,1,4,0:0:0:0:
192,192,51479,1,0,0:0:0:0:
64,192,51751,128,0,52024:0:0:0:0:
320,192,52024,1,0,0:0:0:0:
448,192,52024,1,4,0:0:0:0:
192,192,52297,1,0,0:0:0:40:LR_Clap DS.wav
64,192,52570,128,0,52842:0:0:0:0:
448,192,52842,1,0,0:0:0:0:
320,192,53251,1,0,0:0:0:0:
320,192,53524,1,0,0:0:0:0:
320,192,53797,1,0,0:0:0:0:
64,192,53933,1,0,0:0:0:40:normal-hitclap.wav
192,192,54070,1,0,0:0:0:0:
448,192,54206,1,0,0:0:0:0:
320,192,54342,1,0,0:0:0:40:normal-hitclap.wav
64,192,54479,1,0,0:0:0:0:
192,192,54615,1,0,0:0:0:0:
320,192,54751,1,0,0:0:0:40:normal-hitclap.wav
448,192,54888,1,0,0:0:0:0:
64,192,55024,1,4,0:0:0:0:
192,192,55024,1,0,0:0:0:0:
448,192,55297,1,0,0:0:0:40:tick.wav
320,192,55570,1,0,0:0:0:40:tick.wav
64,192,55842,1,0,0:0:0:40:tick.wav
192,192,55979,1,0,0:0:0:40:tick.wav
320,192,56115,1,0,0:0:0:40:tick.wav
448,192,56388,1,0,0:0:0:40:tick.wav
64,192,56661,1,0,0:0:0:40:tick.wav
448,192,56933,1,0,0:0:0:40:tick.wav
192,192,57206,1,0,0:0:0:40:tick.wav
320,192,57615,1,0,0:0:0:40:tick.wav
192,192,57888,1,0,0:0:0:40:tick.wav
448,192,58161,1,0,0:0:0:40:tick.wav
64,192,58297,1,0,0:0:0:40:tick.wav
64,192,59388,1,0,0:0:0:0:
448,192,59661,1,0,0:0:0:40:LR_Clap DS.wav
320,192,59933,1,0,0:0:0:0:
64,192,60206,1,0,0:0:0:40:LR_Clap DS.wav
192,192,60342,1,0,0:0:0:0:
448,192,60479,1,0,0:0:0:0:
192,192,60751,1,0,0:0:0:40:LR_Clap DS.wav
64,192,61024,1,0,0:0:0:0:
320,192,61297,1,0,0:0:0:40:LR_Clap DS.wav
448,192,61570,1,0,0:0:0:0:
64,192,61979,1,0,0:0:0:0:
192,192,62251,1,0,0:0:0:0:
448,192,62524,1,0,0:0:0:0:
320,192,62661,128,0,63479:0:0:0:0:
64,192,63479,1,4,0:0:0:0:
192,192,63479,1,0,0:0:0:0:
448,192,63751,1,0,0:0:0:0:
320,192,64024,1,0,0:0:0:0:
64,192,64297,1,0,0:0:0:0:
192,192,64570,1,0,0:0:0:0:
320,192,64842,1,0,0:0:0:0:
192,192,65115,1,0,0:0:0:0:
448,192,65388,1,0,0:0:0:0:
64,192,65661,1,0,0:0:0:0:
192,192,65933,1,0,0:0:0:0:
320,192,66206,1,0,0:0:0:0:
64,192,66479,1,0,0:0:0:0:
448,192,66615,1,0,0:0:0:0:
192,192,66751,1,0,0:0:0:0:
320,192,66888,1,0,0:0:0:0:
448,192,67024,1,0,0:0:0:0:
64,192,67297,1,0,0:0:0:0:
320,192,67570,1,0,0:0:0:0:
448,192,67570,1,4,0:0:0:0:
192,192,67842,1,0,0:0:0:0:
64,192,67842,1,4,0:0:0:0:
448,192,68115,1,0,0:0:0:0:
320,192,68115,1,0,0:0:0:0:
64,192,68388,1,0,0:0:0:0:
448,192,68661,1,0,0:0:0:0:
192,192,68933,1,0,0:0:0:0:
320,192,69206,1,0,0:0:0:0:
448,192,69479,1,0,0:0:0:0:
64,192,69751,1,0,0:0:0:0:
448,192,70024,1,0,0:0:0:0:
320,192,70161,1,0,0:0:0:0:
192,192,70297,128,0,70570:0:0:0:0:
448,192,70570,1,0,0:0:0:0:
320,192,70842,128,0,71115:0:0:0:0:
64,192,71115,1,0,0:0:0:0:
192,192,71388,1,0,0:0:0:0:
448,192,71388,1,4,0:0:0:0:
320,192,71661,1,0,0:0:0:0:
64,192,71661,1,4,0:0:0:0:
192,192,71933,1,0,0:0:0:0:
448,192,71933,1,4,0:0:0:0:
320,192,72206,1,0,0:0:0:0:
64,192,72206,1,4,0:0:0:0:
448,192,72479,1,0,0:0:0:0:
192,192,72479,1,0,0:0:0:0:
320,192,72751,1,0,0:0:0:0:
64,192,73024,1,0,0:0:0:0:
448,192,73297,1,0,0:0:0:0:
192,192,73570,1,0,0:0:0:0:
320,192,73842,1,0,0:0:0:0:
64,192,74115,1,0,0:0:0:0:
192,192,74388,1,0,0:0:0:0:
448,192,74661,1,0,0:0:0:0:
320,192,74933,1,0,0:0:0:0:
64,192,75206,1,0,0:0:0:0:
192,192,75342,1,0,0:0:0:0:
448,192,75479,1,0,0:0:0:0:
320,192,75615,1,0,0:0:0:0:
192,192,75751,1,0,0:0:0:0:
64,192,76024,1,0,0:0:0:0:
320,192,76297,128,0,76570:0:0:0:0:
192,192,76570,128,0,76842:0:0:0:0:
448,192,76842,1,0,0:0:0:0:
64,192,77251,1,0,0:0:0:0:
192,192,77661,1,0,0:0:0:0:
448,192,78070,1,0,0:0:0:0:
320,192,78342,1,0,0:0:0:0:
192,192,78479,128,0,79024:0:0:0:0:
448,192,79161,1,0,0:0:0:0:
320,192,79297,1,0,0:0:0:0:
64,192,79433,1,0,0:0:0:0:
192,192,79570,1,0,0:0:0:0:
448,192,79706,1,0,0:0:0:0:
320,192,79842,1,0,0:0:0:0:
192,192,79979,1,0,0:0:0:0:
64,192,80115,128,0,80933:0:0:0:0:
320,192,80933,1,0,0:0:0:0:
448,192,80933,1,4,0:0:0:0:
192,192,81206,1,0,0:0:0:0:
64,192,81206,1,4,0:0:0:0:
448,192,81479,1,0,0:0:0:40:tick.wav
320,192,81751,1,0,0:0:0:40:tick.wav
64,192,82024,1,0,0:0:0:40:tick.wav
192,192,82161,1,0,0:0:0:40:tick.wav
320,192,82297,1,0,0:0:0:40:tick.wav
192,192,82570,1,0,0:0:0:40:tick.wav
64,192,82842,1,0,0:0:0:40:tick.wav
448,192,83115,1,0,0:0:0:40:tick.wav
192,192,83388,1,0,0:0:0:40:tick.wav
448,192,83797,1,0,0:0:0:40:tick.wav
320,192,84070,1,0,0:0:0:40:tick.wav
192,192,84342,1,0,0:0:0:40:tick.wav
448,192,84479,1,0,0:0:0:40:tick.wav
64,192,85570,1,0,0:0:0:40:tick.wav
320,192,85842,1,0,0:0:0:40:tick.wav
448,192,86115,1,0,0:0:0:40:tick.wav
192,192,86388,1,0,0:0:0:40:tick.wav
320,192,86524,1,0,0:0:0:40:tick.wav
448,192,86661,1,0,0:0:0:0:
64,192,86661,1,4,0:0:0:0:
320,192,86933,128,0,87751:0:0:0:0:
64,192,87751,1,0,0:0:0:0:
192,192,87888,1,0,0:0:0:0:
320,192,88024,1,0,0:0:0:0:
448,192,88024,1,4,0:0:0:0:
448,192,88297,1,0,0:0:0:0:
320,192,88433,1,0,0:0:0:0:
192,192,88570,1,4,0:0:0:0:
64,192,88570,1,0,0:0:0:0:
320,192,88842,1,0,0:0:0:0:
192,192,88842,1,4,0:0:0:0:
448,192,89115,128,0,89661:0:0:0:0:
64,192,89661,1,4,0:0:0:0:
192,192,89661,1,0,0:0:0:0:
448,192,89933,1,0,0:0:0:0:
320,192,89933,1,0,0:0:0:0:
64,192,90206,1,0,0:0:0:0:
192,192,90479,1,0,0:0:0:0:
448,192,90751,1,0,0:0:0:0:
320,192,91024,1,0,0:0:0:0:
192,192,91297,1,0,0:0:0:0:
64,192,91570,1,4,0:0:0:0:
320,192,91570,1,0,0:0:0:0:
192,192,91842,1,0,0:0:0:0:
448,192,91842,1,4,0:0:0:0:
64,192,92115,128,0,92661:0:0:0:0:
192,192,92661,128,0,93206:0:0:0:0:
448,192,93206,128,0,94024:0:0:0:0:
64,192,94024,1,4,0:0:0:0:
320,192,94024,1,0,0:0:0:0:
448,192,94297,1,0,0:0:0:0:
192,192,94297,1,0,0:0:0:0:
320,192,94570,1,0,0:0:0:0:
192,192,94842,1,0,0:0:0:0:
64,192,95115,1,0,0:0:0:0:
448,192,95388,1,0,0:0:0:0:
192,192,95661,1,0,0:0:0:0:
448,192,95933,1,4,0:0:0:0:
320,192,95933,1,0,0:0:0:0:
192,192,96206,1,0,0:0:0:0:
64,192,96206,1,4,0:0:0:0:
448,192,96479,1,0,0:0:0:0:
320,192,96615,1,0,0:0:0:0:
192,192,96751,1,0,0:0:0:0:
64,192,97024,1,0,0:0:0:0:
448,192,97161,128,0,97570:0:0:0:0:
320,192,97570,1,4,0:0:0:0:
192,192,97570,1,0,0:0:0:0:
64,192,97842,1,0,0:0:0:0:
448,192,97842,1,4,0:0:0:0:
192,192,98115,1,0,0:0:0:0:
320,192,98115,1,4,0:0:0:0:
64,192,98388,1,4,0:0:0:0:
448,192,98388,1,0,0:0:0:0:
320,192,98661,1,0,0:0:0:0:
192,192,98661,1,0,0:0:0:0:
64,192,98933,1,0,0:0:0:0:
192,192,99206,1,0,0:0:0:0:
320,192,99479,1,0,0:0:0:0:
448,192,99751,1,0,0:0:0:0:
192,192,100024,1,0,0:0:0:0:
64,192,100297,1,4,0:0:0:0:
448,192,100297,1,0,0:0:0:0:
320,192,100570,1,4,0:0:0:0:
192,192,100570,1,0,0:0:0:0:
64,192,100842,128,0,101933:0:0:0:0:
192,192,101933,128,0,102751:0:0:0:0:
448,192,102751,128,0,103024:0:0:0:0:
64,192,103024,1,0,0:0:0:0:
320,192,103024,1,0,0:0:0:0:
192,192,103297,1,0,0:0:0:0:
320,192,103570,1,0,0:0:0:0:
448,192,103842,1,0,0:0:0:0:
192,192,104115,1,0,0:0:0:0:
320,192,104388,128,0,104661:0:0:0:0:
64,192,104661,1,0,0:0:0:0:
192,192,104933,128,0,105206:0:0:0:0:
448,192,105206,1,0,0:0:0:0:
64,192,105479,1,4,0:0:0:0:
320,192,105479,1,0,0:0:0:0:
192,192,105751,1,0,0:0:0:0:
448,192,105751,1,4,0:0:0:0:
320,192,106297,1,0,0:0:0:0:
448,192,106297,1,4,0:0:0:0:
192,192,106570,1,0,0:0:0:0:
64,192,106570,1,4,0:0:0:0:
320,192,106842,1,0,0:0:0:0:
448,192,106842,1,4,0:0:0:0:
192,192,107115,128,0,107388:0:0:0:0:
448,192,107388,1,0,0:0:0:40:normal-hitclap.wav
320,192,107797,1,0,0:0:0:40:normal-hitclap.wav
192,192,108206,1,0,0:0:0:40:normal-hitclap.wav
448,192,108479,1,0,0:0:0:0:
64,192,108479,1,4,0:0:0:0:
192,192,108751,1,0,0:0:0:0:
320,192,108751,1,4,0:0:0:0:
64,192,109024,1,4,0:0:0:0:
448,192,109024,1,0,0:0:0:0:
192,192,109297,1,4,0:0:0:0:
320,192,109297,1,0,0:0:0:0:
64,192,109570,1,0,0:0:0:40:normal-hitclap.wav
448,192,109979,1,0,0:0:0:40:normal-hitclap.wav
192,192,110388,1,0,0:0:0:40:normal-hitclap.wav
448,192,110661,1,0,0:0:0:0:
320,192,110661,1,4,0:0:0:0:
192,192,110933,1,4,0:0:0:0:
64,192,110933,1,0,0:0:0:0:
320,192,111206,1,0,0:0:0:0:
448,192,111206,1,4,0:0:0:0:
64,192,111479,1,4,0:0:0:0:
192,192,111479,1,0,0:0:0:0:
448,192,111751,128,0,112297:0:0:0:0:
64,192,112297,128,0,112842:0:0:0:40:LR_Clap DS.wav
320,192,112842,128,0,113388:0:0:0:0:
448,192,113388,128,0,113933:0:0:0:40:LR_Clap DS.wav
64,192,113933,1,0,0:0:0:40:normal-hitclap.wav
192,192,114070,1,0,0:0:0:0:
320,192,114206,1,0,0:0:0:0:
448,192,114342,1,0,0:0:0:40:normal-hitclap.wav
64,192,114479,1,0,0:0:0:0:
192,192,114615,1,0,0:0:0:0:
448,192,114751,1,0,0:0:0:40:normal-hitclap.wav
320,192,114888,1,0,0:0:0:0:
64,192,115024,1,2,0:0:0:0:
320,192,115297,1,8,0:0:0:0:
192,192,115570,1,2,0:0:0:0:
64,192,115842,1,0,0:0:0:0:
448,192,115842,1,4,0:0:0:0:
