osu file format v14

[General]
AudioFilename: xtra.mp3
AudioLeadIn: 0
PreviewTime: -1
Countdown: 0
SampleSet: Normal
StackLeniency: 0.7
Mode: 2
LetterboxInBreaks: 0
WidescreenStoryboard: 1

[Editor]
Bookmarks: 11109,38109,63745,81200
DistanceSpacing: 1
BeatDivisor: 4
GridSize: 8
TimelineZoom: 3.899999

[Metadata]
Title:Crack Traxxxx
TitleUnicode:Crack Traxxxx
Artist:Lite Show Magic (t+pazolite vs C-Show)
ArtistUnicode:Lite Show Magic (t+pazolite vs C-Show)
Creator:[224]Reol
Version:224STEP
Source:SOUND VOLTEX II -infinite infection-
Tags:224Step 224dj
BeatmapID:723046
BeatmapSetID:325516

[Difficulty]
HPDrainRate:6.9
CircleSize:3.9
OverallDifficulty:6.9
ApproachRate:9.4
SliderMultiplier:2.2
SliderTickRate:2

[Events]
//Background and Video events
0,0,"bg.jpg",0,0
//Break Periods
//Storyboard Layer 0 (Background)
//Storyboard Layer 1 (Fail)
//Storyboard Layer 2 (Pass)
//Storyboard Layer 3 (Foreground)
//Storyboard Sound Samples

[TimingPoints]
2655,272.727272727273,4,3,0,70,1,0
12473,-100,4,1,0,70,0,0
12677,-100,4,1,0,5,0,0
12745,-100,4,1,0,70,0,0
12950,-100,4,1,0,5,0,0
13018,-100,4,1,0,70,0,0
13223,-100,4,1,0,5,0,0
13291,-100,4,1,0,70,0,0
13495,-100,4,1,0,5,0,0
13564,-100,4,3,0,70,0,0
14655,-100,4,1,0,70,0,0
14723,-100,4,1,0,5,0,0
14927,-100,4,1,0,70,0,0
14995,-100,4,1,0,5,0,0
15200,-100,4,1,0,70,0,0
15268,-100,4,1,0,5,0,0
15473,-100,4,1,0,70,0,0
15541,-100,4,1,0,5,0,0
15745,-100,4,1,0,70,0,0
15814,-100,4,1,0,5,0,0
15882,-100,4,1,0,60,0,0
15950,-100,4,1,0,5,0,0
16018,-100,4,1,0,60,0,0
16086,-100,4,1,0,5,0,0
16155,-100,4,1,0,60,0,0
16223,-100,4,1,0,5,0,0
16291,-100,4,1,0,60,0,0
17927,-100,4,3,0,60,0,0
19836,-100,4,1,0,70,0,0
26655,-100,4,2,0,60,0,0
27473,-100,4,3,0,60,0,0
27745,-100,4,1,0,60,0,0
30745,-100,4,2,0,60,0,0
31018,-100,4,1,0,60,0,0
32927,-100,4,2,0,60,0,0
33200,-100,4,1,0,60,0,0
34018,-100,4,2,0,60,0,0
34291,-100,4,1,0,60,0,0
35109,-100,4,1,0,30,0,0
35382,-100,4,3,0,50,0,0
36473,-100,4,1,0,80,0,0
36541,-100,4,1,0,5,0,0
36745,-100,4,1,0,80,0,0
36814,-100,4,1,0,5,0,0
37018,-100,4,1,0,80,0,0
37086,-100,4,1,0,5,0,0
37291,-100,4,1,0,80,0,0
37359,-100,4,1,0,5,0,0
37564,-100,4,3,0,50,0,0
38109,-100,4,1,0,70,0,0
38655,-100,4,1,0,70,0,0
38689,-100,4,1,0,5,0,0
38791,-100,4,1,0,70,0,0
38825,-100,4,1,0,5,0,0
38927,-100,4,1,0,70,0,0
38961,-100,4,1,0,5,0,0
39064,-100,4,1,0,70,0,0
39098,-100,4,1,0,5,0,0
39200,-100,4,1,0,70,0,0
39745,-100,4,1,0,30,0,0
40018,-100,4,1,0,50,0,0
40052,-100,4,1,0,5,0,0
40155,-100,4,1,0,50,0,0
40189,-100,4,1,0,5,0,0
40291,-100,4,1,0,50,0,0
41927,-100,4,3,0,50,0,0
42336,-100,4,1,0,70,0,0
43018,-100,4,1,0,70,0,0
43052,-100,4,1,0,5,0,0
43155,-100,4,1,0,70,0,0
43189,-100,4,1,0,5,0,0
43291,-100,4,1,0,70,0,0
43325,-100,4,1,0,5,0,0
43427,-100,4,1,0,70,0,0
43461,-100,4,1,0,5,0,0
43564,-100,4,1,0,70,0,0
44109,-100,4,1,0,5,0,0
45200,-100,4,1,0,80,0,0
45268,-100,4,1,0,5,0,0
45473,-100,4,1,0,80,0,0
45541,-100,4,1,0,5,0,0
45745,-100,4,1,0,80,0,0
45814,-100,4,1,0,5,0,0
46018,-100,4,1,0,80,0,0
46086,-100,4,1,0,5,0,0
46291,-100,4,3,0,80,0,0
46564,-100,4,1,0,70,0,0
46836,-100,4,1,0,70,0,0
47382,-100,4,1,0,70,0,0
47416,-100,4,1,0,5,0,0
47518,-100,4,1,0,70,0,0
47552,-100,4,1,0,5,0,0
47655,-100,4,1,0,70,0,0
47689,-100,4,1,0,5,0,0
47791,-100,4,1,0,70,0,0
47825,-100,4,1,0,5,0,0
47927,-100,4,1,0,70,0,0
48473,-100,4,1,0,30,0,0
48745,-100,4,1,0,50,0,0
50655,-100,4,3,0,50,0,0
51064,-100,4,1,0,50,0,0
51745,-100,4,3,0,50,0,0
52155,-100,4,1,0,50,0,0
52836,-100,4,3,0,50,0,0
53927,-100,4,2,0,50,0,0
58291,-100,4,2,0,40,0,0
58564,-100,4,2,0,30,0,0
58836,-100,4,2,0,20,0,0
59109,-100,4,2,0,5,0,0
59382,-100,4,1,0,50,0,0
62655,-66.6666666666667,4,1,0,50,0,0
62745,-66.6666666666667,4,3,0,50,0,0
62882,-66.6666666666667,4,1,0,50,0,0
62973,-66.6666666666667,4,3,0,50,0,0
63200,-66.6666666666667,4,1,0,50,0,0
63291,-66.6666666666667,4,3,0,50,0,0
63473,-66.6666666666667,4,1,0,50,0,0
63564,-66.6666666666667,4,3,0,50,0,0
63745,-100,4,1,0,70,0,0
64836,-100,4,2,0,70,0,0
65245,-100,4,3,0,70,0,0
65791,-100,4,1,0,70,0,0
67018,-100,4,2,0,70,0,0
67564,-100,4,1,0,70,0,0
69473,-100,4,2,0,70,0,0
70291,-100,4,1,0,70,0,0
71450,-100,4,1,0,5,0,0
71655,-100,4,1,0,70,0,0
71723,-100,4,1,0,5,0,0
71927,-100,4,1,0,70,0,0
71995,-100,4,1,0,5,0,0
72200,-100,4,1,0,70,0,0
72234,-100,4,1,0,50,0,0
72473,-100,4,1,0,70,0,0
72609,-100,4,1,0,70,0,0
73836,-100,4,2,0,70,0,0
74655,-100,4,1,0,70,0,0
75745,-100,4,2,0,100,0,0
76836,-100,4,1,0,70,0,0
76905,-100,4,1,0,5,0,0
77245,-100,4,1,0,70,0,0
77314,-100,4,1,0,5,0,0
77655,-100,4,1,0,70,0,0
77723,-100,4,1,0,5,0,0
78064,-100,4,1,0,70,0,0
78132,-100,4,1,0,5,0,0
78336,-100,4,1,0,70,0,0
78405,-100,4,1,0,5,0,0
78473,-100,4,1,0,70,0,0
78541,-100,4,1,0,5,0,0
81200,-100,4,2,0,40,0,0
84473,-100,4,1,0,50,0,0
84745,-100,4,1,0,40,0,0
85018,-100,4,1,0,30,0,0
85291,-100,4,1,0,20,0,0
85564,-100,4,2,0,40,0,0
86655,-100,4,1,0,70,0,0
89109,-100,4,1,0,20,0,0
89177,-100,4,1,0,25,0,0
89245,-100,4,1,0,30,0,0
89314,-100,4,1,0,35,0,0
89382,-100,4,1,0,40,0,0
89450,-100,4,1,0,45,0,0
89518,-100,4,1,0,50,0,0
89586,-100,4,1,0,55,0,0
89655,-100,4,1,0,70,0,0
92109,-100,4,2,0,70,0,0
93200,-100,4,1,0,70,0,0
94018,-100,4,1,0,70,0,0
94291,-100,4,1,0,70,0,0
96473,-100,4,3,0,70,0,0
97018,-200,4,1,0,70,0,0
97564,-66.6666666666667,4,1,0,70,0,0
97632,-66.6666666666667,4,1,0,5,0,0
97836,-66.6666666666667,4,1,0,70,0,0
97905,-66.6666666666667,4,1,0,5,0,0
98109,-66.6666666666667,4,1,0,70,0,0
98177,-66.6666666666667,4,1,0,5,0,0
98382,-66.6666666666667,4,1,0,70,0,0
98450,-66.6666666666667,4,1,0,5,0,0
98655,-66.6666666666667,4,1,0,70,0,0
98791,-100,4,1,0,70,0,0
100905,-100,4,2,0,20,0,0
101109,-100,4,2,0,30,0,0
101382,-100,4,1,0,50,0,0
101927,-100,4,1,0,60,0,0
102200,-100,4,1,0,70,0,0
102473,-100,4,1,0,80,0,0
102745,-100,4,1,0,90,0,0
103018,-100,4,1,0,70,0,0
104927,-100,4,1,0,50,0,0
105200,-100,4,2,0,70,0,0
105405,-100,4,2,0,5,0,0
105473,-100,4,1,0,70,0,0
105677,-100,4,1,0,5,0,0
105745,-100,4,1,0,70,0,0
105950,-100,4,1,0,5,0,0
106018,-100,4,1,0,70,0,0
108473,-100,4,1,0,70,0,0
108541,-100,4,1,0,5,0,0
108745,-100,4,1,0,70,0,0
108814,-100,4,1,0,5,0,0
109018,-100,4,1,0,70,0,0
109086,-100,4,1,0,5,0,0
109291,-100,4,1,0,70,0,0
109359,-100,4,1,0,5,0,0
109564,-100,4,1,0,70,0,0
110655,-100,4,1,0,70,0,0
110723,-100,4,1,0,5,0,0
110927,-100,4,1,0,70,0,0
110995,-100,4,1,0,5,0,0
111200,-100,4,1,0,70,0,0
111268,-100,4,1,0,5,0,0
111473,-100,4,1,0,70,0,0
111541,-100,4,1,0,5,0,0
111745,-100,4,1,0,10,0,0
111814,-100,4,1,0,20,0,0
111882,-100,4,1,0,30,0,0
111950,-100,4,1,0,40,0,0
112018,-100,4,1,0,50,0,0
112086,-100,4,1,0,60,0,0
112155,-100,4,1,0,70,0,0
112223,-100,4,1,0,80,0,0
112291,-100,4,1,0,90,0,0
112427,-100,4,1,0,70,0,0
112836,-100,4,1,0,10,0,0
113382,-50,4,1,0,80,0,0
113927,-50,4,3,0,50,0,0
115836,-50,4,1,0,50,0,0

[Colours]
Combo1 : 255,192,0
Combo2 : 255,128,64
Combo3 : 128,64,64
Combo4 : 242,24,57

[HitObjects]
216,188,11109,5,4,0:0:0:0:
136,136,11382,2,0,P|72:96|56:64,1,110,8|0,0:0|0:0,0:0:0:0:
376,136,11655,2,0,P|440:96|456:64,1,110,8|0,0:0|0:0,0:0:0:0:
200,240,11927,2,0,L|336:240,2,110,8|0|8,0:0|0:0|0:0,0:0:0:0:
56,240,12336,1,0,0:0:0:0:
112,192,12473,6,0,B|24:104|24:104|72:112,1,165,2|0,0:0|0:0,0:0:0:0:
312,192,12745,2,0,B|400:104|400:104|352:112,1,165,2|0,0:0|0:0,0:0:0:0:
200,192,13018,2,0,B|112:104|112:104|160:112,1,165,2|0,0:0|0:0,0:0:0:0:
400,192,13291,2,0,B|488:104|488:104|440:112,1,165,2|0,0:0|0:0,0:0:0:0:
160,104,13564,6,0,P|88:80|40:88,2,110,8|0|8,0:0|0:0|0:0,0:0:0:0:
456,88,13973,2,0,P|401:86|351:108,1,110,0|8,0:0|0:0,0:0:0:0:
504,192,14245,1,0,0:0:0:0:
264,208,14382,1,8,0:0:0:0:
368,264,14518,1,0,0:0:0:0:
64,144,14655,6,0,B|0:112|0:112|80:40,1,165,2|0,0:0|0:0,0:0:0:0:
352,144,14927,2,0,B|416:112|416:112|336:40,1,165,2|0,0:0|0:0,0:0:0:0:
160,144,15200,2,0,B|96:112|96:112|176:40,1,165,2|0,0:0|0:0,0:0:0:0:
464,144,15473,2,0,B|528:112|528:112|448:40,1,165,2|0,0:0|0:0,0:0:0:0:
403,52,15745,1,8,0:0:0:0:
353,74,15814,1,0,0:0:0:0:
314,112,15882,1,8,0:0:0:0:
290,161,15950,1,0,0:0:0:0:
284,215,16018,1,8,0:0:0:0:
298,268,16086,1,0,0:0:0:0:
329,313,16155,1,8,0:0:0:0:
373,345,16223,1,0,0:0:0:0:
426,359,16291,1,12,0:0:0:0:
232,312,16427,6,0,L|368:272,1,110
64,264,16700,2,0,L|168:200,1,110,0|8,0:0|0:0,0:0:0:0:
200,176,16905,1,8,0:0:0:0:
400,184,16973,2,8,L|472:160,1,55
288,128,17109,2,8,L|216:112,1,55
458,97,17245,2,8,L|522:81,1,55
168,272,17382,6,0,B|88:288|56:272|16:256|8:224|24:184|64:160|128:136|184:144|48:0,1,440,0|8,0:0|0:0,0:0:0:0:
352,56,18064,1,8,0:0:0:0:
240,56,18200,1,8,0:0:0:0:
136,56,18336,1,8,0:0:0:0:
32,56,18473,1,8,0:0:0:0:
392,136,18609,1,8,0:0:0:0:
336,136,18745,1,8,0:0:0:0:
280,136,18882,1,8,0:0:0:0:
224,136,19018,5,4,0:0:0:0:
448,216,19291,1,4,0:0:0:0:
200,248,19564,1,4,0:0:0:0:
256,192,19836,5,14,0:0:0:0:
112,176,20109,1,2,0:0:0:0:
376,112,20245,2,0,L|432:96,1,55
248,88,20382,1,2,0:0:0:0:
120,64,20518,2,0,L|56:40,1,55
400,192,20655,6,0,L|536:248,1,110,2|0,0:0|0:0,0:0:0:0:
248,200,20927,1,2,0:0:0:0:
16,160,21064,1,0,0:0:0:0:
112,112,21200,1,2,0:0:0:0:
208,56,21336,2,0,P|136:32|88:56,1,110
328,152,21609,2,0,P|256:128|208:152,2,110
80,280,22018,6,0,L|24:64,1,220,2|2,0:0|0:0,0:0:0:0:
72,64,22359,1,0,0:0:0:0:
160,64,22427,1,0,0:0:0:0:
72,136,22564,1,2,0:0:0:0:
120,136,22632,1,0,0:0:0:0:
200,136,22700,1,0,0:0:0:0:
104,184,22836,2,0,L|224:184,1,110,2|0,0:0|0:0,0:0:0:0:
136,184,23109,1,2,0:0:0:0:
344,136,23245,2,0,L|216:136,1,110,0|2,0:0|0:0,0:0:0:0:
312,136,23518,1,0,0:0:0:0:
80,152,23655,2,0,L|32:48,1,110
320,192,23927,6,0,L|440:192,1,110,8|0,0:0|0:0,0:0:0:0:
144,120,24200,1,12,0:0:0:0:
304,296,24473,6,0,L|392:176,1,110,2|0,0:0|0:0,0:0:0:0:
368,160,24677,1,0,0:0:0:0:
224,184,24745,2,0,L|320:80,1,110,2|0,0:0|0:0,0:0:0:0:
296,64,24950,1,0,0:0:0:0:
128,232,25018,2,0,L|48:136,1,110,2|0,0:0|0:0,0:0:0:0:
360,128,25291,5,2,0:0:0:0:
256,128,25427,1,0,0:0:0:0:
152,128,25564,1,2,0:0:0:0:
352,192,25700,1,0,0:0:0:0:
152,248,25836,1,2,0:0:0:0:
256,248,25972,1,0,0:0:0:0:
360,248,26109,1,2,0:0:0:0:
160,192,26245,1,0,0:0:0:0:
392,224,26382,6,0,L|448:-8,1,220,2|2,0:0|0:0,0:0:0:0:
408,48,26723,1,2,0:0:0:0:
240,56,26791,2,2,L|240:120,1,55
384,144,26927,1,2,0:0:0:0:
345,245,27064,1,2,0:0:0:0:
256,306,27200,1,8,0:0:0:0:
147,307,27336,1,8,0:0:0:0:
368,288,27473,1,0,0:0:0:0:
419,273,27541,1,0,0:0:0:0:
445,226,27609,1,0,0:0:0:0:
431,175,27677,1,0,0:0:0:0:
48,200,27745,6,0,L|32:88,1,110,4|0,0:0|0:0,0:0:0:0:
256,200,28018,2,0,L|256:80,1,110,4|0,0:0|0:0,0:0:0:0:
456,208,28291,2,0,B|496:144|416:112|416:112|376:64|416:8,2,220,0|0|2,0:0|0:0|0:0,0:0:0:0:
504,264,28905,6,0,L|440:264,1,55
320,224,29109,2,0,L|264:224,2,55,2|0|0,0:0|0:0|0:0,0:0:0:0:
424,160,29382,2,0,L|368:48,1,110,2|0,0:0|0:0,0:0:0:0:
224,72,29655,2,0,L|88:80,2,110,2|0|2,0:0|0:0|0:0,0:0:0:0:
464,192,30064,2,0,P|488:128|472:72,1,110
328,112,30336,2,0,P|280:184|288:232,1,110
416,240,30609,1,0,0:0:0:0:
200,288,30745,6,0,L|216:224,1,55,2|0,0:0|0:0,0:0:0:0:
288,216,30882,2,0,L|272:152,1,55,2|0,0:0|0:0,0:0:0:0:
112,176,31018,2,0,L|16:112,1,110,2|0,0:0|0:0,0:0:0:0:
160,104,31223,1,0,0:0:0:0:
296,96,31291,2,0,L|408:176,1,110,2|0,0:0|0:0,0:0:0:0:
256,192,31495,1,0,0:0:0:0:
120,224,31564,1,2,0:0:0:0:
40,184,31700,1,0,0:0:0:0:
264,168,31836,1,2,0:0:0:0:
144,144,31973,1,0,0:0:0:0:
408,128,32109,2,0,L|464:16,1,110,6|0,0:0|0:0,0:0:0:0:
96,104,32382,1,0,0:0:0:0:
184,104,32518,2,0,L|128:-8,2,110
464,168,32927,6,8,L|400:152,1,55
272,112,33064,2,8,L|208:88,1,55
56,104,33200,2,0,P|40:168|72:224,1,110,2|0,0:0|0:0,0:0:0:0:
456,104,33473,2,0,P|472:168|440:224,1,110,2|0,0:0|0:0,0:0:0:0:
304,184,33745,2,0,P|288:248|320:304,1,110,2|0,0:0|0:0,0:0:0:0:
48,168,34018,6,2,L|112:152,1,55
240,112,34155,2,2,L|304:88,1,55
456,104,34291,2,0,P|472:168|440:224,1,110,2|0,0:0|0:0,0:0:0:0:
176,88,34564,2,0,P|112:128|120:176,2,110,2|0|2,0:0|0:0|0:0,0:0:0:0:
400,104,34973,1,0,0:0:0:0:
480,56,35109,6,0,L|456:40,8,27.5
272,232,35518,1,0,0:0:0:0:
182,177,35655,1,0,0:0:0:0:
185,72,35791,1,0,0:0:0:0:
278,23,35927,1,8,0:0:0:0:
40,240,36064,2,8,L|144:312,2,110
200,224,36473,5,2,0:0:0:0:
456,160,36541,2,0,L|296:64,1,165,0|2,0:0|0:0,0:0:0:0:
80,96,36814,2,0,L|264:8,1,165,0|2,0:0|0:0,0:0:0:0:
400,192,37086,2,0,L|224:96,1,165,0|2,0:0|0:0,0:0:0:0:
40,128,37359,2,0,L|216:40,1,165,0|8,0:0|0:0,0:0:0:0:
328,144,37632,1,8,0:0:0:0:
381,143,37700,1,8,0:0:0:0:
423,109,37768,1,8,0:0:0:0:
433,56,37836,1,12,0:0:0:0:
56,176,38109,5,4,0:0:0:0:
320,224,38245,2,0,L|200:216,2,110
376,168,38655,2,0,L|352:136,1,27.5,2|0,0:0|0:0,0:0:0:0:
200,144,38791,2,0,L|176:112,1,27.5,2|0,0:0|0:0,0:0:0:0:
264,56,38927,2,0,L|240:24,1,27.5,2|0,0:0|0:0,0:0:0:0:
80,56,39064,2,0,L|56:24,1,27.5,2|0,0:0|0:0,0:0:0:0:
304,288,39200,1,8,0:0:0:0:
398,239,39336,1,8,0:0:0:0:
418,134,39473,1,8,0:0:0:0:
348,54,39609,1,8,0:0:0:0:
144,216,39745,6,0,L|112:192,7,27.5
240,176,40018,2,0,L|264:136,1,27.5,10|0,0:0|0:0,0:0:0:0:
424,120,40155,2,0,L|456:88,1,27.5,10|0,0:0|0:0,0:0:0:0:
152,184,40291,2,0,P|56:152|96:56,1,220,6|0,0:0|0:0,0:0:0:0:
408,192,40700,2,0,L|512:144,1,110
280,192,40973,2,0,L|384:144,2,110
456,296,41382,1,4,0:0:0:0:
48,288,41655,1,4,0:0:0:0:
448,216,41927,5,8,0:0:0:0:
467,166,41995,1,8,0:0:0:0:
438,122,42064,1,8,0:0:0:0:
385,119,42132,1,8,0:0:0:0:
200,120,42200,1,12,0:0:0:0:
112,112,42336,2,0,L|192:32,1,110,4|0,0:0|0:0,0:0:0:0:
400,112,42609,2,0,L|320:32,1,110
96,272,42882,5,0,0:0:0:0:
184,248,43018,2,0,L|208:224,1,27.5,2|0,0:0|0:0,0:0:0:0:
96,200,43155,2,0,L|72:176,1,27.5,2|0,0:0|0:0,0:0:0:0:
352,192,43291,2,0,L|376:168,1,27.5,2|0,0:0|0:0,0:0:0:0:
264,144,43427,2,0,L|240:120,1,27.5,2|0,0:0|0:0,0:0:0:0:
56,56,43564,1,8,0:0:0:0:
6,151,43700,1,8,0:0:0:0:
34,254,43836,1,8,0:0:0:0:
126,310,43973,1,8,0:0:0:0:
352,304,44109,6,0,B|448:232|440:144|376:120|352:112|352:112|112:56|32:104|32:104|184:200|184:200|112:224|96:288,1,880,0|2,0:0|0:0,0:0:0:0:
280,208,45268,2,0,L|448:208,1,165,0|2,0:0|0:0,0:0:0:0:
208,128,45541,2,0,L|32:128,1,165,0|2,0:0|0:0,0:0:0:0:
280,208,45814,2,0,L|456:208,1,165,0|2,0:0|0:0,0:0:0:0:
208,128,46086,2,0,L|40:128,1,165,0|8,0:0|0:0,0:0:0:0:
216,256,46359,1,8,0:0:0:0:
268,260,46427,1,8,0:0:0:0:
296,217,46495,1,8,0:0:0:0:
272,168,46564,6,0,P|368:136|320:40,1,220,4|4,0:0|0:0,0:0:0:0:
456,48,46973,1,0,0:0:0:0:
48,240,47109,2,0,P|16:168|56:104,1,110
256,64,47382,2,0,L|257:101,1,27.5,2|0,0:0|0:0,0:0:0:0:
384,192,47518,2,0,L|380:241,1,27.5,2|0,0:0|0:0,0:0:0:0:
255,300,47655,2,0,L|256:256,1,27.5,2|0,0:0|0:0,0:0:0:0:
112,192,47791,2,0,L|117:145,1,27.5,2|0,0:0|0:0,0:0:0:0:
364,191,47927,1,8,0:0:0:0:
442,269,48064,1,8,0:0:0:0:
365,347,48200,1,8,0:0:0:0:
287,269,48336,1,8,0:0:0:0:
504,184,48473,6,0,L|472:224,7,27.5
328,152,48745,2,0,L|304:112,1,27.5,10|0,0:0|0:0,0:0:0:0:
144,96,48882,2,0,L|112:64,1,27.5,10|0,0:0|0:0,0:0:0:0:
352,72,49018,2,0,P|400:104|328:216,1,220,2|0,0:0|0:0,0:0:0:0:
128,224,49427,2,0,L|40:144,1,110
264,128,49700,1,0,0:0:0:0:
8,80,49836,1,0,0:0:0:0:
128,40,49973,1,0,0:0:0:0:
424,48,50109,1,4,0:0:0:0:
80,48,50382,1,4,0:0:0:0:
416,224,50655,6,8,L|488:224,1,55
448,168,50791,2,8,L|384:168,1,55
200,160,50927,1,12,0:0:0:0:
72,160,51064,2,0,L|160:80,2,110,4|0|0,0:0|0:0|0:0,0:0:0:0:
400,168,51473,2,0,L|312:64,2,110,0|0|8,0:0|0:0|0:0,0:0:0:0:
96,224,51814,6,8,L|24:224,1,55
64,168,51950,2,8,L|128:168,1,55
360,272,52155,2,0,L|488:240,1,110
304,224,52427,2,0,L|440:184,2,110
32,224,52836,5,8,0:0:0:0:
80,224,53245,1,8,0:0:0:0:
112,224,53518,1,8,0:0:0:0:
144,224,53791,1,8,0:0:0:0:
160,320,53927,1,0,0:0:0:0:
236,244,54064,1,0,0:0:0:0:
232,137,54200,1,0,0:0:0:0:
151,68,54336,1,0,0:0:0:0:
272,320,54473,1,0,0:0:0:0:
348,244,54609,1,0,0:0:0:0:
344,137,54745,1,0,0:0:0:0:
263,68,54882,1,0,0:0:0:0:
160,64,55018,6,0,P|80:144|64:264,2,220,4|0|0,0:0|0:0|0:0,0:0:0:0:
384,152,55836,1,0,0:0:0:0:
352,152,55973,1,0,0:0:0:0:
312,152,56109,1,4,0:0:0:0:
96,160,56382,5,0,0:0:0:0:
360,248,56655,1,0,0:0:0:0:
160,296,56927,1,0,0:0:0:0:
288,240,57200,1,4,0:0:0:0:
184,184,57609,6,0,P|104:128|160:0,1,220
208,16,58155,1,0,0:0:0:0:
440,80,58291,5,0,0:0:0:0:
392,80,58564,1,0,0:0:0:0:
344,80,58836,1,0,0:0:0:0:
296,80,59109,1,0,0:0:0:0:
104,128,59382,2,8,L|200:208,2,110,12|0|8,0:0|0:0|0:0,0:0:0:0:
360,152,59791,1,0,0:0:0:0:
136,256,59927,2,0,L|40:176,1,110,8|0,0:0|0:0,0:0:0:0:
192,152,60200,2,0,P|224:96|184:40,1,110,2|2,0:0|0:0,0:0:0:0:
440,56,60473,5,8,0:0:0:0:
72,56,60745,1,8,0:0:0:0:
344,96,61018,1,8,0:0:0:0:
168,96,61291,1,0,0:0:0:0:
256,136,61564,1,14,0:0:0:0:
128,248,61973,2,0,L|64:16,1,220
384,248,62382,2,0,L|448:16,1,220,0|8,0:0|0:0,0:0:0:0:
144,56,62745,6,0,L|0:56,2,110.000004196167,8|8|8,0:0|0:0|0:0,0:0:0:0:
344,96,63018,2,0,L|416:200,2,110.000004196167,0|0|8,0:0|0:0|0:0,0:0:0:0:
112,152,63291,2,0,L|80:288,2,110.000004196167,0|0|8,0:0|0:0|0:0,0:0:0:0:
336,200,63564,2,0,L|448:264,1,110.000004196167,2|2,0:0|0:0,0:0:0:0:
112,160,63745,6,0,L|24:72,1,110,8|0,0:0|0:0,0:0:0:0:
400,160,64018,2,0,L|488:72,1,110,8|0,0:0|0:0,0:0:0:0:
176,224,64291,2,0,L|304:192,2,110,8|0|8,0:0|0:0|0:0,0:0:0:0:
336,280,64700,1,0,0:0:0:0:
88,272,64836,6,0,L|160:272,1,55
336,248,64973,1,0,0:0:0:0:
383,219,65041,1,0,0:0:0:0:
409,171,65109,1,0,0:0:0:0:
407,117,65177,1,0,0:0:0:0:
378,71,65245,1,6,0:0:0:0:
296,80,65382,1,2,0:0:0:0:
512,80,65518,1,2,0:0:0:0:
168,88,65655,1,6,0:0:0:0:
288,128,65791,6,0,P|320:192|312:248,1,110,0|8,0:0|0:0,0:0:0:0:
176,136,66064,2,0,P|216:32|256:16,1,110,0|8,0:0|0:0,0:0:0:0:
440,112,66336,2,0,P|472:176|464:232,1,110,0|8,0:0|0:0,0:0:0:0:
200,224,66609,2,0,P|240:120|280:104,1,110,0|8,0:0|0:0,0:0:0:0:
368,128,66882,1,0,0:0:0:0:
88,224,67018,6,0,L|24:216,1,55
256,240,67155,1,0,0:0:0:0:
302,211,67223,1,0,0:0:0:0:
334,167,67291,1,0,0:0:0:0:
346,113,67359,1,0,0:0:0:0:
337,60,67427,1,0,0:0:0:0:
456,48,67564,1,12,0:0:0:0:
56,48,67836,1,12,0:0:0:0:
432,280,68109,6,0,L|344:208,1,110,8|0,0:0|0:0,0:0:0:0:
440,184,68382,2,0,L|504:80,1,110,8|0,0:0|0:0,0:0:0:0:
80,280,68655,2,0,L|168:208,1,110,8|0,0:0|0:0,0:0:0:0:
72,184,68928,2,0,L|8:80,1,110,8|0,0:0|0:0,0:0:0:0:
352,152,69200,1,8,0:0:0:0:
136,272,69336,1,0,0:0:0:0:
376,344,69473,6,0,L|448:360,1,55,8|0,0:0|0:0,0:0:0:0:
264,280,69609,1,0,0:0:0:0:
220,248,69677,1,0,0:0:0:0:
211,195,69745,1,0,0:0:0:0:
242,151,69814,1,0,0:0:0:0:
294,141,69882,1,0,0:0:0:0:
112,120,69950,2,0,L|40:120,1,55
256,72,70086,2,0,L|344:72,2,55
424,120,70291,6,8,L|456:48,1,55
240,112,70427,2,8,L|208:40,1,55
448,304,70564,2,0,P|496:248|496:176,1,110,12|0,0:0|0:0,0:0:0:0:
72,248,70836,6,8,L|40:176,1,55
248,224,70973,2,8,L|280:152,1,55
56,128,71109,2,0,P|16:80|24:32,1,110,8|0,0:0|0:0,0:0:0:0:
144,96,71382,5,2,0:0:0:0:
344,112,71450,2,0,L|496:32,1,165,0|2,0:0|0:0,0:0:0:0:
224,208,71723,2,0,P|224:136|312:88,1,165,0|2,0:0|0:0,0:0:0:0:
152,256,71995,2,0,L|16:160,1,165,0|2,0:0|0:0,0:0:0:0:
32,144,72200,2,0,L|8:104,8,27.5,0|0|0|0|0|0|0|0|8,0:0|0:0|0:0|0:0|0:0|0:0|0:0|0:0|0:0,0:0:0:0:
96,208,72609,6,0,L|216:168,2,110,0|8|0,0:0|0:0|0:0,0:0:0:0:
296,208,73018,1,8,0:0:0:0:
96,208,73155,1,0,0:0:0:0:
296,208,73291,1,8,0:0:0:0:
376,208,73427,2,0,L|256:168,2,110,0|8|0,0:0|0:0|0:0,0:0:0:0:
176,208,73836,6,0,L|112:208,1,55
336,128,73973,2,0,L|416:128,1,55
200,128,74109,1,0,0:0:0:0:
154,157,74177,1,0,0:0:0:0:
130,206,74245,1,0,0:0:0:0:
134,260,74314,1,0,0:0:0:0:
165,304,74382,2,0,L|136:160,1,110
416,192,74655,5,8,0:0:0:0:
480,192,74791,2,0,L|448:64,1,110,0|8,0:0|0:0,0:0:0:0:
256,160,75064,2,0,L|256:40,1,110,0|8,0:0|0:0,0:0:0:0:
32,192,75336,2,0,L|64:64,2,110,0|8|0,0:0|0:0|0:0,0:0:0:0:
256,240,75745,6,0,L|320:240,1,55,8|0,0:0|0:0,0:0:0:0:
128,192,75882,2,0,L|64:192,1,55,8|0,0:0|0:0,0:0:0:0:
320,160,76018,2,0,L|384:160,1,55,8|0,0:0|0:0,0:0:0:0:
192,112,76155,2,0,L|128:112,1,55,8|0,0:0|0:0,0:0:0:0:
408,104,76291,2,0,P|480:72|488:8,1,110,10|10,0:0|0:0,0:0:0:0:
256,56,76495,2,0,L|168:56,1,55,0|8,0:0|0:0,0:0:0:0:
432,96,76632,2,8,L|504:96,1,55
80,152,76768,2,0,L|8:152,1,55,8|2,0:0|0:0,0:0:0:0:
480,56,76905,6,0,B|336:304,1,275,0|2,0:0|0:0,0:0:0:0:
192,280,77314,2,0,B|344:40,1,275,0|2,0:0|0:0,0:0:0:0:
208,32,77723,2,0,B|336:280,1,275,0|2,0:0|0:0,0:0:0:0:
160,208,78132,2,0,B|224:336,1,110
80,312,78336,2,0,B|48:248,1,55,2|0,0:0|0:0,0:0:0:0:
288,304,78473,2,0,L|144:8,1,330,2|2,0:0|0:0,0:0:0:0:
256,192,79155,12,0,80927,0:0:0:0:
112,152,81200,5,4,0:0:0:0:
448,200,81473,1,0,0:0:0:0:
112,208,81745,1,0,0:0:0:0:
248,248,82018,1,0,0:0:0:0:
352,216,82155,1,0,0:0:0:0:
248,168,82291,1,4,0:0:0:0:
400,152,82564,5,0,0:0:0:0:
64,200,82836,1,0,0:0:0:0:
400,224,83109,1,0,0:0:0:0:
200,224,83382,1,4,0:0:0:0:
360,232,83791,2,0,P|440:152|416:48,2,220
80,232,84473,1,0,0:0:0:0:
136,232,84745,1,0,0:0:0:0:
192,232,85018,1,0,0:0:0:0:
248,232,85291,1,0,0:0:0:0:
448,200,85564,5,4,0:0:0:0:
112,192,85836,1,0,0:0:0:0:
272,192,86109,1,0,0:0:0:0:
376,144,86382,1,0,0:0:0:0:
440,144,86518,1,0,0:0:0:0:
504,144,86655,2,0,B|496:280|416:344|416:344|40:312|40:312|16:224,1,660,0|8,0:0|0:0,0:0:0:0:
152,232,87541,2,8,L|176:176,1,55
16,160,87677,2,0,L|0:104,1,55,8|6,0:0|0:0,0:0:0:0:
256,88,87882,5,6,0:0:0:0:
480,96,88018,2,0,P|478:43|430:22,1,110,8|0,0:0|0:0,0:0:0:0:
56,112,88291,5,2,0:0:0:0:
256,64,88427,1,2,0:0:0:0:
456,96,88564,2,0,P|512:48|472:0,1,110,8|0,0:0|0:0,0:0:0:0:
184,64,88836,1,4,0:0:0:0:
128,216,89109,6,8,L|136:152,1,55
208,168,89245,2,8,L|192:104,1,55
128,216,89382,2,8,L|136:152,1,55
208,168,89518,2,8,L|192:104,1,55
128,216,89655,2,0,L|96:40,1,165,8|0,0:0|0:0,0:0:0:0:
56,232,89927,6,0,L|128:120,1,110,2|0,0:0|0:0,0:0:0:0:
456,240,90200,2,0,L|384:128,1,110,2|0,0:0|0:0,0:0:0:0:
56,240,90473,2,0,L|128:128,1,110,2|0,0:0|0:0,0:0:0:0:
456,240,90745,2,0,L|384:128,1,110,2|0,0:0|0:0,0:0:0:0:
56,240,91018,2,2,L|128:128,1,110,2|0,0:0|0:0,0:0:0:0:
456,240,91291,2,0,L|384:128,1,110
144,248,91564,2,0,L|80:32,1,220,2|2,0:0|0:0,0:0:0:0:
272,216,92109,5,0,0:0:0:0:
472,168,92245,1,0,0:0:0:0:
200,160,92382,1,0,0:0:0:0:
432,80,92518,2,0,L|304:136,1,110,0|8,0:0|0:0,0:0:0:0:
72,160,92723,2,8,L|8:192,1,55
208,144,92859,2,8,L|256:96,1,55
72,160,92995,2,8,L|8:192,1,55
208,144,93132,2,8,L|256:96,1,55
456,104,93336,5,8,0:0:0:0:
192,240,93473,1,8,0:0:0:0:
320,240,93609,1,8,0:0:0:0:
48,104,93745,1,8,0:0:0:0:
320,240,93882,1,8,0:0:0:0:
192,240,94018,2,0,L|352:144,1,165,8|0,0:0|0:0,0:0:0:0:
116,147,94291,6,0,L|56:240,1,110,2|0,0:0|0:0,0:0:0:0:
397,147,94564,2,0,L|456:240,1,110,2|0,0:0|0:0,0:0:0:0:
116,147,94836,2,0,L|56:240,1,110,2|0,0:0|0:0,0:0:0:0:
397,147,95109,2,0,L|456:240,1,110,2|0,0:0|0:0,0:0:0:0:
116,147,95382,2,0,L|56:240,1,110,2|0,0:0|0:0,0:0:0:0:
397,147,95655,2,0,L|456:240,1,110
176,96,95927,2,2,P|120:144|160:280,1,220,2|14,0:0|0:0,0:0:0:0:
432,208,96473,2,8,L|304:168,1,110
104,200,96745,1,8,0:0:0:0:
208,144,96882,1,8,0:0:0:0:
464,128,97018,6,0,L|352:320,1,220,0|2,0:0|0:0,0:0:0:0:
224,264,97632,2,0,B|48:208|32:176|32:176|80:160,1,247.500009441376,0|2,0:0|0:0,0:0:0:0:
288,264,97905,2,0,B|464:208|480:176|480:176|432:160,1,247.500009441376,0|2,0:0|0:0,0:0:0:0:
224,264,98177,2,0,B|48:208|32:176|32:176|80:160,1,247.500009441376,0|2,0:0|0:0,0:0:0:0:
288,264,98450,2,0,B|464:208|480:176|480:176|432:160,1,247.500009441376,0|2,0:0|0:0,0:0:0:0:
200,176,98791,6,0,L|136:176,2,55,0|0|2,0:0|0:0|0:0,0:0:0:0:
344,88,99064,2,0,L|424:88,2,55,0|0|2,0:0|0:0|0:0,0:0:0:0:
88,128,99336,2,0,L|192:40,1,110,0|2,0:0|0:0,0:0:0:0:
112,184,99609,2,0,P|48:152|24:104,1,110,0|2,0:0|0:0,0:0:0:0:
400,184,99882,2,0,P|464:152|488:104,1,110
336,96,100155,2,4,L|200:96,1,110
88,72,100427,2,0,L|64:48,1,27.5,4|0,0:0|0:0,0:0:0:0:
448,64,100564,2,0,L|472:32,1,27.5,4|0,0:0|0:0,0:0:0:0:
160,64,100700,2,0,L|144:24,4,27.5
120,24,100905,5,0,0:0:0:0:
73,53,100973,1,0,0:0:0:0:
53,99,101041,1,0,0:0:0:0:
96,131,101109,1,0,0:0:0:0:
147,153,101177,1,0,0:0:0:0:
185,191,101245,1,0,0:0:0:0:
166,240,101314,1,0,0:0:0:0:
121,271,101382,6,0,L|56:304,1,55
256,272,101518,2,0,L|320:312,1,55
152,216,101655,2,0,L|87:249,1,55
287,217,101791,2,0,L|351:257,1,55
80,192,101927,6,0,L|32:80,1,110
80,80,102132,1,0,0:0:0:0:
232,80,102200,2,0,L|280:48,1,55
456,72,102336,2,0,L|512:32,1,55
320,120,102473,2,0,L|264:80,1,55
448,136,102609,2,0,L|504:96,1,55
152,112,102745,2,0,L|152:344,1,220,0|2,0:0|0:0,0:0:0:0:
464,248,103155,6,0,P|424:184|376:168,1,110,0|2,0:0|0:0,0:0:0:0:
40,240,103427,2,0,P|80:176|128:160,1,110,0|2,0:0|0:0,0:0:0:0:
464,248,103700,2,0,P|424:184|376:168,1,110,0|2,0:0|0:0,0:0:0:0:
40,240,103973,2,0,P|80:176|128:160,1,110,0|2,0:0|0:0,0:0:0:0:
312,144,104245,2,0,P|232:112|216:88,1,110,0|10,0:0|0:0,0:0:0:0:
376,64,104450,1,8,0:0:0:0:
427,47,104518,1,8,0:0:0:0:
478,64,104586,1,8,0:0:0:0:
508,109,104655,1,0,0:0:0:0:
40,240,104791,2,0,P|80:176|128:160,1,110
208,120,104961,2,0,L|224:96,6,27.5
416,104,105200,6,0,P|456:160|408:272,1,165
96,104,105473,2,0,P|56:160|104:272,1,165,14|0,0:0|0:0,0:0:0:0:
432,232,105746,2,0,P|488:192|448:96,1,165,14|0,0:0|0:0,0:0:0:0:
424,72,106018,1,8,0:0:0:0:
378,42,106087,1,8,0:0:0:0:
325,25,106155,1,8,0:0:0:0:
270,24,106223,1,8,0:0:0:0:
216,32,106291,5,14,0:0:0:0:
160,32,106564,5,14,0:0:0:0:
104,32,106836,5,14,0:0:0:0:
256,192,106905,12,0,107314,0:0:0:0:
136,136,107382,6,0,P|72:96|56:64,1,110,2|0,0:0|0:0,0:0:0:0:
264,80,107655,1,2,0:0:0:0:
400,112,107791,2,0,P|368:168|320:200,1,110,0|2,0:0|0:0,0:0:0:0:
184,224,108064,2,0,P|224:280|280:304,1,110,0|2,0:0|0:0,0:0:0:0:
56,240,108336,1,0,0:0:0:0:
112,192,108473,6,0,B|24:104|24:104|72:112,1,165,2|0,0:0|0:0,0:0:0:0:
208,136,108745,2,0,B|120:48|120:48|168:56,1,165,2|0,0:0|0:0,0:0:0:0:
304,88,109018,2,0,B|216:0|216:0|264:8,1,165,2|0,0:0|0:0,0:0:0:0:
424,192,109291,2,0,B|512:104|512:104|464:112,1,165,2|0,0:0|0:0,0:0:0:0:
160,104,109564,6,0,P|88:80|40:88,2,110,2|0|2,0:0|0:0|0:0,0:0:0:0:
376,144,109973,2,0,P|431:142|481:164,1,110,0|2,0:0|0:0,0:0:0:0:
360,208,110245,1,0,0:0:0:0:
248,240,110382,1,2,0:0:0:0:
384,288,110518,1,0,0:0:0:0:
112,192,110655,6,0,B|24:104|24:104|72:112,1,165,2|0,0:0|0:0,0:0:0:0:
208,136,110927,2,0,B|120:48|120:48|168:56,1,165,2|0,0:0|0:0,0:0:0:0:
344,152,111200,2,0,B|432:64|432:64|384:72,1,165,2|0,0:0|0:0,0:0:0:0:
248,96,111473,2,0,B|336:8|336:8|288:16,1,165,2|0,0:0|0:0,0:0:0:0:
248,48,111745,1,8,0:0:0:0:
296,96,111813,1,8,0:0:0:0:
272,144,111881,1,8,0:0:0:0:
331,175,111950,1,8,0:0:0:0:
304,224,112018,1,8,0:0:0:0:
360,256,112086,1,8,0:0:0:0:
333,305,112155,1,8,0:0:0:0:
384,328,112223,1,0,0:0:0:0:
360,384,112291,1,12,0:0:0:0:
416,304,112427,6,0,L|288:240,1,110,8|8,0:0|0:0,0:0:0:0:
120,240,112700,2,0,L|224:176,1,110,8|8,0:0|0:0,0:0:0:0:
264,152,112905,1,8,0:0:0:0:
424,184,112973,2,8,L|496:160,1,55
296,120,113109,2,8,L|224:72,1,55
458,97,113245,2,8,L|522:81,1,55
272,216,113382,2,2,L|48:216,3,220
136,168,113927,1,8,0:0:0:0:
104,120,114064,5,8,0:0:0:0:
160,120,114200,1,8,0:0:0:0:
216,120,114337,1,8,0:0:0:0:
272,120,114473,1,12,0:0:0:0:
40,56,114609,5,8,0:0:0:0:
152,56,114745,1,8,0:0:0:0:
256,56,114881,1,8,0:0:0:0:
360,56,115018,1,12,0:0:0:0:
96,208,115291,1,4,0:0:0:0:
304,264,115564,1,4,0:0:0:0:
224,184,115836,5,4,0:0:0:0:
