osu file format v14

[General]
AudioFilename: Lisa Silver - The Baby Looney Tunes way.mp3
AudioLeadIn: 1000
PreviewTime: 15182
Countdown: 0
SampleSet: Soft
StackLeniency: 0.7
Mode: 0
LetterboxInBreaks: 0
WidescreenStoryboard: 0

[Editor]
Bookmarks: 940,8212,15485,23667,30940
DistanceSpacing: 1.6
BeatDivisor: 6
GridSize: 4
TimelineZoom: 1.1

[Metadata]
Title:The Baby Looney Tunes way
TitleUnicode:The Baby Looney Tunes way
Artist:Lisa Silver
ArtistUnicode:Lisa Silver
Creator:LexiaLovesU
Version:Hard
Source:Baby Looney Tunes
Tags:Cartoon Network Gero Slyvester Bugs Daffy Lola Taz Tweety Warner Bros
BeatmapID:650941
BeatmapSetID:288633

[Difficulty]
HPDrainRate:5
CircleSize:4
OverallDifficulty:5
ApproachRate:6.5
SliderMultiplier:1.4
SliderTickRate:1

[Events]
//Background and Video events
0,0,"BG.jpg",0,0
Video,0,"Video.avi"
//Break Periods
//Storyboard Layer 0 (Background)
//Storyboard Layer 1 (Fail)
//Storyboard Layer 2 (Pass)
//Storyboard Layer 3 (Foreground)
//Storyboard Sound Samples

[TimingPoints]
940,454.545454545455,4,2,0,50,1,0
23667,454.545454545455,4,2,0,50,1,0
29121,-200,4,2,0,30,0,0

[Colours]
Combo1 : 203,173,189
Combo2 : 114,207,160
Combo3 : 235,114,199
Combo4 : 245,82,106
Combo5 : 235,182,101
Combo6 : 183,183,183
Combo7 : 106,168,219

[HitObjects]
80,280,940,6,0,P|136:304|228:272,1,140,2|8,0:0|0:0,0:0:0:0:
148,204,1697,1,0,0:0:0:0:
148,204,1849,2,0,P|144:132|160:88,1,93.3333333333333,2|0,0:0|0:0,0:0:0:0:
176,68,2303,2,0,P|224:72|296:68,1,93.3333333333333,8|0,0:0|0:0,0:0:0:0:
320,64,2758,6,0,P|400:56|472:76,1,140,2|8,0:0|0:0,0:0:0:0:
452,172,3515,1,0,0:0:0:0:
452,172,3667,2,0,P|448:216|468:316,1,140,2|8,0:0|0:0,0:0:0:0:
316,344,4576,6,0,P|240:352|156:344,1,140,2|8,0:0|0:0,0:0:0:0:
76,328,5333,2,0,L|72:248,1,46.6666666666667,0|2,0:0|0:0,0:0:0:0:
28,188,5788,1,0,0:0:0:0:
24,136,5940,2,0,P|96:136|132:132,1,93.3333333333333,8|0,0:0|0:0,0:0:0:0:
144,92,6394,6,0,P|240:88|272:96,1,93.3333333333333,2|0,0:0|0:0,0:0:0:0:
272,48,6849,2,0,P|256:124|296:192,1,140,8|2,0:0|0:0,0:0:0:0:
356,108,7606,1,0,0:0:0:0:
356,108,7758,2,0,L|452:176,1,93.3333333333333,8|0,0:0|0:0,0:0:0:0:
460,120,8212,6,0,L|424:264,1,140,4|8,0:0|0:0,0:0:0:0:
380,348,8970,1,0,0:0:0:0:
380,348,9121,2,0,P|335:359|290:348,1,93.3333333333333,2|0,0:0|0:0,0:0:0:0:
256,312,9576,2,0,P|211:301|166:312,1,93.3333333333333,8|0,0:0|0:0,0:0:0:0:
120,332,10030,5,2,0:0:0:0:
64,244,10333,1,0,0:0:0:0:
64,244,10485,2,0,B|53:199|53:199|64:153,1,93.3333333333333,8|0,0:0|0:0,0:0:0:0:
76,104,10940,2,0,B|132:104|132:104|172:104|208:68,1,140,2|8,0:0|0:0,0:0:0:0:
305,69,11697,1,0,0:0:0:0:
305,69,11849,6,0,B|340:104|380:104|380:104|436:104,1,140,2|8,0:0|0:0,0:0:0:0:
496,184,12606,2,0,P|500:208|496:232,1,46.6666666666667,0|2,0:0|0:0,0:0:0:0:
396,256,13061,2,0,P|392:232|396:210,1,46.6666666666667,0|8,0:0|0:0,0:0:0:0:
468,312,13515,1,0,0:0:0:0:
468,312,13667,6,0,B|408:312|408:312|396:316|396:316|328:316,1,140,4|8,0:0|0:0,0:0:0:0:
240,368,14424,1,0,0:0:0:0:
240,368,14576,2,0,P|192:368|156:344,1,93.3333333333333,2|0,0:0|0:0,0:0:0:0:
108,364,15030,2,0,L|160:268,1,93.3333333333333,8|0,0:0|0:0,0:0:0:0:
100,276,15485,6,0,L|152:180,1,93.3333333333333,4|0,0:0|0:0,0:0:0:0:
228,184,15940,2,0,P|196:128|152:112,1,93.3333333333333,8|0,0:0|0:0,0:0:0:0:
64,152,16394,2,0,L|64:44,1,93.3333333333333,2|0,0:0|0:0,0:0:0:0:
208,52,17152,1,0,0:0:0:0:
208,52,17303,6,0,P|280:56|332:48,1,93.3333333333333,2|0,0:0|0:0,0:0:0:0:
384,40,17758,2,0,P|376:88|392:152,1,93.3333333333333,8|0,0:0|0:0,0:0:0:0:
448,264,18212,2,0,P|460:216|452:172,1,93.3333333333333,2|0,0:0|0:0,0:0:0:0:
376,212,18667,1,8,0:0:0:0:
376,212,19121,6,0,B|316:208|316:208|232:240,1,140,2|8,0:0|0:0,0:0:0:0:
156,180,19879,1,0,0:0:0:0:
156,180,20030,2,0,L|248:144,1,93.3333333333333,2|0,0:0|0:0,0:0:0:0:
68,160,20788,1,0,0:0:0:0:
68,160,20940,6,0,P|120:192|140:280,1,140,4|10,0:0|0:0,0:0:0:0:
256,324,21849,2,0,P|276:272|272:164,1,140,2|10,0:0|0:0,0:0:0:0:
236,76,22758,5,2,0:0:0:0:
102,199,23061,1,0,0:0:0:0:
102,199,23212,2,0,P|84:157|92:112,1,93.3333333333333,8|0,0:0|0:0,0:0:0:0:
24,80,23667,6,0,P|92:94|160:80,1,140,4|8,0:0|0:0,0:0:0:0:
260,48,24424,1,0,0:0:0:0:
328,20,24576,2,0,L|300:116,1,93.3333333333333,2|0,0:0|0:0,0:0:0:0:
356,172,25030,2,0,L|328:268,1,93.3333333333333,8|0,0:0|0:0,0:0:0:0:
380,316,25485,6,0,B|352:284|312:284|312:284|248:284,1,140,2|8,0:0|0:0,0:0:0:0:
192,364,26242,2,0,P|218:276|192:188,1,186.666666666667,2|8,0:0|0:0,0:0:0:0:
120,116,27151,1,0,0:0:0:0:
56,76,27303,6,0,L|200:76,1,140,4|8,0:0|0:0,0:0:0:0:
276,12,28060,1,0,0:0:0:0:
276,12,28212,2,0,P|300:76|276:140,1,140,2|2,0:0|0:0,0:0:0:0:
212,220,28970,1,0,0:0:0:0:
212,220,29121,6,0,B|280:256|340:224|348:220|356:216|416:188|484:220,1,280,4|2,0:0|0:0,0:0:0:0:
