osu file format v14

[General]
AudioFilename: LiSA.mp3
AudioLeadIn: 0
PreviewTime: 196340
Countdown: 0
SampleSet: Soft
StackLeniency: 0.2
Mode: 0
LetterboxInBreaks: 0
WidescreenStoryboard: 1

[Editor]
Bookmarks: 9529,12124,16016,17637,21205,34178,44556,52340,65313,70340,76989,92556,97745,108124,118502,126286,138448,144448,160016,165205,174286,187259,196340,201529,217097
DistanceSpacing: 1.4
BeatDivisor: 8
GridSize: 16
TimelineZoom: 3.199999

[Metadata]
Title:Sinner
TitleUnicode:罪人
Artist:LiSA
ArtistUnicode:LiSA
Creator:Sparhten
Version:Tragic Love
Source:
Tags:Ash LiSA
BeatmapID:1802192
BeatmapSetID:749086

[Difficulty]
HPDrainRate:6
CircleSize:4
OverallDifficulty:8
ApproachRate:9.2
SliderMultiplier:1.7
SliderTickRate:1

[Events]
//Background and Video events
0,0,"ANIME-PICTURES.NET_-_535404-2560x1440-vocaloid-aria+on+the+planetes+%28vocaloid%29-ia+%28vocaloid%29-c.c.r-long+hair-single.jpg",0,0
//Break Periods
//Storyboard Layer 0 (Background)
//Storyboard Layer 1 (Fail)
//Storyboard Layer 2 (Pass)
//Storyboard Layer 3 (Foreground)
//Storyboard Sound Samples

[TimingPoints]
1746,324.324324324324,4,2,1,50,1,0
1746,-125,4,2,1,50,0,0
3043,-100,4,2,1,50,0,0
3367,-125,4,2,1,50,0,0
5637,-100,4,2,1,50,0,0
6124,-125,4,2,1,50,0,0
6935,-100,4,2,1,50,0,0
7421,-125,4,2,1,50,0,0
12124,-71.4285714285714,4,2,1,50,0,0
13421,-83.3333333333333,4,2,1,50,0,0
13745,-100,4,2,1,50,0,0
14718,-83.3333333333333,4,2,1,50,0,0
15043,-100,4,2,1,50,0,0
16016,-71.4285714285714,4,2,1,50,0,0
16502,-100,4,2,1,50,0,0
18610,-83.3333333333333,4,2,1,50,0,0
18935,-100,4,2,1,50,0,0
19908,-83.3333333333333,4,2,1,50,0,0
20394,-100,4,2,1,50,0,0
21205,-90.9090909090909,4,2,1,50,0,0
23151,-83.3333333333333,4,2,1,50,0,0
24448,-100,4,2,1,50,0,0
25097,-83.3333333333333,4,2,1,50,0,0
25583,-100,4,2,1,50,0,0
26394,-71.4285714285714,4,2,1,50,0,0
26881,-100,4,2,1,50,0,0
30286,-83.3333333333333,4,2,1,50,0,0
34664,-166.666666666667,4,2,1,50,0,0
76989,-100,4,2,1,50,0,1
92556,-100,4,2,1,50,0,0
144448,-100,4,2,1,50,0,1
160016,-100,4,2,1,50,0,0
201529,-100,4,2,1,50,0,1
217097,-100,4,2,1,50,0,0

[Colours]
Combo1 : 255,255,53
Combo2 : 166,210,255
Combo3 : 219,219,219
Combo4 : 171,171,214
Combo5 : 173,91,255
Combo6 : 74,197,255

[HitObjects]
92,164,1746,5,0,0:0:0:0:
65,268,1908,1,0,0:0:0:0:
169,295,2070,1,0,0:0:0:0:
196,190,2232,1,0,0:0:0:0:
193,176,2394,1,0,0:0:0:0:
190,162,2556,1,0,0:0:0:0:
163,267,2718,1,0,0:0:0:0:
267,293,2880,1,0,0:0:0:0:
294,189,3043,6,0,L|311:101,1,85
267,293,3367,1,0,0:0:0:0:
294,189,3529,2,0,L|310:109,1,68
385,176,3854,1,0,0:0:0:0:
312,101,4016,1,0,0:0:0:0:
218,129,4178,1,0,0:0:0:0:
137,80,4340,6,0,L|66:72,1,68
218,129,4664,1,0,0:0:0:0:
314,69,4827,2,0,L|395:81,1,68
442,155,5151,1,0,0:0:0:0:
365,212,5313,1,0,0:0:0:0:
283,162,5475,1,0,0:0:0:0:
209,228,5637,54,0,P|168:218|124:213,1,85
150,307,5962,1,0,0:0:0:0:
283,162,6124,2,0,L|373:159,1,68
208,107,6448,1,0,0:0:0:0:
416,120,6610,2,0,P|393:171|381:224,1,102
379,238,6935,6,0,P|422:237|477:253,1,85
409,325,7259,1,0,0:0:0:0:
242,200,7421,2,0,L|230:277,1,68
215,358,7745,1,0,0:0:0:0:
124,342,7908,1,0,0:0:0:0:
140,251,8070,1,0,0:0:0:0:
231,267,8232,6,0,L|241:199,1,68
315,299,8556,1,0,0:0:0:0:
402,297,8718,2,0,P|357:289|330:290,1,68
244,356,9043,1,0,0:0:0:0:
163,282,9205,1,0,0:0:0:0:
86,341,9367,1,0,0:0:0:0:
0,228,9529,1,0,0:0:0:0:
256,192,9610,12,0,12043,0:0:0:0:
221,274,12124,54,0,L|230:210,1,59.4999981842042
269,119,12286,1,0,0:0:0:0:
224,118,12367,1,0,0:0:0:0:
184,136,12448,1,0,0:0:0:0:
145,156,12529,1,0,0:0:0:0:
100,157,12610,2,0,L|92:89,1,59.4999981842042
229,215,12773,5,0,0:0:0:0:
272,211,12854,1,0,0:0:0:0:
313,228,12935,1,0,0:0:0:0:
352,249,13016,1,0,0:0:0:0:
397,250,13097,2,0,P|399:218|407:189,1,59.4999981842042
297,70,13259,2,0,P|305:98|307:129,1,59.4999981842042
209,325,13421,6,0,P|154:299|129:251,1,101.999996887207
106,49,13745,1,0,0:0:0:0:
57,140,13908,1,0,0:0:0:0:
70,149,14070,2,0,P|113:142|155:141,1,85
220,231,14394,1,0,0:0:0:0:
298,145,14556,1,0,0:0:0:0:
253,45,14718,54,0,P|257:153|238:249,1,203.999993774414
334,333,15205,2,0,P|352:273|375:233,1,85
437,209,15529,1,0,0:0:0:0:
254,267,15691,1,0,0:0:0:0:
238,246,15854,1,0,0:0:0:0:
100,162,16016,6,0,L|161:156,1,59.4999981842042
339,72,16178,2,0,L|280:66,1,59.4999981842042
172,30,16340,1,0,0:0:0:0:
302,171,16502,2,0,P|252:215|238:268,1,85
429,79,16827,2,0,P|415:13|376:-24,1,85
432,230,17151,6,0,P|495:251|548:236,1,85
490,156,17475,1,0,0:0:0:0:
347,296,17637,1,0,0:0:0:0:
341,273,17800,1,0,0:0:0:0:
219,127,17962,1,0,0:0:0:0:
206,144,18124,1,0,0:0:0:0:
321,176,18286,1,0,0:0:0:0:
108,237,18448,1,0,0:0:0:0:
108,237,18529,1,0,0:0:0:0:
108,237,18610,54,0,P|91:165|69:122,1,101.999996887207
324,62,18935,1,0,0:0:0:0:
223,28,19097,1,0,0:0:0:0:
215,46,19259,2,0,P|202:89|199:157,1,85
242,274,19583,1,0,0:0:0:0:
363,149,19745,1,0,0:0:0:0:
376,175,19908,6,0,B|277:165|282:267|166:224,1,203.999993774414
19,107,20394,2,0,P|70:115|105:124,1,85
42,200,20718,1,0,0:0:0:0:
193,63,20881,2,0,P|202:104|207:149,1,85
260,334,21205,5,0,0:0:0:0:
268,307,21367,1,0,0:0:0:0:
449,99,21529,2,0,P|424:149|411:241,1,140.25000428009
412,259,21854,1,0,0:0:0:0:
402,269,22016,1,0,0:0:0:0:
241,153,22178,1,0,0:0:0:0:
237,121,22340,1,0,0:0:0:0:
143,290,22502,53,0,0:0:0:0:
131,323,22664,1,0,0:0:0:0:
73,91,22827,1,0,0:0:0:0:
65,40,22989,1,0,0:0:0:0:
46,178,23151,2,0,P|100:200|157:194,1,101.999996887207
270,28,23475,1,0,0:0:0:0:
341,113,23637,1,0,0:0:0:0:
341,113,23718,1,0,0:0:0:0:
341,113,23800,6,0,P|286:119|219:131,1,101.999996887207
168,190,24124,1,0,0:0:0:0:
456,71,24286,1,0,0:0:0:0:
443,86,24448,2,0,P|432:134|421:207,1,85
342,351,24773,1,0,0:0:0:0:
254,247,24935,1,0,0:0:0:0:
418,274,25097,6,0,B|341:273|333:362|224:346,1,203.999993774414
54,262,25583,2,0,P|119:270|164:288,1,85
0,339,25908,1,0,0:0:0:0:
115,162,26070,1,0,0:0:0:0:
201,345,26232,1,0,0:0:0:0:
252,148,26394,54,0,L|257:211,1,59.4999981842042
348,356,26556,2,0,L|352:296,1,59.4999981842042
220,332,26718,1,0,0:0:0:0:
469,309,26881,2,0,P|425:309|355:283,1,85
446,222,27205,2,0,P|468:183|525:136,1,85
195,228,27529,6,0,P|216:266|229:339,1,85
136,306,27854,1,0,0:0:0:0:
265,134,28016,1,0,0:0:0:0:
258,105,28178,1,0,0:0:0:0:
456,270,28340,1,0,0:0:0:0:
444,298,28502,1,0,0:0:0:0:
390,174,28664,1,0,0:0:0:0:
308,338,28827,1,0,0:0:0:0:
308,338,28908,1,0,0:0:0:0:
308,338,28989,6,0,P|262:342|204:351,1,85
144,295,29313,1,0,0:0:0:0:
429,356,29475,1,0,0:0:0:0:
426,335,29637,2,0,P|431:290|444:242,1,85
288,75,29962,1,0,0:0:0:0:
383,162,30124,1,0,0:0:0:0:
433,69,30286,2,0,P|371:66|276:177,1,203.999993774414
268,245,30773,1,0,0:0:0:0:
103,103,30935,53,0,0:0:0:0:
141,102,31016,1,0,0:0:0:0:
176,117,31097,1,0,0:0:0:0:
205,142,31178,1,0,0:0:0:0:
239,160,31259,1,0,0:0:0:0:
277,161,31340,1,0,0:0:0:0:
315,152,31421,1,0,0:0:0:0:
315,152,31502,1,0,0:0:0:0:
315,152,31583,5,0,0:0:0:0:
450,268,31745,1,0,0:0:0:0:
62,147,32070,5,0,0:0:0:0:
255,122,32394,53,0,0:0:0:0:
46,258,32556,1,0,0:0:0:0:
321,339,32718,2,0,P|271:310|355:297,1,203.999993774414
354,289,33124,1,0,0:0:0:0:
354,289,33205,1,0,0:0:0:0:
153,209,33367,1,0,0:0:0:0:
153,209,33448,1,0,0:0:0:0:
153,209,33529,6,0,L|147:146,1,50.9999984436036
247,269,33773,2,0,L|241:206,1,50.9999984436036
66,138,34016,2,0,L|60:75,1,50.9999984436036
147,33,34178,5,0,0:0:0:0:
207,103,34340,1,0,0:0:0:0:
289,22,34502,1,0,0:0:0:0:
353,97,34664,54,0,L|415:81,1,50.9999984436036
404,170,34989,2,0,L|297:197,1,101.999996887207
208,291,35475,2,0,L|218:218,2,50.9999984436036
119,236,35962,2,0,L|105:173,1,50.9999984436036
24,308,36286,2,0,P|69:321|114:329,1,76.4999976654053
123,328,36610,1,0,0:0:0:0:
320,263,36773,6,0,P|308:204|302:159,1,101.999996887207
302,162,37259,1,0,0:0:0:0:
302,162,37583,1,0,0:0:0:0:
348,78,37745,2,0,L|277:65,1,50.9999984436036
66,119,38070,6,0,P|112:127|157:173,1,101.999996887207
73,215,38556,2,0,L|62:273,1,50.9999984436036
153,269,38881,2,0,L|162:319,1,50.9999984436036
