osu file format v14

[General]
AudioFilename: audio.mp3
AudioLeadIn: 0
PreviewTime: 46939
Countdown: 0
SampleSet: Normal
StackLeniency: 0.7
Mode: 0
LetterboxInBreaks: 0
WidescreenStoryboard: 0

[Editor]
Bookmarks: 80097,85149
DistanceSpacing: 1
BeatDivisor: 4
GridSize: 4
TimelineZoom: 3.199999

[Metadata]
Title:Confidence Driver
TitleUnicode:Confidence Driver
Artist:LiSA
ArtistUnicode:LiSA
Creator:Seox
Version:Expert
Source:
Tags:
BeatmapID:1914749
BeatmapSetID:916806

[Difficulty]
HPDrainRate:6
CircleSize:4
OverallDifficulty:9
ApproachRate:9.4
SliderMultiplier:1.75
SliderTickRate:1

[Events]
//Background and Video events
0,0,"jeannealter.jpg",0,0
//Break Periods
//Storyboard Layer 0 (Background)
//Storyboard Layer 1 (Fail)
//Storyboard Layer 2 (Pass)
//Storyboard Layer 3 (Foreground)
//Storyboard Sound Samples

[TimingPoints]
-587,315.789473684211,4,1,0,100,1,0
518,-133.333333333333,4,1,0,100,0,0
5570,-100,4,1,0,100,0,0
36044,-133.333333333333,4,1,0,100,0,0
41097,-100,4,1,0,100,0,0
45991,-250,4,1,0,100,0,0
47255,-83.3333333333333,4,1,0,100,0,1
75044,-100,4,1,0,100,0,0

[HitObjects]
76,308,518,6,0,P|144:296|204:312,1,131.25000500679
304,348,991,2,0,P|340:344|372:320,1,65.6250025033952
432,248,1307,2,0,L|432:100,1,131.25000500679
304,44,1781,2,0,L|304:196,1,131.25000500679
236,328,2255,1,0,0:0:0:0:
120,328,2413,1,0,0:0:0:0:
88,220,2570,1,0,0:0:0:0:
176,144,2728,1,0,0:0:0:0:
264,216,2886,1,0,0:0:0:0:
120,328,3044,6,0,B|84:324|84:324|60:328|60:328|28:304|44:260,1,131.25000500679
176,144,3518,2,0,L|180:228,1,65.6250025033952
256,344,3834,2,0,B|288:320|288:320|384:320,1,131.25000500679
452,240,4307,1,0,0:0:0:0:
452,240,4386,1,0,0:0:0:0:
452,240,4465,6,0,P|460:200|456:168,1,65.6250025033952
336,56,4781,2,0,L|340:192,1,131.25000500679
256,292,5255,1,0,0:0:0:0:
224,316,5334,1,0,0:0:0:0:
184,320,5413,1,0,0:0:0:0:
144,312,5491,1,0,0:0:0:0:
108,276,5570,6,0,L|108:96,1,175
224,316,6044,1,0,0:0:0:0:
256,56,6202,1,0,0:0:0:0:
424,248,6360,2,0,L|416:352,1,87.5
112,252,6676,1,0,0:0:0:0:
377,113,6834,6,0,P|433:149|413:257,1,175
256,344,7307,2,0,P|208:344|164:352,1,87.5
56,268,7623,1,0,0:0:0:0:
256,196,7781,1,0,0:0:0:0:
56,92,7939,2,0,L|48:148,1,43.75
168,60,8097,6,0,B|224:48|260:88|260:88|296:128|360:104,1,175
448,180,8570,2,0,L|448:276,1,87.5
192,244,8886,1,0,0:0:0:0:
320,40,9044,1,0,0:0:0:0:
316,344,9202,1,0,0:0:0:0:
80,344,9360,2,0,B|52:312|52:312|52:176,1,175
156,56,9834,2,0,L|244:64,1,87.5
252,184,10149,2,0,L|340:176,1,87.5
404,96,10465,2,0,L|404:40,1,43.75
464,176,10623,6,0,B|472:228|456:264|456:264|440:304|456:352,1,175
296,200,11097,2,0,L|400:200,1,87.5
144,304,11413,1,0,0:0:0:0:
184,116,11570,1,0,0:0:0:0:
320,272,11728,1,0,0:0:0:0:
48,320,11886,2,0,B|92:348|132:332|132:332|172:316|240:340,1,175
320,272,12360,2,0,P|340:316|340:360,1,87.5
152,240,12676,1,0,0:0:0:0:
360,144,12834,1,0,0:0:0:0:
68,104,12991,1,0,0:0:0:0:
217,332,13149,6,0,P|257:292|237:168,1,175
68,104,13623,2,0,P|100:108|168:100,1,87.5
336,40,13939,1,0,0:0:0:0:
376,272,14097,1,0,0:0:0:0:
372,56,14255,1,0,0:0:0:0:
192,248,14413,1,0,0:0:0:0:
464,348,14570,6,0,L|472:244,1,87.5
300,148,14886,2,0,L|312:236,1,87.5
436,132,15202,1,0,0:0:0:0:
192,56,15360,1,0,0:0:0:0:
192,88,15439,1,0,0:0:0:0:
188,120,15518,1,0,0:0:0:0:
188,152,15597,1,0,0:0:0:0:
184,184,15676,2,0,P|144:216|40:160,1,175
192,56,16149,6,0,P|236:52|284:64,1,87.5
356,192,16465,2,0,P|400:196|452:180,1,87.5
464,80,16781,1,0,0:0:0:0:
256,196,16939,1,0,0:0:0:0:
448,268,17097,2,0,L|448:364,1,87.5
256,283,17413,2,0,L|256:187,1,87.5
88,92,17728,1,0,0:0:0:0:
320,132,17886,1,0,0:0:0:0:
88,216,18044,2,0,L|140:204,1,43.75
292,292,18202,6,0,B|244:276|204:308|204:308|168:336|100:316,1,175
356,228,18676,2,0,P|384:264|396:316,1,87.5
208,120,18991,1,0,0:0:0:0:
244,356,19149,1,0,0:0:0:0:
304,64,19307,1,0,0:0:0:0:
336,260,19465,6,0,B|392:260|424:296|424:296|448:332|496:328,1,175
412,96,19939,1,0,0:0:0:0:
356,344,20097,1,0,0:0:0:0:
228,48,20255,1,0,0:0:0:0:
264,272,20413,1,0,0:0:0:0:
100,56,20570,2,0,L|112:100,1,43.75
76,192,20728,2,0,P|56:244|76:360,1,175
181,355,21202,6,0,L|369:343,1,175
384,196,21676,1,0,0:0:0:0:
472,268,21834,2,0,L|464:360,1,87.5
296,248,22149,6,0,L|288:156,1,87.5
448,48,22465,2,0,L|440:140,1,87.5
144,136,22781,1,0,0:0:0:0:
352,152,22939,1,0,0:0:0:0:
80,52,23097,1,0,0:0:0:0:
144,288,23255,2,0,B|196:276|228:320|228:320|256:356|324:344,1,175
444,288,23728,2,0,P|448:244|440:184,1,87.5
308,152,24044,2,0,P|304:108|312:48,1,87.5
432,52,24360,1,0,0:0:0:0:
332,248,24518,2,0,B|280:244|252:280|252:280|220:324|160:308,1,175
44,236,24991,6,0,P|68:284|76:340,1,87.5
128,104,25307,1,0,0:0:0:0:
188,232,25465,1,0,0:0:0:0:
224,44,25623,2,0,L|224:104,1,43.75
288,152,25781,2,0,L|476:148,1,175
464,344,26255,2,0,P|396:320|276:328,1,175
116,336,26728,1,0,0:0:0:0:
196,176,26886,2,0,L|220:276,1,87.5
48,188,27202,6,0,L|64:88,1,87.5
248,180,27518,2,0,L|232:288,1,87.5
192,60,27834,1,0,0:0:0:0:
392,92,27991,1,0,0:0:0:0:
340,300,28149,1,0,0:0:0:0:
176,260,28307,2,0,B|120:264|100:308|100:308|80:348|28:348,1,175
248,180,28781,2,0,P|280:216|296:272,1,87.5
376,352,29097,2,0,P|392:311|421:279,1,87.5
420,124,29413,1,0,0:0:0:0:
456,348,29570,2,0,P|392:320|280:328,1,175
88,348,30044,6,0,P|124:328|168:288,1,87.5
319,230,30360,2,0,P|283:210|239:170,1,87.5
96,56,30676,1,0,0:0:0:0:
48,252,30834,2,0,B|104:252|132:288|132:288|164:320|216:312,1,175
328,268,31307,2,0,P|336:316|332:360,1,87.5
444,176,31623,2,0,P|441:219|449:262,1,87.5
372,40,31939,2,0,P|356:80|268:136,1,131.25
268,144,32255,6,0,L|280:260,1,87.5
144,348,32570,2,0,L|156:252,1,87.5
104,96,32886,1,0,0:0:0:0:
60,280,33044,1,0,0:0:0:0:
192,52,33202,1,0,0:0:0:0:
228,336,33360,1,0,0:0:0:0:
332,112,33518,5,0,0:0:0:0:
40,184,33676,1,0,0:0:0:0:
264,348,33834,1,0,0:0:0:0:
192,52,33991,2,0,B|152:136|228:132|184:232,1,175
19,299,34465,2,0,B|103:275|144:324|144:324|191:371|295:339,1,262.5
308,196,35097,1,0,0:0:0:0:
356,352,35255,1,0,0:0:0:0:
392,160,35413,1,0,0:0:0:0:
408,292,35570,1,0,0:0:0:0:
480,156,35728,1,0,0:0:0:0:
472,264,35886,1,0,0:0:0:0:
392,160,36044,6,0,P|385:124|384:88,1,65.6250025033952
296,40,36360,2,0,P|294:72|287:104,1,65.6250025033952
176,196,36676,1,0,0:0:0:0:
312,240,36834,1,0,0:0:0:0:
192,312,36991,1,0,0:0:0:0:
328,324,37149,2,0,B|368:320|396:344|396:344|428:364|464:356,1,131.25000500679
448,208,37623,2,0,L|444:292,1,65.6250025033952
356,96,37939,1,0,0:0:0:0:
472,100,38097,1,0,0:0:0:0:
288,184,38255,2,0,P|268:144|264:80,1,98.4375037550928
280,52,38570,6,0,P|248:68|196:76,1,65.6250025033952
48,192,38886,2,0,P|80:176|132:168,1,65.6250025033952
288,184,39202,1,0,0:0:0:0:
124,248,39360,1,0,0:0:0:0:
301,278,39518,1,0,0:0:0:0:
176,320,39676,2,0,B|216:316|244:340|244:340|268:360|312:352,1,131.25000500679
120,232,40149,2,0,P|84:276|96:360,1,131.25000500679
224,244,40623,1,0,0:0:0:0:
48,192,40781,1,0,0:0:0:0:
304,152,40939,1,0,0:0:0:0:
48,88,41097,6,0,B|96:64|96:64|224:76,2,175
160,312,41886,1,0,0:0:0:0:
232,192,42044,1,0,0:0:0:0:
328,336,42202,2,0,P|340:280|416:192,1,175
468,56,42676,2,0,P|436:80|380:92,1,87.5
144,100,42991,1,0,0:0:0:0:
376,180,43149,1,0,0:0:0:0:
156,248,43307,1,0,0:0:0:0:
352,96,43465,1,0,0:0:0:0:
64,236,43623,6,0,P|64:280|76:340,1,87.5
248,256,43939,2,0,P|255:212|255:169,1,87.5
84,56,44255,1,0,0:0:0:0:
336,116,44413,1,0,0:0:0:0:
156,248,44570,1,0,0:0:0:0:
304,36,44728,2,0,P|380:44|424:136,1,175
376,212,45202,2,0,L|384:316,1,87.5
208,324,45518,1,0,0:0:0:0:
472,296,45676,1,0,0:0:0:0:
472,296,45755,1,0,0:0:0:0:
472,296,45834,1,0,0:0:0:0:
308,264,45991,2,0,B|260:264|228:292|228:292|188:320|144:312,1,175
48,252,46939,2,0,L|40:220,2,17.5
140,208,47255,6,0,B|124:48|124:48|136:76|168:88,1,209.999993591309
396,216,47728,2,0,L|404:108,1,104.999996795654
152,332,48044,2,0,L|144:224,1,104.999996795654
464,352,48360,2,0,L|472:244,1,104.999996795654
324,68,48676,5,0,0:0:0:0:
256,296,48834,1,0,0:0:0:0:
468,192,48991,1,0,0:0:0:0:
156,144,49149,2,0,B|120:264|200:240|160:348,1,209.999993591309
84,300,49623,1,0,0:0:0:0:
248,184,49781,2,0,B|308:176|352:212|352:212|392:240|464:228,1,209.999993591309
472,88,50255,1,0,0:0:0:0:
432,336,50413,1,0,0:0:0:0:
288,56,50570,1,0,0:0:0:0:
328,300,50728,1,0,0:0:0:0:
152,52,50886,2,0,L|168:108,1,52.4999983978272
168,348,51044,6,0,P|164:288|88:160,1,209.999993591309
80,336,51518,1,0,0:0:0:0:
216,152,51676,1,0,0:0:0:0:
300,256,51834,2,0,P|312:308|316:360,1,104.999996795654
432,348,52149,1,0,0:0:0:0:
456,196,52307,2,0,L|228:192,1,209.999993591309
416,60,52781,2,0,P|436:108|444:172,1,104.999996795654
248,28,53097,1,0,0:0:0:0:
192,256,53255,1,0,0:0:0:0:
116,76,53413,1,0,0:0:0:0:
60,328,53570,6,0,P|148:356|288:316,1,209.999993591309
416,244,54044,2,0,P|432:192|436:136,1,104.999996795654
312,32,54360,1,0,0:0:0:0:
144,248,54518,1,0,0:0:0:0:
140,40,54676,2,0,L|144:96,1,52.4999983978272
256,148,54834,2,0,B|288:256|216:256|253:352,1,209.999993591309
56,172,55307,5,0,0:0:0:0:
392,256,55465,1,0,0:0:0:0:
104,312,55623,5,0,0:0:0:0:
424,216,55781,1,0,0:0:0:0:
132,84,55939,5,0,0:0:0:0:
272,352,56097,2,0,P|280:256|344:140,1,209.999993591309
408,140,56491,1,0,0:0:0:0:
408,140,56570,1,0,0:0:0:0:
372,296,56728,1,0,0:0:0:0:
372,296,56807,1,0,0:0:0:0:
372,296,56886,1,0,0:0:0:0:
324,272,56965,1,0,0:0:0:0:
272,276,57044,1,0,0:0:0:0:
236,312,57123,1,0,0:0:0:0:
192,340,57202,1,0,0:0:0:0:
140,340,57281,1,0,0:0:0:0:
96,312,57360,6,0,P|76:264|80:108,1,209.999993591309
308,40,57834,1,0,0:0:0:0:
180,256,57991,1,0,0:0:0:0:
188,52,58149,1,0,0:0:0:0:
312,344,58307,1,0,0:0:0:0:
316,188,58465,2,0,P|264:172|156:176,1,157.499995193482
128,188,58781,6,0,P|92:228|76:288,1,104.999996795654
208,348,59097,1,0,0:0:0:0:
400,276,59255,1,0,0:0:0:0:
248,240,59413,1,0,0:0:0:0:
464,200,59570,1,0,0:0:0:0:
328,344,59728,1,0,0:0:0:0:
216,224,59886,2,0,P|184:168|216:32,1,209.999993591309
440,96,60360,2,0,L|320:96,1,104.999996795654
104,248,60676,2,0,L|212:248,1,104.999996795654
108,76,60991,1,0,0:0:0:0:
36,336,61149,6,0,L|280:340,1,209.999993591309
300,136,61623,1,0,0:0:0:0:
404,268,61781,1,0,0:0:0:0:
376,60,61939,1,0,0:0:0:0:
256,252,62097,1,0,0:0:0:0:
208,56,62255,1,0,0:0:0:0:
308,192,62413,2,0,B|380:188|412:240|412:240|440:276|504:272,1,209.999993591309
360,360,62886,6,0,B|332:340|332:340|328:264,1,104.999996795654
200,108,63202,1,0,0:0:0:0:
184,296,63360,1,0,0:0:0:0:
72,68,63518,1,0,0:0:0:0:
240,260,63676,2,0,B|156:260|132:300|132:300|104:340|40:328,1,209.999993591309
312,188,64149,2,0,P|340:232|344:296,1,104.999996795654
192,124,64465,1,0,0:0:0:0:
200,348,64623,1,0,0:0:0:0:
368,64,64781,2,0,L|368:128,1,52.4999983978272
432,340,64939,6,0,B|436:252|436:252|452:216|452:216|456:112,1,209.999993591309
220,64,65413,1,0,0:0:0:0:
436,184,65570,1,0,0:0:0:0:
200,280,65728,1,0,0:0:0:0:
316,88,65886,1,0,0:0:0:0:
324,328,66044,1,0,0:0:0:0:
176,180,66202,2,0,B|240:176|280:216|280:216|316:252|384:240,1,209.999993591309
460,164,66676,6,0,L|468:276,1,104.999996795654
332,352,66991,1,0,0:0:0:0:
316,84,67149,1,0,0:0:0:0:
200,272,67307,2,0,L|196:216,1,52.4999983978272
96,56,67465,2,0,B|48:172|136:152|96:268,1,209.999993591309
52,344,67939,5,0,0:0:0:0:
320,272,68097,1,0,0:0:0:0:
28,208,68255,1,0,0:0:0:0:
335,187,68413,1,0,0:0:0:0:
79,131,68570,1,0,0:0:0:0:
200,272,68728,2,0,B|264:264|300:308|300:308|332:344|402:336,1,209.999993591309
468,268,69202,6,0,P|480:224|480:188,2,69.9999978637696
352,200,69518,2,0,P|340:156|340:120,2,69.9999978637696
460,84,69834,2,0,P|436:56|396:40,2,69.9999978637696
256,112,70149,5,0,0:0:0:0:
196,272,70307,1,0,0:0:0:0:
336,176,70465,1,0,0:0:0:0:
176,176,70623,1,0,0:0:0:0:
308,268,70781,1,0,0:0:0:0:
262,74,70939,5,0,0:0:0:0:
164,298,71097,1,0,0:0:0:0:
372,172,71255,1,0,0:0:0:0:
143,160,71413,1,0,0:0:0:0:
325,301,71571,1,0,0:0:0:0:
271,46,71728,5,0,0:0:0:0:
135,319,71886,1,0,0:0:0:0:
402,174,72044,1,0,0:0:0:0:
117,145,72202,1,0,0:0:0:0:
335,333,72360,1,0,0:0:0:0:
256,236,72518,1,0,0:0:0:0:
256,236,72597,1,0,0:0:0:0:
256,236,72676,6,0,L|321:243,1,52.4999983978272
442,321,72834,2,0,P|460:265|345:175,1,209.999993591309
257,324,73307,1,0,0:0:0:0:
192,163,73465,1,0,0:0:0:0:
192,163,73544,1,0,0:0:0:0:
192,163,73623,2,0,L|140:151,1,52.4999983978272
301,118,73781,5,0,0:0:0:0:
168,88,75044,6,0,P|216:172|220:260,1,175
72,320,75518,2,0,B|128:304|160:332|160:332|188:352|252:336,1,175
304,192,75991,1,0,0:0:0:0:
368,348,76149,1,0,0:0:0:0:
400,108,76307,1,0,0:0:0:0:
400,108,76386,1,0,0:0:0:0:
400,108,76465,6,0,P|420:160|416:208,1,87.5
288,348,76781,2,0,P|289:304|307:264,1,87.5
168,96,77097,1,0,0:0:0:0:
292,244,77255,1,0,0:0:0:0:
292,88,77413,1,0,0:0:0:0:
180,252,77570,2,0,B|128:252|108:288|108:288|80:332|20:324,1,175
269,324,78044,6,0,P|293:280|289:236,1,87.5
208,40,78360,1,0,0:0:0:0:
156,152,78518,1,0,0:0:0:0:
72,64,78676,1,0,0:0:0:0:
76,292,78834,1,0,0:0:0:0:
76,292,78913,1,0,0:0:0:0:
76,292,78991,6,0,P|68:240|40:192,1,87.5
260,188,79307,2,0,P|268:136|296:88,1,87.5
432,112,79623,1,0,0:0:0:0:
176,56,79781,1,0,0:0:0:0:
220,280,79939,2,0,P|232:252|256:224,1,43.75
408,272,80097,2,0,B|356:272|336:308|336:308|308:352|248:344,1,175
48,236,80570,5,0,0:0:0:0:
252,268,80728,1,0,0:0:0:0:
252,268,80807,1,0,0:0:0:0:
252,268,80886,1,0,0:0:0:0:
92,128,81044,5,0,0:0:0:0:
144,348,81202,1,0,0:0:0:0:
200,48,81360,1,0,0:0:0:0:
200,48,81439,1,0,0:0:0:0:
200,48,81518,5,0,0:0:0:0:
220,344,81676,1,0,0:0:0:0:
328,24,81834,5,0,0:0:0:0:
304,352,81991,1,0,0:0:0:0:
304,352,82070,1,0,0:0:0:0:
304,352,82149,1,0,0:0:0:0:
416,44,82307,5,0,0:0:0:0:
64,192,82465,1,0,0:0:0:0:
441,274,82623,2,0,B|389:274|369:310|369:310|341:354|281:346,1,175
400,136,83097,5,0,0:0:0:0:
64,192,83255,1,0,0:0:0:0:
64,192,83334,1,0,0:0:0:0:
64,192,83413,1,0,0:0:0:0:
440,176,83570,5,0,0:0:0:0:
64,276,83728,2,0,B|116:276|136:312|136:312|164:356|224:348,1,175
324,256,84202,5,0,0:0:0:0:
324,256,84281,1,0,0:0:0:0:
324,256,84360,2,0,L|272:264,1,43.75
136,136,84518,1,0,0:0:0:0:
136,136,84597,1,0,0:0:0:0:
136,136,84676,2,0,L|188:144,1,43.75
344,76,84834,1,0,0:0:0:0:
344,76,84913,1,0,0:0:0:0:
344,76,84992,2,0,L|292:84,1,43.75
60,164,85149,1,0,0:0:0:0:
256,192,85228,12,0,88149,0:0:0:0:
