osu file format v14

[General]
AudioFilename: audio.mp3
AudioLeadIn: 0
PreviewTime: 65749
Countdown: 0
SampleSet: Normal
StackLeniency: 0.7
Mode: 0
LetterboxInBreaks: 0
WidescreenStoryboard: 1

[Editor]
Bookmarks: 43978,53578,54950,76893,98836
DistanceSpacing: 1.3
BeatDivisor: 4
GridSize: 4
TimelineZoom: 1

[Metadata]
Title:Back In Time
TitleUnicode:Back In Time
Artist:Liquid Kaos ft. Kirsty Hawkshaw
ArtistUnicode:Liquid Kaos ft. Kirsty Hawkshaw
Creator:hanfan
Version:Insane
Source:
Tags:
BeatmapID:1704320
BeatmapSetID:812547

[Difficulty]
HPDrainRate:6
CircleSize:4
OverallDifficulty:7
ApproachRate:8.5
SliderMultiplier:1.6
SliderTickRate:1

[Events]
//Background and Video events
0,0,"thumb-1920-680680.jpg",0,0
//Break Periods
//Storyboard Layer 0 (Background)
//Storyboard Layer 1 (Fail)
//Storyboard Layer 2 (Pass)
//Storyboard Layer 3 (Foreground)
//Storyboard Sound Samples

[TimingPoints]
11064,342.857142857143,4,2,0,30,1,0
11099,-142.857142857143,4,2,0,30,0,0
22036,-166.666666666667,4,2,0,30,0,0
43978,-100,4,1,0,30,0,0
65921,-83.3333333333333,4,1,0,35,0,1
87864,-100,4,1,0,30,0,0
97636,-76.9230769230769,4,1,0,30,0,0
98836,-100,4,1,0,30,0,0

[Colours]
Combo1 : 255,137,6
Combo2 : 0,132,119
Combo3 : 0,187,98
Combo4 : 255,202,91
Combo5 : 255,236,102
Combo6 : 168,249,255

[HitObjects]
84,96,11064,5,0,0:0:0:0:
152,40,11236,1,0,0:0:0:0:
204,164,11407,2,0,L|210:108,1,55.9999982910157,0|0,0:0|0:0,0:0:0:0:
288,200,11750,2,0,P|268:272|280:316,1,111.999996582031,0|0,0:0|0:0,0:0:0:0:
354,355,12264,1,0,0:0:0:0:
424,306,12436,6,0,P|431:251|411:199,1,111.999996582031,0|0,0:0|0:0,0:0:0:0:
351,137,12950,1,0,0:0:0:0:
232,32,13121,2,0,P|244:84|228:148,1,111.999996582031,0|0,0:0|0:0,0:0:0:0:
180,208,13636,1,0,0:0:0:0:
116,84,13807,38,0,P|200:56|284:84,2,167.999994873047,0|0|0,0:0|0:0|0:0,0:0:0:0:
60,152,15007,1,0,0:0:0:0:
124,228,15178,22,0,L|120:284,1,55.9999982910157,0|0,0:0|0:0,0:0:0:0:
204,272,15521,2,0,L|208:328,1,55.9999982910157,0|0,0:0|0:0,0:0:0:0:
40,312,15864,2,0,L|44:368,1,55.9999982910157,0|0,0:0|0:0,0:0:0:0:
288,188,16207,2,0,L|284:244,1,55.9999982910157,0|0,0:0|0:0,0:0:0:0:
280,368,16550,5,0,0:0:0:0:
344,304,16721,1,0,0:0:0:0:
436,364,16893,2,0,L|432:308,1,55.9999982910157,0|0,0:0|0:0,0:0:0:0:
392,220,17236,2,0,P|392:160|424:116,1,111.999996582031,0|0,0:0|0:0,0:0:0:0:
484,64,17750,37,0,0:0:0:0:
498,217,17921,2,0,P|442:233|386:217,1,111.999996582031,0|0,0:0|0:0,0:0:0:0:
332,164,18436,1,0,0:0:0:0:
416,56,18607,2,0,L|352:52,1,55.9999982910157,0|0,0:0|0:0,0:0:0:0:
224,100,18950,2,0,L|280:96,1,55.9999982910157,0|0,0:0|0:0,0:0:0:0:
108,40,19293,22,0,P|144:96|116:192,2,167.999994873047
48,108,20493,1,0,0:0:0:0:
119,188,20664,1,0,0:0:0:0:
61,284,20835,1,0,0:0:0:0:
268,324,21007,6,0,L|272:264,1,55.9999982910157
356,184,21350,2,0,L|352:239,1,55.9999982910157,0|0,0:0|0:0,0:0:0:0:
272,160,21693,2,0,L|275:104,1,55.9999982910157,0|0,0:0|0:0,0:0:0:0:
356,320,22035,37,6,0:3:0:0:
355,319,22721,2,0,P|310:305|280:269,2,95.9999970703126,2|0|2,0:3|0:0|0:3,0:0:0:0:
408,204,23750,2,0,L|412:92,1,95.9999970703126,0|2,0:0|0:3,0:0:0:0:
320,36,24436,1,0,0:0:0:0:
172,236,24778,21,6,0:3:0:0:
172,236,25464,2,0,L|156:332,2,95.9999970703126,2|0|2,0:3|0:0|0:3,0:0:0:0:
40,64,26493,2,0,P|96:52|136:68,1,95.9999970703126,0|2,0:0|0:3,0:0:0:0:
220,136,27178,1,0,0:0:0:0:
72,296,27521,5,6,0:3:0:0:
231,363,27864,1,0,0:0:0:0:
135,366,28036,1,0,0:0:0:0:
140,248,28207,2,0,P|168:208|216:196,1,95.9999970703126,2|0,0:3|0:0,0:0:0:0:
288,208,28721,1,0,0:0:0:0:
436,304,28893,38,0,P|391:284|369:240,1,95.9999970703126,2|0,0:3|0:0,0:0:0:0:
368,164,29407,1,0,0:0:0:0:
448,32,29578,2,0,L|444:132,1,95.9999970703126,2|0,0:3|0:0,0:0:0:0:
440,216,30093,1,0,0:0:0:0:
404,364,30264,22,0,P|386:316|340:295,1,95.9999970703126,6|0,0:3|0:0,0:0:0:0:
148,288,30950,2,0,P|195:268|211:213,1,95.9999970703126,2|0,0:3|0:0,0:0:0:0:
360,148,31636,6,0,P|328:88|256:56,2,143.999995605469,2|0|0,0:3|0:0|0:0,0:0:0:0:
168,340,33007,37,6,0:3:0:0:
168,340,33693,2,0,L|64:352,2,95.9999970703126,2|0|2,0:3|0:0|0:3,0:0:0:0:
408,224,34721,1,0,0:0:0:0:
277,162,35064,1,2,0:3:0:0:
376,136,35407,1,0,0:0:0:0:
312,360,35750,21,6,0:3:0:0:
312,360,36436,2,0,L|320:292,1,47.9999985351563,2|0,0:3|0:0,0:0:0:0:
336,188,36778,1,0,0:0:0:0:
244,160,36950,2,0,P|248:224|272:260,1,95.9999970703126,0|0,0:0|0:0,0:0:0:0:
317,312,37464,2,0,L|325:380,1,47.9999985351563,0|0,0:0|0:0,0:0:0:0:
402,291,37807,2,0,L|408:244,1,47.9999985351563,2|0,0:3|0:0,0:0:0:0:
257,202,38150,2,0,L|265:270,1,47.9999985351563,0|0,0:0|0:0,0:0:0:0:
256,352,38493,5,4,0:3:0:0:
416,192,39178,1,4,0:3:0:0:
256,32,39864,1,4,0:3:0:0:
96,192,40550,1,4,0:3:0:0:
256,320,41235,38,0,L|272:256,1,47.9999985351563,0|0,3:0|3:0,0:0:0:0:
384,192,41579,2,0,L|320:176,1,47.9999985351563,0|0,3:0|3:0,0:0:0:0:
256,80,41921,2,0,L|240:144,1,47.9999985351563,0|0,3:0|3:0,0:0:0:0:
128,192,42264,2,0,L|192:208,1,47.9999985351563,0|0,3:0|3:0,0:0:0:0:
255,256,42607,21,0,3:0:0:0:
320,192,42778,1,0,3:0:0:0:
256,128,42950,1,0,3:0:0:0:
192,192,43121,1,0,3:0:0:0:
336,272,43293,5,0,3:0:0:0:
336,112,43464,1,0,3:0:0:0:
160,112,43636,1,2,3:0:0:0:
160,272,43807,1,0,3:0:0:0:
74,209,43978,54,0,P|38:181|28:147,1,80
104,46,44321,1,8,0:0:0:0:
165,124,44493,2,0,P|190:94|198:55,1,80,0|4,0:0|0:3,0:0:0:0:
290,72,44836,2,0,P|297:33|318:0,1,80,0|8,0:0|0:0,0:0:0:0:
383,60,45178,2,0,P|427:68|459:92,1,80,0|0,0:0|0:0,0:0:0:0:
512,175,45521,1,0,0:0:0:0:
430,222,45693,37,8,0:0:0:0:
488,298,45864,1,0,0:0:0:0:
343,261,46036,1,4,0:3:0:0:
275,188,46207,1,0,0:0:0:0:
222,368,46378,1,8,0:0:0:0:
258,280,46550,1,0,0:0:0:0:
31,235,46721,6,0,P|55:299|91:319,1,80,0|0,0:0|0:0,0:0:0:0:
139,347,47064,1,8,0:0:0:0:
257,217,47236,1,0,0:0:0:0:
166,179,47407,2,0,P|126:203|110:239,1,80,4|0,0:3|0:0,0:0:0:0:
197,265,47750,1,8,0:0:0:0:
278,32,47921,1,0,0:0:0:0:
238,132,48093,1,0,0:0:0:0:
309,261,48264,1,0,0:0:0:0:
376,196,48436,22,0,P|344:172|280:176,1,80,8|0,0:0|0:0,0:0:0:0:
172,30,48778,2,0,P|177:72|201:104,1,80,4|0,0:3|0:0,0:0:0:0:
128,162,49121,2,0,P|133:206|113:251,1,80,8|0,0:0|0:0,0:0:0:0:
129,336,49464,38,0,P|85:335|49:302,1,80
200,211,49807,1,8,0:0:0:0:
298,209,49979,2,0,P|294:247|272:281,1,80,0|4,0:0|0:3,0:0:0:0:
110,207,50322,2,0,P|119:168|143:136,1,80,0|8,0:0|0:0,0:0:0:0:
112,297,50664,2,0,P|73:289|40:265,1,80,0|0,0:0|0:0,0:0:0:0:
35,155,51007,1,0,0:0:0:0:
242,196,51179,5,8,0:0:0:0:
320,304,51350,1,0,0:0:0:0:
243,234,51522,1,4,0:3:0:0:
168,304,51693,1,0,0:0:0:0:
243,151,51864,1,8,0:0:0:0:
320,304,52036,1,0,0:0:0:0:
324,96,52207,22,0,P|348:32|384:12,1,80
424,100,52550,1,8,0:0:0:0:
344,180,52722,1,0,0:0:0:0:
188,152,52893,2,0,P|148:128|132:92,1,80,4|0,0:3|0:0,0:0:0:0:
224,64,53236,1,8,0:0:0:0:
128,320,53407,1,0,0:0:0:0:
200,240,53579,1,0,0:0:0:0:
280,304,53750,1,0,0:0:0:0:
400,196,53922,38,0,P|368:220|304:216,1,80,8|0,0:0|0:0,0:0:0:0:
132,176,54264,2,0,P|164:152|228:156,1,80,4|0,0:3|0:0,0:0:0:0:
382,71,54607,2,0,P|345:52|304:57,1,80,8|0,0:0|0:0,0:0:0:0:
124,153,54950,6,0,P|160:125|170:91,1,80
242,186,55293,2,8,P|248:225|275:252,1,80,8|12,0:0|0:3,0:0:0:0:
159,23,55635,1,0,0:0:0:0:
349,165,55806,2,0,L|362:77,1,80,0|8,0:0|0:0,0:0:0:0:
250,97,56149,2,0,P|211:99|170:128,1,80
33,145,56493,1,0,0:0:0:0:
113,211,56664,21,8,0:0:0:0:
44,289,56836,1,0,0:0:0:0:
125,354,57006,1,4,0:3:0:0:
194,276,57179,1,0,0:0:0:0:
178,122,57350,1,8,0:0:0:0:
281,194,57522,1,0,0:0:0:0:
416,26,57693,38,0,P|409:71|356:110,1,80
313,163,58035,1,8,0:0:0:0:
244,84,58206,1,0,0:0:0:0:
424,182,58378,2,0,P|464:206|480:242,1,80,4|0,0:3|0:0,0:0:0:0:
372,282,58721,1,8,0:0:0:0:
236,109,58892,1,0,0:0:0:0:
302,193,59064,1,0,0:0:0:0:
204,315,59235,1,0,0:0:0:0:
23,213,59407,5,8,0:0:0:0:
23,213,59578,1,0,0:0:0:0:
23,213,59750,2,0,P|55:189|119:193,1,80,4|0,0:3|0:0,0:0:0:0:
218,220,60093,2,0,P|213:264|233:309,1,80,8|0,0:0|0:0,0:0:0:0:
419,227,60436,22,0,P|386:249|347:249,1,80
248,156,60779,2,8,P|226:123|222:84,1,80,8|12,0:0|0:3,0:0:0:0:
333,81,61122,1,0,0:0:0:0:
448,74,61292,2,0,P|439:35|413:2,1,80,0|8,0:0|0:0,0:0:0:0:
350,226,61636,2,0,P|388:218|421:194,1,80,0|0,0:0|0:0,0:0:0:0:
222,84,61978,1,0,0:0:0:0:
203,207,62149,37,8,0:0:0:0:
127,324,62321,1,0,0:0:0:0:
221,219,62492,1,4,0:3:0:0:
145,337,62664,1,0,0:0:0:0:
260,318,62835,1,8,0:0:0:0:
92,210,63006,1,0,0:0:0:0:
188,96,63179,6,0,P|164:32|128:12,1,80,0|0,0:0|0:0,0:0:0:0:
88,100,63522,1,8,0:0:0:0:
168,180,63692,1,0,0:0:0:0:
73,338,63865,2,0,P|113:314|129:278,1,80,4|0,0:3|0:0,0:0:0:0:
235,247,64206,1,8,0:0:0:0:
333,344,64379,1,0,0:0:0:0:
335,213,64549,1,0,0:0:0:0:
223,354,64722,1,0,0:0:0:0:
106,104,64892,22,0,P|138:128|202:124,1,80,8|0,0:0|0:0,0:0:0:0:
415,104,65236,2,0,P|375:107|343:131,1,80,4|0,0:3|0:0,0:0:0:0:
258,254,65579,2,0,P|248:301|264:352,1,80,8|0,0:0|0:0,0:0:0:0:
236,56,65921,37,0,0:0:0:0:
279,223,66093,1,0,0:0:0:0:
155,152,66264,1,8,0:0:0:0:
288,134,66436,1,0,0:0:0:0:
371,205,66607,5,4,0:3:0:0:
222,292,66779,1,0,0:0:0:0:
279,223,66950,1,8,0:0:0:0:
360,330,67122,1,0,0:0:0:0:
127,343,67293,22,0,P|106:303|119:239,1,95.9999970703126
47,175,67636,2,0,P|68:135|55:71,1,95.9999970703126,8|0,0:0|0:0,0:0:0:0:
155,172,67978,38,0,P|195:151|259:164,1,95.9999970703126,4|0,0:3|0:0,0:0:0:0:
229,327,68321,2,0,P|208:287|221:223,1,95.9999970703126,8|0,0:0|0:0,0:0:0:0:
312,60,68664,5,0,0:0:0:0:
428,187,68836,1,0,0:0:0:0:
472,82,69007,2,0,P|424:77|371:130,1,95.9999970703126,8|0,0:0|0:0,0:0:0:0:
315,181,69349,21,4,0:3:0:0:
381,340,69522,1,0,0:0:0:0:
413,239,69693,2,0,L|316:268,1,95.9999970703126,8|0,0:0|0:0,0:0:0:0:
250,197,70036,37,0,0:0:0:0:
91,263,70206,1,0,0:0:0:0:
175,340,70379,2,0,P|196:296|164:228,1,95.9999970703126,8|0,0:0|0:0,0:0:0:0:
22,192,70722,5,4,0:3:0:0:
88,33,70892,1,0,0:0:0:0:
28,106,71065,2,0,L|119:133,1,95.9999970703126,8|0,0:0|0:0,0:0:0:0:
237,164,71407,21,0,0:0:0:0:
344,68,71578,1,0,0:0:0:0:
419,260,71750,1,8,0:0:0:0:
323,153,71921,1,0,0:0:0:0:
409,142,72093,37,4,0:3:0:0:
302,238,72264,1,0,0:0:0:0:
227,46,72436,1,8,0:0:0:0:
323,153,72607,1,0,0:0:0:0:
278,325,72778,5,0,0:0:0:0:
188,252,72950,1,0,0:0:0:0:
93,317,73121,2,0,P|104:256|85:209,1,95.9999970703126,8|0,0:0|0:0,0:0:0:0:
16,33,73464,21,4,0:3:0:0:
31,147,73636,1,0,0:0:0:0:
133,94,73807,2,0,P|188:74|237:95,1,95.9999970703126,8|0,0:0|0:0,0:0:0:0:
346,39,74150,38,0,P|315:113|342:164,1,95.9999970703126,0|0,0:0|0:0,0:0:0:0:
393,242,74493,2,0,P|424:168|397:117,1,95.9999970703126,8|0,0:0|0:0,0:0:0:0:
291,214,74836,1,4,0:3:0:0:
325,323,75007,1,0,0:0:0:0:
216,166,75178,2,0,P|155:148|95:178,1,95.9999970703126,8|0,0:0|0:0,0:0:0:0:
42,223,75521,6,0,L|54:328,1,95.9999970703126,0|0,0:0|0:0,0:0:0:0:
142,371,75864,2,0,L|154:266,1,95.9999970703126,8|0,0:0|0:0,0:0:0:0:
289,284,76207,1,4,0:3:0:0:
315,136,76378,1,0,0:0:0:0:
315,136,76464,1,0,0:0:0:0:
315,136,76550,2,0,P|254:179|209:172,1,95.9999970703126,8|0,0:0|0:0,0:0:0:0:
131,245,76893,21,0,0:0:0:0:
171,107,77064,1,0,0:0:0:0:
203,197,77236,1,8,0:0:0:0:
294,70,77407,1,0,0:0:0:0:
422,281,77578,37,4,0:3:0:0:
283,241,77749,1,0,0:0:0:0:
373,209,77921,1,8,0:0:0:0:
246,118,78092,1,0,0:0:0:0:
179,318,78264,5,0,0:0:0:0:
91,277,78436,1,0,0:0:0:0:
88,181,78607,1,8,0:0:0:0:
170,132,78778,1,0,0:0:0:0:
177,227,78950,22,0,P|258:233|279:259,1,95.9999970703126,4|0,0:3|0:0,0:0:0:0:
357,210,79293,2,0,P|351:291|325:312,1,95.9999970703126,8|0,0:0|0:0,0:0:0:0:
208,306,79636,37,0,0:0:0:0:
237,165,79807,1,0,0:0:0:0:
155,84,79978,1,8,0:0:0:0:
62,153,80150,1,0,0:0:0:0:
236,258,80321,5,4,0:3:0:0:
154,177,80492,1,0,0:0:0:0:
322,160,80664,1,8,0:0:0:0:
240,79,80835,1,0,0:0:0:0:
345,58,81007,22,0,P|416:43|460:65,1,95.9999970703126,0|0,0:0|0:0,0:0:0:0:
400,137,81350,2,0,P|362:195|379:249,1,95.9999970703126,8|0,0:0|0:0,0:0:0:0:
308,297,81693,2,0,P|379:312|423:290,1,95.9999970703126,4|0,0:3|0:0,0:0:0:0:
363,218,82036,2,0,P|325:160|342:106,1,95.9999970703126,8|0,0:0|0:0,0:0:0:0:
253,40,82378,38,0,L|234:141,1,95.9999970703126,0|0,0:0|0:0,0:0:0:0:
156,219,82721,1,8,0:0:0:0:
66,145,82893,1,0,0:0:0:0:
124,33,83064,6,0,L|166:126,1,95.9999970703126,4|0,0:3|0:0,0:0:0:0:
266,173,83407,1,8,0:0:0:0:
340,85,83578,1,0,0:0:0:0:
384,181,83750,22,0,L|409:290,1,95.9999970703126,0|0,0:0|0:0,0:0:0:0:
297,274,84093,2,0,L|322:383,1,95.9999970703126,8|0,0:0|0:0,0:0:0:0:
213,193,84436,38,0,L|188:302,1,95.9999970703126,4|0,0:3|0:0,0:0:0:0:
85,276,84778,2,0,L|110:385,1,95.9999970703126,0|0,0:0|0:0,0:0:0:0:
22,126,85121,6,0,P|84:97|135:104,1,95.9999970703126,0|0,0:0|0:0,0:0:0:0:
223,31,85464,2,0,B|216:135|216:135|172:196,1,143.999995605469,8|0,0:0|0:0,0:0:0:0:
122,188,85807,22,0,P|159:233|217:235,1,95.9999970703126,4|0,0:3|0:0,0:0:0:0:
362,108,86150,2,0,B|355:212|355:212|311:273,1,143.999995605469,8|0,0:0|0:0,0:0:0:0:
262,266,86493,38,0,P|299:311|357:313,1,95.9999970703126,0|0,0:0|0:0,0:0:0:0:
414,61,86836,2,0,P|361:36|308:60,1,95.9999970703126,8|0,0:0|0:0,0:0:0:0:
272,99,87178,2,0,L|229:136,1,47.9999985351563
189,72,87350,38,0,B|150:104|150:104,1,47.9999985351563
127,125,87521,1,2,0:3:0:0:
95,137,87607,1,0,0:0:0:0:
61,135,87693,1,8,0:3:0:0:
35,113,87778,1,0,0:0:0:0:
21,88,87864,6,0,L|-3:187,1,80,0|0,0:0|0:0,0:0:0:0:
29,365,88207,2,0,L|47:287,1,80,8|0,0:0|0:0,0:0:0:0:
130,199,88550,1,4,0:3:0:0:
151,217,88636,1,0,0:0:0:0:
174,232,88721,2,0,L|264:225,1,80,0|8,0:0|0:0,0:0:0:0:
377,209,89064,2,0,B|366:157|366:157|325:140|325:140|306:60,1,160,0|0,0:0|0:0,0:0:0:0:
150,167,89578,5,8,0:0:0:0:
212,58,89750,2,0,P|176:48|108:63,1,80,0|4,0:0|0:3,0:0:0:0:
31,146,90093,2,0,L|88:307,1,160,0|0,0:0|0:0,0:0:0:0:
240,362,90607,38,0,L|258:284,1,80,0|0,0:0|0:0,0:0:0:0:
457,107,90950,2,0,L|433:206,1,80,8|0,0:0|0:0,0:0:0:0:
382,358,91293,1,4,0:3:0:0:
390,331,91378,1,0,0:0:0:0:
392,303,91464,2,0,P|375:260|332:236,1,80,0|8,0:0|0:0,0:0:0:0:
268,167,91807,2,0,B|205:169|205:169|166:150|166:150|89:153,1,160,0|0,0:0|0:0,0:0:0:0:
292,75,92321,21,8,0:0:0:0:
164,257,92493,1,0,0:0:0:0:
46,124,92664,1,4,0:3:0:0:
223,323,92836,1,0,0:0:0:0:
223,169,93007,2,0,L|325:183,1,80,8|0,0:0|0:0,0:0:0:0:
438,27,93350,6,0,L|414:126,1,80,0|0,0:0|0:0,0:0:0:0:
420,350,93693,2,0,L|438:272,1,80,8|0,0:0|0:0,0:0:0:0:
366,184,94036,1,4,0:3:0:0:
339,174,94122,1,0,0:0:0:0:
311,171,94207,2,0,L|231:177,1,80,0|8,0:0|0:0,0:0:0:0:
150,307,94550,2,0,B|148:252|148:252|114:216|114:216|109:155,1,160,0|0,0:0|0:0,0:0:0:0:
82,48,95064,37,8,0:0:0:0:
189,183,95236,1,0,0:0:0:0:
14,127,95407,1,4,0:3:0:0:
173,83,95578,1,0,0:0:0:0:
65,227,95750,1,8,0:0:0:0:
173,83,95921,1,0,0:0:0:0:
284,36,96093,22,0,B|262:91|326:127|301:197,1,160,0|8,0:0|0:0,0:0:0:0:
433,177,96607,2,0,L|444:118,1,40,0|0,0:0|0:0,0:0:0:0:
511,176,96778,6,0,B|513:243|441:258|445:317,1,160,4|8,0:3|0:0,0:0:0:0:
365,367,97293,1,0,0:0:0:0:
160,70,97636,38,0,L|242:52,1,51.999997619629,0|0,0:0|0:0,0:0:0:0:
223,133,97807,2,0,L|331:107,1,103.999995239258,8|0,0:0|0:0,0:0:0:0:
139,228,98150,2,0,L|79:244,1,51.999997619629,4|0,0:3|0:0,0:0:0:0:
32,332,98321,2,0,L|142:303,1,103.999995239258,0|8,0:0|0:0,0:0:0:0:
336,334,98664,2,0,L|386:320,1,51.999997619629,0|0,0:0|0:0,0:0:0:0:
459,269,98836,22,0,L|483:368,1,80,0|0,0:0|0:0,0:0:0:0:
362,149,99178,2,0,L|343:71,1,80,8|0,0:0|0:0,0:0:0:0:
293,262,99522,1,4,0:3:0:0:
266,249,99606,1,0,0:0:0:0:
238,245,99693,2,0,P|193:247|147:280,1,80,0|8,0:0|0:0,0:0:0:0:
276,118,100036,2,0,P|202:107|131:24,1,160,0|0,0:0|0:0,0:0:0:0:
262,3,100550,5,8,0:0:0:0:
136,179,100721,1,0,0:0:0:0:
285,293,100893,1,4,0:3:0:0:
248,184,101064,1,0,0:0:0:0:
376,196,101236,1,8,0:0:0:0:
215,366,101407,1,0,0:0:0:0:
445,272,101579,38,0,L|469:371,1,80,0|0,0:0|0:0,0:0:0:0:
285,141,101921,2,0,L|266:63,1,80,8|0,0:0|0:0,0:0:0:0:
312,278,102265,1,4,0:3:0:0:
335,262,102350,1,0,0:0:0:0:
357,244,102436,2,0,L|267:237,1,80,0|8,0:0|0:0,0:0:0:0:
61,167,102779,2,0,B|122:151|122:151|150:173|150:173|230:148,1,160,0|0,0:0|0:0,0:0:0:0:
71,80,103293,21,8,0:0:0:0:
28,328,103465,1,0,0:0:0:0:
108,232,103636,1,4,0:3:0:0:
161,339,103806,1,0,0:0:0:0:
298,212,103979,2,0,L|193:214,1,80,8|0,0:0|0:0,0:0:0:0:
205,60,104322,6,0,L|229:159,1,80,0|0,0:0|0:0,0:0:0:0:
257,370,104664,2,0,L|275:292,1,80,8|0,0:0|0:0,0:0:0:0:
330,127,105006,1,4,0:3:0:0:
354,140,105092,1,0,0:0:0:0:
376,156,105179,2,0,P|403:202|401:240,1,80,0|8,0:0|0:0,0:0:0:0:
257,370,105522,2,0,B|271:310|271:310|246:278|246:278|268:195,1,160,0|0,0:0|0:0,0:0:0:0:
308,36,106036,37,8,0:0:0:0:
185,202,106206,1,0,0:0:0:0:
331,260,106379,1,4,0:3:0:0:
143,124,106550,1,0,0:0:0:0:
413,225,106722,1,8,0:0:0:0:
238,294,106893,1,0,0:0:0:0:
237,103,107064,22,0,P|216:182|125:218,1,160,0|8,0:0|0:0,0:0:0:0:
52,141,107578,1,0,0:0:0:0:
170,305,107750,2,0,P|91:284|55:193,1,160,4|8,0:3|0:0,0:0:0:0:
143,124,108264,1,0,0:0:0:0:
260,294,108436,6,0,L|369:304,1,80,0|0,0:0|0:0,0:0:0:0:
503,230,108778,2,0,L|422:224,1,80,8|0,0:0|0:0,0:0:0:0:
111,81,109121,37,4,0:3:0:0:
225,117,109293,2,0,L|386:94,1,160,0|0,0:0|0:0,0:0:0:0:
256,192,109807,12,0,112550,0:0:0:0:
