osu file format v14

[General]
AudioFilename: audio.mp3
AudioLeadIn: 0
PreviewTime: 183175
Countdown: 0
SampleSet: Soft
StackLeniency: 0.6
Mode: 0
LetterboxInBreaks: 0
WidescreenStoryboard: 1

[Editor]
DistanceSpacing: 1.15
BeatDivisor: 4
GridSize: 8
TimelineZoom: 1

[Metadata]
Title:A Light That Never Comes
TitleUnicode:A Light That Never Comes
Artist:Linkin Park, Steve Aoki
ArtistUnicode:Linkin Park, Steve Aoki
Creator:pw384
Version:Normal
Source:
Tags:Recharged HootOwlStar 384059043
BeatmapID:1229255
BeatmapSetID:566773

[Difficulty]
HPDrainRate:3.3
CircleSize:3.3
OverallDifficulty:3.3
ApproachRate:3.3
SliderMultiplier:1.4
SliderTickRate:1

[Events]
//Background and Video events
0,0,"bg.jpg",0,0
//Break Periods
2,42114,48175
2,92201,98423
2,158982,165044
//Storyboard Layer 0 (Background)
//Storyboard Layer 1 (Fail)
//Storyboard Layer 2 (Pass)
//Storyboard Layer 3 (Foreground)
//Storyboard Sound Samples

[TimingPoints]
175,521.739130434783,4,2,0,80,1,0
305,-100,4,2,0,60,0,0
8001,-100,4,1,0,40,0,0
8522,-100,4,2,0,60,0,0
16870,-100,4,2,0,40,0,0
17392,-100,4,2,0,60,0,0
24696,-100,4,1,0,40,0,0
25218,-100,4,2,0,65,0,0
41392,-100,4,2,0,80,0,0
41914,-100,4,2,0,40,0,0
50261,-100,4,3,0,40,0,0
52348,-100,4,3,0,45,0,0
54435,-100,4,3,0,50,0,0
56522,-100,4,3,0,55,0,0
58609,-100,4,3,0,60,0,0
71131,-100,4,2,0,40,0,0
74783,-100,4,1,0,40,0,0
75305,-100,4,2,0,60,0,0
78957,-100,4,2,0,60,0,0
79479,-100,4,2,0,60,0,0
83131,-100,4,1,0,40,0,0
83653,-100,4,2,0,60,0,0
91479,-100,4,1,0,40,0,0
92001,-100,4,2,0,60,0,0
100348,-100,4,2,0,60,0,0
108175,-100,4,1,0,40,0,0
108696,-100,4,2,0,50,0,0
117044,-100,4,3,0,60,0,0
121218,-100,4,3,0,65,0,0
125392,-100,4,2,0,70,0,0
133218,-100,4,1,0,55,0,0
133740,-100,4,2,0,75,0,0
141566,-100,4,1,0,60,0,0
142088,-100,4,2,0,80,0,1
149914,-100,4,1,0,60,0,0
150435,-100,4,2,0,80,0,1
158261,-100,4,1,0,60,0,1
158783,-100,4,2,0,50,0,0
181740,-100,4,2,0,60,0,0
183305,-100,4,2,0,60,0,0
183827,-100,4,2,0,85,0,1
191653,-100,4,2,0,85,0,0
192175,-100,4,2,0,85,0,1
200001,-100,4,1,0,60,0,0
200522,-100,4,2,0,85,0,1
208348,-100,4,1,0,60,0,0
208870,-100,4,2,0,85,0,1
216696,-100,4,1,0,60,0,1
217218,-100,4,2,0,70,0,0
220870,-100,4,2,0,70,0,0
221392,-100,4,2,0,70,0,0
225044,-100,4,2,0,85,0,0
225566,-100,4,2,0,5,0,0

[Colours]
Combo1 : 85,85,85
Combo2 : 233,233,233

[HitObjects]
240,16,175,6,0,P|181:94|90:59,1,210,0|2,1:0|0:0,0:0:0:0:
160,16,1218,2,0,B|161:69|201:103|232:94|270:127|273:181,1,210,0|2,1:0|0:0,0:0:0:0:
192,180,2261,2,0,B|190:233|150:267|119:258|81:291|78:345,1,210,0|2,1:0|0:0,0:0:0:0:
160,344,3305,2,0,P|224:376|352:344,1,210,0|2,1:0|0:0,0:0:0:0:
433,345,4348,6,0,B|430:291|392:258|361:267|321:233|320:180,1,210,0|2,1:0|0:0,0:0:0:0:
238,181,5392,2,0,B|241:127|279:94|310:103|350:69|352:16,1,210,0|2,1:0|0:0,0:0:0:0:
421,59,6435,2,0,P|330:94|272:16,1,210,0|2,1:0|0:0,0:0:0:0:
192,32,7479,2,0,L|112:40,1,70,0|0,1:0|1:0,0:0:0:0:
40,24,8001,1,0,1:0:0:0:
96,152,8522,6,0,L|80:296,1,140,4|0,1:0|1:0,0:0:0:0:
112,368,9305,1,2,0:0:0:0:
188,336,9566,2,0,P|256:320|324:336,1,140,0|0,1:0|0:0,0:0:0:0:
400,368,10348,1,2,0:0:0:0:
431,291,10609,2,0,L|416:152,2,140,0|0|0,1:0|1:0|1:0,0:0:0:0:
512,272,11914,2,0,L|504:200,2,70,0|0|2,0:0|0:0|0:0,0:0:0:0:
431,291,12696,6,0,P|374:292|318:234,2,140,0|0|0,1:0|1:0|1:0,0:0:0:0:
398,214,14001,2,0,L|390:142,2,70,0|0|0,0:0|0:0|0:0,0:0:0:0:
318,236,14783,2,0,P|252:209|193:236,2,140,0|0|0,1:0|1:0|1:0,0:0:0:0:
256,288,16088,2,0,L|256:360,2,70,0|0|2,0:0|0:0|0:0,0:0:0:0:
193,235,16870,6,0,P|149:287|81:291,1,140,4|0,1:0|0:0,0:0:0:0:
114,214,17653,1,2,0:0:0:0:
35,193,17914,2,0,P|79:141|147:137,1,140,0|0,1:0|0:0,0:0:0:0:
216,96,18696,1,2,0:0:0:0:
256,168,18957,2,0,L|256:240,2,70,0|2|0,1:0|0:0|1:0,0:0:0:0:
296,96,19740,1,2,0:0:0:0:
364,137,20001,2,0,P|432:141|477:193,1,140,0|0,1:0|0:0,0:0:0:0:
398,214,20783,1,2,0:0:0:0:
431,290,21044,6,0,P|363:287|319:234,2,140,0|0|0,1:0|1:0|1:0,0:0:0:0:
296,376,22609,1,0,1:0:0:0:
216,376,22870,1,2,0:0:0:0:
256,304,23131,1,0,1:0:0:0:
144,192,23653,1,0,1:0:0:0:
256,80,24175,1,0,1:0:0:0:
368,192,24696,1,0,0:0:0:0:
496,288,25218,6,0,B|432:284|432:284|360:324|360:324|296:320,1,210,4|2,1:0|0:0,0:0:0:0:
216,320,26261,2,0,B|152:324|152:324|80:284|80:284|16:288,1,210,0|2,1:0|0:0,0:0:0:0:
20,208,27305,2,0,L|28:64,2,140,0|0|0,1:0|1:0|1:0,0:0:0:0:
176,232,28870,2,0,L|180:160,1,70,0|2,1:0|0:0,0:0:0:0:
224,96,29392,6,0,P|304:132|408:80,1,210,0|2,1:0|0:0,0:0:0:0:
476,120,30435,2,0,B|448:168|400:192|400:192|448:216|476:264,1,210,0|2,1:0|0:0,0:0:0:0:
407,302,31479,2,0,P|319:252|224:288,1,210,0|2,1:0|0:0,0:0:0:0:
176,352,32522,2,0,L|32:344,1,140,0|0,1:0|1:0,0:0:0:0:
36,175,33566,6,0,L|176:168,1,140,4|0,1:0|1:0,0:0:0:0:
256,168,34348,1,2,0:0:0:0:
336,168,34609,2,0,L|475:175,2,140,0|0|0,1:0|1:0|1:0,0:0:0:0:
296,96,35914,1,2,0:0:0:0:
216,96,36175,2,0,L|192:24,2,70,0|2|0,1:0|0:0|1:0,0:0:0:0:
72,168,37218,2,0,L|49:234,1,70,0|2,1:0|0:0,0:0:0:0:
104,296,37740,6,0,P|144:304|240:264,1,140,0|0,1:0|1:0,0:0:0:0:
256,192,38522,1,2,0:0:0:0:
277,114,38783,2,0,P|339:82|408:88,1,140,0|0,1:0|1:0,0:0:0:0:
462,149,39566,2,0,L|440:216,1,70,2|0,0:0|1:0,0:0:0:0:
288,280,40348,2,0,L|312:352,2,70,0|2|0,1:0|0:0|1:0,0:0:0:0:
163,175,41392,1,0,1:0:0:0:
316,120,41914,1,4,0:0:0:0:
97,57,50261,6,0,B|125:84|141:140|101:180|101:180|40:200|40:200|8:264|32:320|93:348|144:328,1,420,0|8,0:0|0:0,0:0:0:0:
144,328,52348,2,0,B|200:304|208:248|192:208|192:208|320:176|320:176|304:136|312:80|368:56,1,420,0|8,0:0|0:0,0:0:0:0:
368,56,54435,6,0,B|418:35|480:64|504:120|472:184|472:184|410:203|410:203|370:243|386:299|414:326,1,420,0|8,0:0|0:0,0:0:0:0:
414,326,56522,2,0,B|352:304|344:272|384:200|256:132|128:200|168:272|160:304|97:327,1,420,0|8,0:0|0:0,0:0:0:0:
256,320,58609,6,0,B|305:257|256:192|256:192|207:128|256:64,3,280,2|2|2|2,0:0|0:0|0:0|0:0,0:0:0:0:
136,360,62783,6,0,B|124:328|136:292|136:292|149:256|136:224,2,140,2|2|2,0:0|0:0|0:0,0:0:0:0:
256,248,64348,1,2,0:0:0:0:
376,360,64870,2,0,B|388:328|376:292|376:292|363:256|376:224,2,140,2|2|2,0:0|0:0|0:0,0:0:0:0:
256,248,66435,1,2,0:0:0:0:
256,192,66957,12,2,71131,0:0:0:0:
256,128,74783,5,4,1:0:0:0:
408,192,75305,6,0,P|448:246|368:347,1,210,4|2,1:0|0:0,0:0:0:0:
368,264,76348,2,2,L|296:256,1,70,0|0,0:0|0:0,0:0:0:0:
213,256,76870,2,0,L|144:264,1,70,0|2,1:0|0:0,0:0:0:0:
137,346,77392,2,0,P|63:281|104:192,1,210,0|2,1:0|0:0,0:0:0:0:
168,144,78435,2,0,B|240:168|240:168|272:216|272:216|344:240,1,210,0|2,1:0|0:0,0:0:0:0:
408,192,79479,6,0,P|448:138|368:37,1,210,0|2,1:0|0:0,0:0:0:0:
368,120,80522,2,2,L|296:128,1,70,0|0,0:0|0:0,0:0:0:0:
213,127,81044,2,0,L|144:120,1,70,0|2,1:0|0:0,0:0:0:0:
137,37,81566,2,0,P|63:102|104:192,1,210,0|0,1:0|0:0,0:0:0:0:
168,240,82609,2,0,L|160:312,2,70,0|0|0,1:0|1:0|0:0,0:0:0:0:
344,240,83653,6,0,L|352:312,2,70,4|2|0,1:0|0:0|1:0,0:0:0:0:
336,160,84435,1,2,0:0:0:0:
415,135,84696,2,2,P|370:85|302:83,1,140,0|0,0:0|1:0,0:0:0:0:
256,152,85479,1,2,0:0:0:0:
209,83,85740,2,0,P|141:85|96:135,1,140,0|0,1:0|1:0,0:0:0:0:
176,160,86522,1,2,0:0:0:0:
168,240,86783,2,0,L|160:312,1,70,0|2,1:0|0:0,0:0:0:0:
96,360,87305,1,0,1:0:0:0:
256,320,87827,6,0,P|320:304|448:360,1,210,0|2,1:0|0:0,0:0:0:0:
488,288,88870,2,2,P|496:224|488:144,1,140,0|0,0:0|1:0,0:0:0:0:
432,88,89653,1,2,0:0:0:0:
360,128,89914,2,0,P|296:136|216:128,1,140,0|0,1:0|1:0,0:0:0:0:
144,152,90696,1,0,0:0:0:0:
80,104,90957,2,0,B|74:69|80:32|80:32,2,70,0|2|0,1:0|0:0|0:0,0:0:0:0:
112,264,92001,5,4,1:0:0:0:
476,175,99827,5,0,0:0:0:0:
476,175,100348,6,0,L|336:168,1,140,4|0,1:0|1:0,0:0:0:0:
256,168,101130,1,2,0:0:0:0:
176,168,101391,2,0,L|37:175,2,140,0|0|0,1:0|1:0|1:0,0:0:0:0:
216,96,102696,1,2,0:0:0:0:
296,96,102957,2,0,L|320:24,2,70,0|2|0,1:0|0:0|1:0,0:0:0:0:
440,168,104000,2,0,L|463:234,1,70,0|2,1:0|0:0,0:0:0:0:
408,296,104522,6,0,P|368:304|272:264,1,140,0|0,1:0|1:0,0:0:0:0:
256,192,105304,1,2,0:0:0:0:
235,114,105566,2,0,P|173:82|104:88,1,140,0|0,1:0|1:0,0:0:0:0:
50,149,106348,2,0,L|72:216,1,70,2|0,0:0|1:0,0:0:0:0:
224,280,107131,2,0,L|200:352,2,70,0|2|0,1:0|0:0|1:0,0:0:0:0:
349,175,108174,1,0,0:0:0:0:
196,120,108696,5,0,0:0:0:0:
224,281,109218,2,0,P|346:339|470:283,1,280
349,175,110783,5,0,0:0:0:0:
194,119,111305,2,0,P|83:196|69:331,1,280
224,281,112870,5,2,0:0:0:0:
349,175,113392,1,0,0:0:0:0:
318,13,113914,1,0,0:0:0:0:
196,120,114435,1,0,0:0:0:0:
224,281,114957,5,2,0:0:0:0:
379,336,115479,1,0,0:0:0:0:
349,175,116001,1,0,0:0:0:0:
196,120,116523,1,0,0:0:0:0:
68,226,117044,6,0,P|136:291|256:192,3,280,2|2|2|2,0:0|0:0|0:0|0:0,0:0:0:0:
256,192,121218,6,0,P|282:119|334:90,1,140,2|2,0:0|0:0,0:0:0:0:
416,232,122261,2,0,P|466:291|465:350,1,140,2|2,0:0|0:0,0:0:0:0:
304,352,123305,2,0,P|227:365|176:335,2,140,2|2|2,0:0|0:0|0:0,0:0:0:0:
304,352,125392,6,0,L|312:280,1,70,4|2,1:0|0:0,0:0:0:0:
392,256,125914,2,0,P|416:192|392:128,1,140,0|0,1:0|1:0,0:0:0:0:
311,101,126696,2,0,L|304:32,1,70,2|0,0:0|1:0,0:0:0:0:
152,68,127479,2,0,P|112:36|24:28,2,140,0|0|0,1:0|1:0|1:0,0:0:0:0:
202,132,128783,1,2,0:0:0:0:
256,192,129044,1,0,1:0:0:0:
408,232,129566,6,0,L|384:312,1,70,0|2,1:0|0:0,0:0:0:0:
320,344,130088,2,0,P|256:320|192:344,1,140,0|0,1:0|1:0,0:0:0:0:
125,299,130870,2,0,L|104:232,1,70,2|0,0:0|1:0,0:0:0:0:
104,232,131653,2,0,P|136:152|48:88,1,210,0|2,1:0|0:0,0:0:0:0:
56,168,132696,2,0,P|136:168|192:128,1,140,0|0,1:0|0:0,0:0:0:0:
304,32,133740,6,0,L|312:104,1,70,4|2,1:0|0:0,0:0:0:0:
392,128,134262,2,0,P|416:192|392:256,1,140,0|0,1:0|1:0,0:0:0:0:
312,282,135044,2,0,L|304:352,1,70,2|0,0:0|1:0,0:0:0:0:
152,316,135827,2,0,P|112:348|24:356,2,140,0|0|0,1:0|1:0|1:0,0:0:0:0:
202,252,137131,1,2,0:0:0:0:
256,192,137392,1,0,1:0:0:0:
412,136,137914,6,0,P|380:96|348:72,1,70,0|2,1:0|0:0,0:0:0:0:
292,48,138435,2,0,P|256:44|220:48,1,70,0|2,1:0|0:0,0:0:0:0:
147,84,138957,1,0,1:0:0:0:
0,160,139479,2,0,L|16:232,1,70,0|2,1:0|0:0,0:0:0:0:
48,304,140001,2,0,P|112:280|176:304,1,140,0|0,1:0|1:0,0:0:0:0:
256,280,140783,1,2,0:0:0:0:
335,304,141044,2,0,P|399:280|464:304,1,140,0|0,1:0|0:0,0:0:0:0:
448,144,142088,6,0,L|304:128,1,140,4|0,1:0|0:0,0:0:0:0:
256,64,142870,1,0,0:0:0:0:
336,48,143131,2,0,L|480:64,2,140,0|0|0,1:0|0:0|0:0,0:0:0:0:
176,48,144696,2,0,L|32:64,2,140,0|0|0,0:0|1:0|0:0,0:0:0:0:
256,64,146001,1,0,0:0:0:0:
203,128,146261,6,0,L|64:144,2,140,0|0|0,0:0|0:0|1:0,0:0:0:0:
360,104,147827,1,0,0:0:0:0:
448,240,148348,2,0,L|308:255,1,140
256,320,149131,1,0,0:0:0:0:
204,254,149393,2,0,L|65:238,1,140,0|0,1:0|0:0,0:0:0:0:
168,120,150435,5,4,1:1:0:0:
328,96,150957,2,0,P|352:56|352:16,1,70,0|2,1:0|0:0,0:0:0:0:
432,24,151479,2,0,P|424:96|384:160,1,140,0|0,1:0|1:0,0:0:0:0:
328,208,152261,1,2,0:0:0:0:
336,288,152522,2,0,L|480:304,2,140,0|0|0,1:0|1:0|1:0,0:0:0:0:
280,352,153827,2,0,P|256:312|256:272,1,70,2|0,0:0|1:0,0:0:0:0:
288,216,154348,1,2,0:0:0:0:
328,144,154609,6,0,P|288:120|248:120,1,70,0|2,1:0|0:0,0:0:0:0:
184,104,155131,2,0,P|160:64|160:24,1,70,0|2,1:0|0:0,0:0:0:0:
80,24,155653,2,0,P|88:96|128:160,1,140,0|0,1:0|1:0,0:0:0:0:
184,208,156435,1,2,0:0:0:0:
176,288,156696,2,0,L|32:304,2,140,0|0|0,1:0|1:0|1:0,0:0:0:0:
256,312,158001,1,0,1:0:0:0:
336,288,158261,2,0,L|480:304,1,140,0|4,0:0|0:0,0:0:0:0:
88,24,167131,5,0,0:0:0:0:
88,191,167653,2,0,P|216:230|256:360,1,280,4|4,3:0|3:0,0:0:0:0:
424,360,169218,1,0,0:0:0:0:
424,192,169740,2,0,P|368:192|256:24,1,280,4|4,3:0|3:0,0:0:0:0:
88,24,171305,6,0,L|88:168,1,140,4|4,3:0|3:0,0:0:0:0:
172,300,172348,2,0,L|172:156,1,140,4|4,3:0|3:0,0:0:0:0:
256,24,173392,2,0,L|256:168,1,140,4|4,3:0|3:0,0:0:0:0:
340,300,174435,2,0,L|340:156,1,140,4|4,3:0|3:0,0:0:0:0:
424,24,175479,6,0,L|424:168,1,140,4|4,3:0|3:0,0:0:0:0:
476,320,176522,2,0,L|336:320,1,140,4|4,3:0|3:0,0:0:0:0:
176,320,177566,2,0,L|36:320,1,140,4|4,3:0|3:0,0:0:0:0:
88,164,178609,2,0,L|88:24,1,140,4|4,3:0|3:0,0:0:0:0:
256,32,179653,6,0,B|312:-16|384:0|424:24|472:80|468:144|424:228|360:240|296:224|256:192|256:192|216:160|152:144|88:156|44:240|40:304|88:360|128:384|200:400|256:352,1,980,4|0,3:0|0:0,0:0:0:0:
416,368,183827,6,0,P|448:344|448:240,1,140,4|0,1:2|1:0,0:0:0:0:
400,192,184609,1,2,0:0:0:0:
455,133,184870,2,0,P|462:65|416:16,1,140,0|0,0:0|1:0,0:0:0:0:
256,48,185914,2,0,L|256:128,1,70
216,192,186435,1,0,1:0:0:0:
296,192,186696,1,2,0:0:0:0:
256,266,186957,2,0,L|256:336,2,70,0|2|0,0:0|0:0|1:0,0:0:0:0:
96,256,188001,6,0,P|72:192|96:128,1,140,0|0,0:0|1:0,0:0:0:0:
176,112,188783,1,2,0:0:0:0:
192,32,189044,2,0,P|256:8|320:32,1,140,0|0,0:0|1:0,0:0:0:0:
336,112,189827,1,2,0:0:0:0:
415,127,190088,2,0,P|439:191|416:256,1,140,0|0,0:0|1:0,0:0:0:0:
424,336,190870,2,0,P|359:360|295:336,1,140,0|0,0:0|0:0,0:0:0:0:
216,336,191653,2,0,P|152:360|88:336,1,140,4|4,1:1|0:0,0:0:0:0:
24,192,192696,6,0,L|32:112,2,70,0|2|0,1:0|0:0|0:0,0:0:0:0:
176,128,193740,2,0,L|184:48,2,70,0|2|0,1:0|0:0|0:0,0:0:0:0:
336,128,194783,2,0,L|328:48,2,70,0|2|0,1:0|0:0|0:0,0:0:0:0:
488,192,195827,2,0,L|481:122,1,70,0|2,1:0|0:0,0:0:0:0:
408,160,196348,6,0,L|424:304,1,140,0|0,0:0|1:0,0:0:0:0:
368,360,197131,1,2,0:0:0:0:
320,296,197392,2,0,P|256:272|192:296,1,140,0|0,0:0|1:0,0:0:0:0:
144,360,198175,1,2,0:0:0:0:
88,299,198435,2,0,L|104:160,1,140,0|0,0:0|1:0,0:0:0:0:
88,80,199218,2,0,P|152:56|216:80,1,140,2|0,0:0|0:0,0:0:0:0:
295,80,200001,2,0,P|359:56|424:80,1,140,4|4,1:1|0:0,0:0:0:0:
488,232,201044,6,0,L|480:312,2,70,0|2|0,1:0|0:0|0:0,0:0:0:0:
336,296,202088,2,0,L|328:376,2,70,0|2|0,1:0|0:0|0:0,0:0:0:0:
176,296,203131,2,0,L|184:376,2,70,0|2|0,1:0|0:0|0:0,0:0:0:0:
24,232,204175,2,0,L|30:301,1,70,0|2,1:0|0:0,0:0:0:0:
104,264,204696,6,0,L|88:120,1,140,0|0,0:0|1:0,0:0:0:0:
144,64,205479,1,2,0:0:0:0:
192,128,205740,2,0,P|256:152|320:128,1,140,0|0,0:0|1:0,0:0:0:0:
368,64,206523,1,2,0:0:0:0:
423,124,206783,2,0,L|407:263,1,140,0|0,0:0|1:0,0:0:0:0:
424,344,207566,2,0,P|360:368|296:344,1,140,2|2,0:0|0:0,0:0:0:0:
216,343,208349,2,0,P|151:367|87:343,1,140,4|4,1:1|0:0,0:0:0:0:
32,192,209392,6,0,L|104:176,2,70,0|2|0,1:0|0:0|0:0,0:0:0:0:
108,48,210435,2,0,L|180:64,1,70,0|2,1:0|0:0,0:0:0:0:
256,80,210957,1,0,0:0:0:0:
335,63,211218,2,0,L|404:48,1,70,2|0,0:0|1:0,0:0:0:0:
480,80,211740,1,2,0:0:0:0:
504,160,212001,2,0,P|504:224|464:288,1,140,0|0,0:0|1:0,0:0:0:0:
392,328,212783,1,2,0:0:0:0:
324,280,213044,6,0,P|260:264|188:280,1,140,0|0,0:0|1:0,0:0:0:0:
120,328,213827,1,2,0:0:0:0:
47,287,214088,2,0,P|9:229|8:160,1,140,0|0,0:0|1:0,0:0:0:0:
24,80,214870,1,2,0:0:0:0:
96,40,215131,2,0,B|184:64|184:64|216:120,1,140,0|0,0:0|1:0,0:0:0:0:
272,160,215914,2,0,B|360:136|360:136|392:80,1,140,2|2,0:0|0:0,0:0:0:0:
320,40,216696,1,4,1:1:0:0:
480,80,217218,6,0,B|480:136|480:136|440:208|440:208|440:280,1,210,4|2,1:2|0:0,0:0:0:0:
456,360,218261,2,0,B|400:360|400:360|328:320|328:320|256:320,1,210,0|2,1:0|0:0,0:0:0:0:
256,240,219305,2,0,B|256:192|256:192|272:160|272:160|272:104,1,140,0|0,1:0|1:0,0:0:0:0:
176,232,220348,2,0,B|176:280|176:280|160:312|160:312|160:368,1,140,0|0,1:0|1:0,0:0:0:0:
80,368,221131,1,2,0:0:0:0:
32,304,221392,6,0,B|32:248|32:248|72:176|72:176|72:104,1,210,0|2,1:0|0:0,0:0:0:0:
56,24,222435,2,0,B|112:24|112:24|184:64|184:64|256:64,1,210,0|2,1:0|0:0,0:0:0:0:
256,144,223479,2,0,B|256:192|256:192|240:224|240:224|240:280,1,140,0|0,1:0|1:0,0:0:0:0:
384,344,224522,2,0,L|384:272,1,70,0|2,1:0|0:0,0:0:0:0:
384,192,225044,1,4,1:2:0:0:
