osu file format v14

[General]
AudioFilename: audio.mp3
AudioLeadIn: 0
PreviewTime: 183175
Countdown: 0
SampleSet: Soft
StackLeniency: 0.6
Mode: 0
LetterboxInBreaks: 0
WidescreenStoryboard: 1

[Editor]
DistanceSpacing: 1.8
BeatDivisor: 4
GridSize: 4
TimelineZoom: 1.1

[Metadata]
Title:A Light That Never Comes
TitleUnicode:A Light That Never Comes
Artist:Linkin Park, Steve Aoki
ArtistUnicode:Linkin Park, Steve Aoki
Creator:pw384
Version:HOS' Hard
Source:
Tags:Recharged HootOwlStar 384059043
BeatmapID:1379541
BeatmapSetID:566773

[Difficulty]
HPDrainRate:5
CircleSize:4
OverallDifficulty:6
ApproachRate:8
SliderMultiplier:2
SliderTickRate:1

[Events]
//Background and Video events
0,0,"bg.jpg",0,0
//Break Periods
//Storyboard Layer 0 (Background)
//Storyboard Layer 1 (Fail)
//Storyboard Layer 2 (Pass)
//Storyboard Layer 3 (Foreground)
//Storyboard Sound Samples

[TimingPoints]
175,521.739130434783,4,2,0,80,1,0
305,-100,4,2,0,60,0,0
8001,-100,4,1,0,40,0,0
8522,-86.9565217391303,4,2,0,60,0,0
9044,-100,4,2,0,60,0,0
16870,-86.9565217391303,4,2,0,40,0,0
17392,-100,4,2,0,60,0,0
24696,-100,4,1,0,40,0,0
25218,-86.9565217391303,4,2,0,65,0,0
25740,-100,4,2,0,65,0,0
33566,-86.9565217391303,4,2,0,65,0,0
34088,-100,4,2,0,65,0,0
41392,-86.9565217391304,4,2,0,80,0,0
41914,-200,4,2,0,40,0,0
49740,-142.857142857143,4,2,0,40,0,0
50261,-117.647058823529,4,3,0,40,0,0
52348,-117.647058823529,4,3,0,45,0,0
54435,-117.647058823529,4,3,0,50,0,0
56522,-117.647058823529,4,3,0,55,0,0
58609,-100,4,3,0,60,0,0
71131,-100,4,2,0,40,0,0
74783,-86.9565217391303,4,1,0,40,0,0
75305,-76.9230769230769,4,2,0,60,0,0
75827,-76.9230769230769,4,2,0,60,0,0
78957,-76.9230769230769,4,2,0,60,0,0
79479,-76.9230769230769,4,2,0,60,0,0
83131,-76.9230769230769,4,1,0,40,0,0
83653,-76.9230769230769,4,2,0,60,0,0
91479,-83.3333333333333,4,1,0,40,0,0
92001,-86.9565217391303,4,2,0,60,0,0
92522,-100,4,2,0,60,0,0
99827,-100,4,1,0,50,0,0
100348,-86.9565217391303,4,2,0,60,0,0
101392,-100,4,2,0,60,0,0
108175,-133.333333333333,4,1,0,40,0,0
108696,-117.647058823529,4,2,0,50,0,0
112870,-117.647058823529,4,2,0,50,0,0
117044,-100,4,3,0,60,0,0
121218,-100,4,3,0,65,0,0
125392,-76.9230769230769,4,2,0,70,0,0
133218,-133.333333333333,4,1,0,55,0,0
133740,-76.9230769230769,4,2,0,75,0,0
141566,-83.3333333333333,4,1,0,60,0,0
142088,-86.9565217391303,4,2,0,80,0,1
149914,-76.9230769230769,4,1,0,60,0,0
150435,-86.9565217391303,4,2,0,80,0,1
158261,-76.9230769230769,4,1,0,60,0,1
158783,-133.333333333333,4,2,0,50,0,0
160609,-111.111111111111,4,2,0,50,0,0
162957,-133.333333333333,4,2,0,50,0,0
164783,-111.111111111111,4,2,0,50,0,0
167131,-100,4,2,0,50,0,0
181740,-100,4,2,0,60,0,0
183305,-100,4,2,0,60,0,0
183827,-76.9230769230769,4,2,0,85,0,1
191653,-200,4,2,0,85,0,0
192175,-76.9230769230769,4,2,0,85,0,1
200001,-83.3333333333333,4,1,0,60,0,0
200522,-76.9230769230769,4,2,0,85,0,1
208348,-200,4,1,0,60,0,0
208870,-76.9230769230769,4,2,0,85,0,1
216696,-76.9230769230769,4,1,0,60,0,1
217218,-76.9230769230769,4,2,0,70,0,0
217740,-86.9565217391303,4,2,0,70,0,0
220870,-86.9565217391303,4,2,0,70,0,0
221392,-76.9230769230769,4,2,0,70,0,0
221914,-86.9565217391303,4,2,0,70,0,0
225044,-86.9565217391303,4,2,0,85,0,0

[Colours]
Combo1 : 85,85,85
Combo2 : 233,233,233

[HitObjects]
0,200,175,6,0,P|52:152|140:168,1,150,0|0,1:0|0:0,0:0:0:0:
156,244,696,2,0,L|140:352,1,100,0|2,1:0|0:0,0:0:0:0:
320,380,1218,2,0,B|304:280|304:280|348:208,1,150,0|0,1:0|0:0,0:0:0:0:
404,288,1740,2,0,L|512:276,1,100,0|2,1:0|0:0,0:0:0:0:
408,100,2261,6,0,B|356:92|356:92|308:112|308:112|236:100,1,150,0|0,1:0|0:0,0:0:0:0:
184,60,2783,2,0,P|228:24|284:20,1,100,0|2,1:0|0:0,0:0:0:0:
360,176,3305,2,0,B|339:324,1,150,0|0,1:0|0:0,0:0:0:0:
416,372,3827,2,0,B|472:364|472:364|512:332,1,100,0|2,1:0|0:0,0:0:0:0:
440,144,4348,6,0,L|288:124,1,150,0|0,1:0|0:0,0:0:0:0:
204,96,4870,2,0,P|232:56|248:0,1,100,8|2,1:3|0:0,0:0:0:0:
68,32,5392,2,0,L|88:208,1,150,0|0,1:0|0:0,0:0:0:0:
80,272,5914,2,0,P|36:248|-24:240,1,100,8|2,1:3|0:0,0:0:0:0:
100,380,6435,6,0,L|288:352,1,150,0|0,1:0|0:0,0:0:0:0:
320,304,6957,2,0,P|372:352|384:380,1,100,8|2,1:3|0:0,0:0:0:0:
500,240,7479,2,0,B|488:132|488:132|516:92,1,150,0|2,1:0|0:0,0:0:0:0:
436,28,8001,1,0,0:0:0:0:
436,28,8522,6,0,B|317:43|317:43|276:4,1,172.500003290176,4|0,1:0|0:0,0:0:0:0:
192,28,9044,2,0,L|176:136,1,100,0|2,1:0|0:0,0:0:0:0:
4,172,9566,1,0,1:0:0:0:
64,236,9696,2,0,L|80:344,1,100,0|0,0:0|0:0,0:0:0:0:
160,376,10088,2,0,L|168:322,2,50,0|0|2,1:0|0:0|0:0,0:0:0:0:
336,340,10609,6,0,B|444:336|444:336|484:372,1,150,0|0,1:0|0:0,0:0:0:0:
512,280,11131,2,0,B|484:180|484:180|520:132,1,150,0|0,1:0|0:0,0:0:0:0:
456,72,11653,2,0,L|340:84,1,100,0|2,1:0|0:0,0:0:0:0:
280,132,12044,2,0,L|222:126,1,50,0|0,0:0|1:0,0:0:0:0:
156,72,12305,2,0,L|40:84,1,100,0|0,0:0|0:0,0:0:0:0:
0,152,12696,6,0,L|12:208,2,50,0|0|2,1:0|0:0|0:0,0:0:0:0:
156,240,13218,2,0,L|136:348,1,100,0|2,1:0|0:0,0:0:0:0:
312,380,13740,1,0,1:0:0:0:
376,316,13870,2,0,L|476:336,1,100,0|0,0:0|0:0,0:0:0:0:
512,252,14261,2,0,L|496:196,2,50,0|0|0,1:0|0:0|0:0,0:0:0:0:
368,144,14783,6,0,L|384:88,1,50,0|0,1:0|0:0,0:0:0:0:
448,36,15044,1,2,0:0:0:0:
268,36,15305,2,0,L|152:20,1,100,0|2,1:0|0:0,0:0:0:0:
16,120,15827,2,0,B|60:112|60:112|108:132|108:132|160:124,1,150,0|0,1:0|0:0,0:0:0:0:
204,200,16348,2,0,B|212:248|212:248|180:296,1,100,0|2,1:0|0:0,0:0:0:0:
372,376,16870,6,0,B|492:352|492:352|440:320,1,172.500003290176,4|0,1:0|0:0,0:0:0:0:
500,252,17392,2,0,L|484:140,1,100,0|2,1:0|0:0,0:0:0:0:
364,20,17914,2,0,B|344:120|344:120|292:156,1,150,0|0,1:0|0:0,0:0:0:0:
240,84,18435,2,0,L|124:92,1,100,0|2,1:0|0:0,0:0:0:0:
64,44,18827,1,0,0:0:0:0:
12,116,18957,6,0,B|32:164|32:164|24:224,1,100,0|2,1:0|0:0,0:0:0:0:
128,360,19479,2,0,B|121:312|121:312|141:264,1,100,0|2,1:0|0:0,0:0:0:0:
304,188,20001,2,0,B|400:200|400:200|432:244,1,150,0|0,1:0|0:0,0:0:0:0:
504,192,20522,2,0,L|488:72,1,100,0|2,1:0|0:0,0:0:0:0:
328,12,21044,6,0,L|320:72,2,50,0|0|2,1:0|0:0|0:0,0:0:0:0:
148,44,21566,2,0,B|100:56|100:56|44:16,1,100,0|2,1:0|0:0,0:0:0:0:
0,196,22088,2,0,B|100:184|100:184|144:212,1,150,0|0,1:0|0:0,0:0:0:0:
200,280,22609,2,0,L|184:380,1,100,0|2,1:0|0:0,0:0:0:0:
364,348,23131,6,0,L|348:248,1,100,0|2,1:0|0:0,0:0:0:0:
333,159,23522,1,0,0:0:0:0:
416,192,23653,2,0,B|464:196|464:196|520:156,1,100,0|2,1:0|0:0,0:0:0:0:
372,48,24175,2,0,L|200:36,1,150,0|0,1:0|0:0,0:0:0:0:
132,28,24696,1,0,0:0:0:0:
132,28,25218,6,0,B|160:88|128:152|128:152|84:124|88:88,1,172.500003290176,4|0,1:0|0:0,0:0:0:0:
12,156,25740,2,0,L|32:264,1,100,0|2,1:0|0:0,0:0:0:0:
164,376,26261,2,0,P|200:324|292:340,1,150,0|0,1:0|0:0,0:0:0:0:
356,376,26783,2,0,L|456:360,1,100,0|2,1:0|0:0,0:0:0:0:
512,188,27305,5,0,1:0:0:0:
436,144,27435,2,0,L|448:32,1,100,0|0,0:0|0:0,0:0:0:0:
360,20,27827,2,0,B|316:48|316:48|236:32,1,100,0|2,1:0|0:0,0:0:0:0:
92,16,28348,2,0,P|164:72|152:136,1,150,0|0,1:0|0:0,0:0:0:0:
104,192,28870,2,0,L|-4:180,1,100,0|2,1:0|0:0,0:0:0:0:
80,348,29392,6,0,B|188:328|188:328|244:360,1,150,0|0,1:0|0:0,0:0:0:0:
308,380,29914,2,0,L|324:288,2,50,0|0|2,1:0|0:0|0:0,0:0:0:0:
484,340,30435,2,0,B|472:288|472:288|488:244|488:244|476:188,1,150,0|0,1:0|0:0,0:0:0:0:
428,124,30957,2,0,P|344:156|328:176,1,100,0|2,1:0|0:0,0:0:0:0:
296,336,31479,6,0,L|124:304,1,150,0|0,1:0|0:0,0:0:0:0:
60,284,32001,2,0,P|24:324|20:384,1,100,0|2,1:0|0:0,0:0:0:0:
124,224,32522,2,0,L|100:68,1,150,0|0,1:0|0:0,0:0:0:0:
20,32,33044,2,0,L|8:140,1,100,0|2,1:0|0:0,0:0:0:0:
216,160,33566,6,0,B|344:144|344:144|300:104,1,172.500003290176,4|0,1:0|0:0,0:0:0:0:
372,44,34088,2,0,P|432:52|472:88,1,100,0|2,1:0|0:0,0:0:0:0:
500,252,34609,2,0,B|488:364|488:364|464:328,1,150,0|0,1:0|0:0,0:0:0:0:
380,304,35131,2,0,L|272:328,1,100,0|2,1:0|0:0,0:0:0:0:
172,180,35653,6,0,L|280:204,1,100,0|2,1:0|0:0,0:0:0:0:
336,140,36044,1,0,0:0:0:0:
268,84,36175,2,0,L|214:96,2,50,0|0|2,1:0|0:0|0:0,0:0:0:0:
496,164,36696,2,0,B|488:220|488:220|508:268|508:268|496:336,1,150,0|0,1:0|0:0,0:0:0:0:
428,364,37218,2,0,B|388:336|388:336|324:352,1,100,0|2,1:0|0:0,0:0:0:0:
160,376,37740,6,0,P|136:284|80:260,1,150,0|0,1:0|0:0,0:0:0:0:
4,276,38261,2,0,L|16:140,1,100,0|2,1:0|0:0,0:0:0:0:
132,40,38783,2,0,B|184:64|184:64|292:36,1,150,0|0,1:0|0:0,0:0:0:0:
360,8,39305,1,0,1:0:0:0:
512,108,39566,2,0,L|496:168,1,50,2|0,0:0|0:0,0:0:0:0:
440,224,39827,6,0,B|468:276|468:276|444:372,1,150,0|0,1:0|0:0,0:0:0:0:
364,328,40348,2,0,L|256:340,1,100,0|2,1:0|0:0,0:0:0:0:
88,292,40870,2,0,P|44:336|48:396,1,100,0|2,1:0|0:0,0:0:0:0:
204,244,41392,6,0,B|228:184|188:140|188:140|160:160|160:196,1,172.500003290176,0|0,1:0|0:0,0:0:0:0:
180,352,41914,6,0,B|308:300|308:404|436:352,1,250,4|0,0:0|0:0,0:0:0:0:
372,280,43479,1,2,0:0:0:0:
372,280,44001,2,0,P|356:208|504:244,1,300,0|0,0:0|0:0,0:0:0:0:
260,120,46088,6,0,L|266:70,1,50,2|0,0:0|0:0,0:0:0:0:
176,152,46609,2,0,L|169:102,1,50,0|0,0:0|0:0,0:0:0:0:
140,236,47131,2,0,P|84:208|36:212,1,100,2|0,0:0|0:0,0:0:0:0:
88,340,47914,2,0,L|260:320,1,150,0|0,0:0|0:0,0:0:0:0:
320,284,48957,2,0,B|348:328|348:328|337:374,1,100,2|0,0:0|0:0,0:0:0:0:
244,236,49740,6,0,P|244:176|276:136,1,104.999996795654,2|0,0:0|0:0,0:0:0:0:
336,176,50261,6,0,L|468:164,1,127.50000243187
512,104,50783,2,0,B|520:64|520:64|496:20,1,85.0000016212464,8|0,0:0|0:0,0:0:0:0:
348,48,51305,2,0,B|304:44|304:44|264:64|264:64|204:56,1,127.50000243187
160,24,51827,2,0,L|72:36,1,85.0000016212464,8|0,0:0|0:0,0:0:0:0:
0,168,52348,6,0,B|92:180|92:180|116:208,1,127.50000243187,0|0,0:0|0:0,0:0:0:0:
128,284,52870,2,0,L|116:372,1,85.0000016212464,8|0,0:0|0:0,0:0:0:0:
268,348,53392,2,0,B|290:321|290:321|382:309,1,127.50000243187,0|0,0:0|0:0,0:0:0:0:
432,368,53914,2,0,B|472:372|472:372|512:344,1,85.0000016212464,8|0,0:0|0:0,0:0:0:0:
440,188,54435,6,0,L|428:92,1,85.0000016212464,0|0,0:0|0:0,0:0:0:0:
308,12,54957,2,0,L|296:108,1,85.0000016212464,8|0,0:0|0:0,0:0:0:0:
176,188,55479,2,0,B|92:172|92:172|44:196,1,127.50000243187,0|0,0:0|0:0,0:0:0:0:
12,256,56001,2,0,L|24:352,1,85.0000016212464,8|0,0:0|0:0,0:0:0:0:
172,372,56522,6,0,P|208:332|300:340,1,127.50000243187,0|0,0:0|0:0,0:0:0:0:
340,372,57044,1,8,0:0:0:0:
464,280,57305,1,0,0:0:0:0:
384,148,57566,2,0,L|244:140,1,127.50000243187,0|0,0:0|0:0,0:0:0:0:
192,100,58088,2,0,P|216:60|228:0,1,85.0000016212464,8|0,0:0|0:0,0:0:0:0:
52,76,58609,6,0,L|72:228,1,150,2|0,0:0|0:0,0:0:0:0:
80,316,59131,2,0,P|40:296|-16:288,1,100,0|0,0:0|0:0,0:0:0:0:
192,376,59653,2,0,L|352:352,1,150,2|0,0:0|0:0,0:0:0:0:
424,316,60175,2,0,P|452:360|496:376,1,100,0|0,0:0|0:0,0:0:0:0:
488,196,60696,6,0,B|440:172|440:172|336:196,1,150,2|0,0:0|0:0,0:0:0:0:
304,272,61218,2,0,L|316:380,1,100,0|0,0:0|0:0,0:0:0:0:
140,332,61740,2,0,L|164:172,1,150,2|0,0:0|0:0,0:0:0:0:
108,112,62261,2,0,B|64:136|64:136|16:124,1,100,0|0,0:0|0:0,0:0:0:0:
168,24,62783,6,0,L|268:36,1,100,2|0,0:0|0:0,0:0:0:0:
108,112,63305,2,0,L|208:124,1,100,2|0,0:0|0:0,0:0:0:0:
372,200,63827,6,0,L|272:212,1,100,2|0,0:0|0:0,0:0:0:0:
432,288,64349,2,0,L|332:300,1,100,2|0,0:0|0:0,0:0:0:0:
152,280,64870,6,0,L|168:380,1,100,2|0,0:0|0:0,0:0:0:0:
52,240,65392,2,0,L|68:340,1,100,2|0,0:0|0:0,0:0:0:0:
260,156,65914,6,0,L|244:254,1,100,2|0,0:0|0:0,0:0:0:0:
360,116,66436,2,0,L|344:214,1,100,2|0,0:0|0:0,0:0:0:0:
276,56,66957,5,2,0:0:0:0:
488,16,67218,1,2,0:0:0:0:
276,56,67479,5,2,0:0:0:0:
488,16,67740,1,2,0:0:0:0:
408,176,68001,5,2,0:0:0:0:
196,136,68262,1,2,0:0:0:0:
408,176,68523,5,2,0:0:0:0:
196,136,68784,1,2,0:0:0:0:
72,264,69044,5,2,0:0:0:0:
284,224,69305,1,2,0:0:0:0:
72,264,69566,5,2,0:0:0:0:
284,224,69827,1,2,0:0:0:0:
404,360,70088,5,2,0:0:0:0:
192,320,70349,1,2,0:0:0:0:
404,360,70609,5,2,0:0:0:0:
192,320,70870,1,2,0:0:0:0:
316,268,71131,5,2,0:0:0:0:
316,268,74783,6,0,B|208:288|208:288|272:316,1,172.500003290176,0|0,0:0|2:0,0:0:0:0:
364,376,75305,6,0,P|400:312|492:364,1,194.999991073609,4|0,1:0|0:0,0:0:0:0:
512,240,75827,2,0,L|500:160,1,64.9999970245363,0|0,1:0|0:0,0:0:0:0:
400,116,76088,2,0,L|390:180,1,64.9999970245363,2|0,0:0|0:0,0:0:0:0:
504,68,76348,2,0,B|444:56|444:56|388:84|388:84|308:68,1,194.999991073609,0|0,0:0|1:0,0:0:0:0:
208,28,76870,2,0,B|228:88|228:88|204:152,1,129.999994049073,0|2,1:0|0:0,0:0:0:0:
52,328,77392,6,0,P|87:325|127:339,1,64.9999970245363,0|0,1:0|0:0,0:0:0:0:
157,239,77653,2,0,P|186:252|209:275,1,64.9999970245363,2|0,0:0|0:0,0:0:0:0:
300,221,77914,2,0,P|318:247|327:278,1,64.9999970245363,0|2,1:0|0:0,0:0:0:0:
432,276,78175,2,0,P|434:308|426:339,1,64.9999970245363,2|0,0:0|0:0,0:0:0:0:
332,384,78435,2,0,L|188:372,1,129.999994049073,0|2,1:0|0:0,0:0:0:0:
120,308,78827,1,0,0:0:0:0:
32,384,78957,2,0,B|11:327|11:327|32:264|32:264|8:188,1,194.999991073609,0|0,1:0|0:0,0:0:0:0:
84,108,79479,6,0,B|184:140|184:76|284:108,1,194.999991073609,0|0,1:0|0:0,0:0:0:0:
240,260,80001,2,0,P|234:228|235:195,1,64.9999970245363,0|0,1:0|0:0,0:0:0:0:
336,212,80261,2,0,P|354:184|378:163,1,64.9999970245363,2|0,0:0|0:0,0:0:0:0:
436,240,80522,2,0,P|468:284|388:376,1,194.999991073609,0|0,1:0|1:0,0:0:0:0:
284,332,81044,2,0,L|140:344,1,129.999994049073,0|2,1:0|0:0,0:0:0:0:
16,156,81566,6,0,B|72:146|72:146|136:168|136:168|216:152,1,194.999991073609,0|0,1:0|0:0,0:0:0:0:
284,68,82088,2,0,P|208:56|148:24,1,129.999994049073,0|0,1:0|0:0,0:0:0:0:
392,8,82609,2,0,L|368:212,1,194.999991073609,0|0,1:0|0:0,0:0:0:0:
476,252,83131,1,4,1:2:0:0:
476,252,83653,6,0,B|332:236|332:236|408:288,1,194.999991073609,4|0,1:0|0:0,0:0:0:0:
444,360,84175,2,0,B|380:348|380:348|312:368|312:368|248:352,1,194.999991073609,0|0,1:0|0:0,0:0:0:0:
140,376,84696,2,0,B|158:321|158:321|120:244,1,129.999994049073,0|2,1:0|0:0,0:0:0:0:
12,232,85088,1,0,1:0:0:0:
92,148,85218,2,0,L|112:16,1,129.999994049073,0|2,1:0|0:0,0:0:0:0:
340,68,85740,6,0,P|384:56|412:36,1,64.9999970245363,0|0,1:0|0:0,0:0:0:0:
496,156,86001,2,0,P|467:140|435:133,1,64.9999970245363,2|0,0:0|0:0,0:0:0:0:
356,216,86261,1,0,1:0:0:0:
356,216,86392,1,2,0:0:0:0:
444,296,86522,2,0,B|472:276|472:276|502:276,1,64.9999970245363,2|0,0:0|0:0,0:0:0:0:
348,364,86783,2,0,L|208:352,1,129.999994049073,0|2,1:0|0:0,0:0:0:0:
63,176,87305,2,0,P|32:183|4:200,1,64.9999970245363,0|0,1:0|1:0,0:0:0:0:
95,260,87566,2,0,P|76:285|64:316,1,64.9999970245363,0|0,1:0|1:0,0:0:0:0:
172,216,87827,6,0,P|260:232|288:144,1,194.999991073609,0|0,1:0|0:0,0:0:0:0:
180,108,88348,2,0,L|104:120,1,64.9999970245363,0|0,1:0|0:0,0:0:0:0:
232,24,88609,2,0,L|308:36,1,64.9999970245363,2|0,0:0|0:0,0:0:0:0:
440,12,88870,2,0,B|452:76|452:76|432:128|432:128|452:204,1,194.999991073609,0|0,1:0|1:0,0:0:0:0:
504,304,89392,2,0,B|444:296|444:296|384:344,1,129.999994049073,0|2,1:0|0:0,0:0:0:0:
156,372,89914,6,0,L|176:236,1,129.999994049073,0|2,1:0|0:0,0:0:0:0:
276,184,90305,1,0,0:0:0:0:
168,140,90435,2,0,P|100:148|40:108,1,129.999994049073,0|2,1:0|0:0,0:0:0:0:
292,12,90957,5,0,1:0:0:0:
400,56,91088,2,0,L|388:192,1,129.999994049073,0|0,1:0|1:0,0:0:0:0:
336,280,91479,6,0,B|472:264|472:264|436:296,1,179.999994506836
384,380,92001,6,0,L|208:360,1,172.500003290176,4|0,1:0|0:0,0:0:0:0:
132,320,92522,2,0,B|84:336|84:336|60:380,1,100,0|2,1:0|0:0,0:0:0:0:
208,276,93044,2,0,B|224:180|224:180|188:112,1,150,0|0,1:0|0:0,0:0:0:0:
120,176,93566,2,0,L|-12:161,1,100,0|2,1:0|0:0,0:0:0:0:
148,36,94088,6,0,B|200:28|200:28|248:48|248:48|312:36,1,150,0|0,1:0|0:0,0:0:0:0:
376,8,94609,2,0,L|364:120,1,100,0|2,1:0|0:0,0:0:0:0:
486,242,95131,2,0,B|508:340|508:340|476:384,1,150,0|0,1:0|0:0,0:0:0:0:
400,332,95653,2,0,B|288:344,1,100,0|2,1:0|0:0,0:0:0:0:
124,380,96175,6,0,B|16:360|16:360|80:332,1,150,0|0,1:0|0:0,0:0:0:0:
108,272,96696,2,0,L|96:212,1,50,0|0,1:0|0:0,0:0:0:0:
28,168,96957,1,2,0:0:0:0:
152,36,97218,2,0,B|196:56|196:56|312:36,1,150,0|0,1:0|0:0,0:0:0:0:
380,8,97740,2,0,B|396:64|396:64|372:108,1,100,0|2,1:0|0:0,0:0:0:0:
216,180,98261,6,0,B|180:224|180:224|204:336,1,150,0|0,1:0|0:0,0:0:0:0:
276,364,98783,2,0,B|328:348|328:348|376:372,1,100,0|2,1:0|0:0,0:0:0:0:
508,252,99305,2,0,B|456:244|456:244|408:260|408:260|344:248,1,150,0|0,1:0|0:0,0:0:0:0:
400,168,99827,1,0,0:0:0:0:
400,168,100348,6,0,B|448:144|504:152|504:152|472:132|460:88,1,172.500003290176,4|2,1:0|0:0,0:0:0:0:
364,76,100870,2,0,L|372:20,1,57.5000010967255,0|0,1:0|0:0,0:0:0:0:
272,128,101131,2,0,L|264:72,1,57.5000010967255,2|0,0:0|0:0,0:0:0:0:
176,168,101392,2,0,P|128:120|44:148,1,150,0|2,1:0|0:0,0:0:0:0:
12,216,101914,2,0,B|33:264|33:264|16:316,1,100,0|2,1:0|0:0,0:0:0:0:
184,376,102435,6,0,L|356:360,1,150,0|0,1:0|0:0,0:0:0:0:
420,380,102957,2,0,P|452:336|452:276,1,100,0|2,1:0|0:0,0:0:0:0:
300,204,103479,2,0,B|281:148|281:148|312:56,1,150,0|0,1:0|0:0,0:0:0:0:
392,20,104001,2,0,L|508:40,1,100,0|2,1:0|0:0,0:0:0:0:
504,216,104522,6,0,B|396:224|396:224|352:276,1,150,0|0,1:0|0:0,0:0:0:0:
344,344,105044,2,0,B|296:356|296:356|244:328,1,100,0|2,1:0|0:0,0:0:0:0:
128,200,105566,2,0,L|108:352,1,150,0|0,1:0|0:0,0:0:0:0:
24,380,106088,2,0,L|9:266,1,100,0|2,1:0|0:0,0:0:0:0:
40,104,106609,6,0,B|96:92|96:92|144:104|144:104|212:88,1,150,0|0,1:0|0:0,0:0:0:0:
252,32,107131,2,0,L|380:52,1,100,0|2,1:0|0:0,0:0:0:0:
500,148,107653,2,0,P|416:184|428:256,1,150,0|0,1:0|0:0,0:0:0:0:
468,304,108175,6,0,L|336:316,1,112.500004291535,0|0,0:0|2:0,0:0:0:0:
296,380,108696,6,0,B|64:352|64:352|156:284|156:284|248:296,1,425.000008106232
344,268,110261,2,0,L|320:136,1,127.50000243187
340,128,110783,6,0,B|264:176|264:96|169:141|169:141|208:100|208:32|180:0|136:-20|60:-4|28:48|68:120,1,510.000009727478
240,364,112870,6,0,L|324:354,1,85.0000016212464,2|0,0:0|0:0,0:0:0:0:
136,312,113392,2,0,P|88:344|64:384,1,85.0000016212464,0|0,0:0|0:0,0:0:0:0:
240,256,113914,2,0,P|252:192|160:120,1,170.000003242493,0|0,0:0|0:0,0:0:0:0:
60,216,114696,1,0,0:0:0:0:
176,368,114957,6,0,B|236:356|236:356|288:372|288:372|356:356,1,170.000003242493,2|0,0:0|0:0,0:0:0:0:
468,240,115740,2,0,B|408:228|408:228|356:244|356:244|303:231,1,170.000003242493,0|0,0:0|0:0,0:0:0:0:
404,116,116522,2,0,L|504:108,1,85.0000016212464,0|0,0:0|0:0,0:0:0:0:
324,36,117044,6,0,B|276:32|276:32|232:52|232:52|184:16|116:16|72:56|72:116,1,300,2|0,0:0|2:0,0:0:0:0:
176,252,118088,2,0,P|180:336|28:300,1,300,2|0,0:0|2:0,0:0:0:0:
152,140,119131,2,0,B|192:72|280:64|336:104|336:104|332:160|272:192,1,300,2|0,0:0|2:0,0:0:0:0:
152,316,120175,2,0,B|212:328|252:368|252:368|316:336|316:336|381:368|444:352,1,300,2|0,0:0|2:0,0:0:0:0:
504,172,121218,6,0,L|488:64,1,100,2|0,0:0|0:0,0:0:0:0:
396,228,121740,2,0,L|380:120,1,100,2|0,0:0|0:0,0:0:0:0:
212,68,122261,6,0,L|197:166,1,100,2|0,0:0|0:0,0:0:0:0:
104,12,122783,2,0,L|89:110,1,100,2|0,0:0|0:0,0:0:0:0:
0,320,123305,5,2,0:0:0:0:
196,268,123566,1,2,0:0:0:0:
0,320,123827,5,2,0:0:0:0:
196,268,124088,1,2,0:0:0:0:
0,320,124348,5,2,0:0:0:0:
36,236,124479,2,0,L|20:124,1,100,0|2,1:0|0:0,0:0:0:0:
60,56,124870,2,0,B|112:64|112:64|168:24,1,100,0|8,1:0|0:0,0:0:0:0:
150,36,125392,6,0,L|284:52,1,129.999994049073,4|2,1:0|0:0,0:0:0:0:
372,8,125783,1,0,0:0:0:0:
472,36,125914,2,0,P|464:84|448:116,1,64.9999970245363,0|0,1:0|0:0,0:0:0:0:
356,128,126175,2,0,L|372:200,1,64.9999970245363,2|0,0:0|0:0,0:0:0:0:
468,228,126435,2,0,B|496:268|496:268|476:368,1,129.999994049073,0|2,1:0|0:0,0:0:0:0:
380,380,126827,1,2,0:0:0:0:
288,332,126957,2,0,L|154:348,1,129.999994049073,0|2,1:0|0:0,0:0:0:0:
0,176,127479,6,0,L|134:192,1,129.999994049073,0|2,1:0|0:0,0:0:0:0:
212,252,127870,1,2,0:0:0:0:
231,147,128001,2,0,P|212:121|201:91,1,64.9999970245363,0|0,1:0|0:0,0:0:0:0:
312,211,128261,2,0,P|324:182|345:157,1,64.9999970245363,2|2,0:0|0:0,0:0:0:0:
296,316,128522,2,0,P|386:302|436:384,1,194.999991073609,0|2,1:0|0:0,0:0:0:0:
512,308,129044,2,0,B|491:272|491:272|503:184,1,129.999994049073,0|0,1:0|0:0,0:0:0:0:
336,0,129566,6,0,B|348:88|348:88|320:136,1,129.999994049073,0|2,1:0|0:0,0:0:0:0:
224,148,129957,1,0,0:0:0:0:
292,228,130088,2,0,L|355:215,1,64.9999970245363,0|0,1:0|0:0,0:0:0:0:
224,308,130348,2,0,L|160:295,1,64.9999970245363,2|0,0:0|0:0,0:0:0:0:
312,364,130609,2,0,B|380:348|380:348|444:368|444:368|512:352,1,194.999991073609,0|2,1:0|0:0,0:0:0:0:
448,264,131131,2,0,P|456:200|484:136,1,129.999994049073,0|0,1:0|0:0,0:0:0:0:
280,20,131653,6,0,P|305:79|313:143,1,129.999994049073,0|2,1:0|0:0,0:0:0:0:
228,204,132044,1,2,0:0:0:0:
152,132,132175,2,0,L|20:152,1,129.999994049073,0|2,1:0|0:0,0:0:0:0:
148,316,132696,2,0,L|280:336,1,129.999994049073,0|2,1:0|0:0,0:0:0:0:
364,276,133088,1,0,0:0:0:0:
376,376,133218,6,0,L|492:358,1,112.500004291535,0|0,1:0|0:0,0:0:0:0:
512,376,133740,6,0,L|496:224,1,129.999994049073,4|2,1:0|0:0,0:0:0:0:
488,144,134131,1,0,0:0:0:0:
400,200,134261,2,0,L|324:191,1,64.9999970245363,0|0,1:0|0:0,0:0:0:0:
232,216,134522,2,0,P|249:243|262:273,1,64.9999970245363,2|0,0:0|0:0,0:0:0:0:
232,372,134783,2,0,L|80:356,1,129.999994049073,0|2,1:0|0:0,0:0:0:0:
0,384,135175,1,2,0:0:0:0:
28,284,135305,2,0,B|41:207|41:207|4:136,1,129.999994049073,0|2,1:0|0:0,0:0:0:0:
188,0,135827,6,0,B|163:45|163:45|177:122,1,129.999994049073,0|2,1:0|0:0,0:0:0:0:
264,176,136218,1,2,0:0:0:0:
168,220,136348,2,0,L|92:212,1,64.9999970245363,0|0,1:0|0:0,0:0:0:0:
8,260,136609,2,0,B|16:292|16:292|8:324,1,64.9999970245363,2|2,0:0|0:0,0:0:0:0:
104,368,136870,2,0,B|204:332|204:404|304:368,1,194.999991073609,0|2,1:0|0:0,0:0:0:0:
384,320,137392,2,0,P|452:328|476:388,1,129.999994049073,0|0,1:0|0:0,0:0:0:0:
296,276,137914,6,0,P|288:220|356:172,1,129.999994049073,0|2,1:0|0:0,0:0:0:0:
432,220,138305,1,0,0:0:0:0:
508,152,138435,2,0,L|492:88,1,64.9999970245363,0|0,1:0|0:0,0:0:0:0:
416,16,138696,2,0,P|408:48|392:92,1,64.9999970245363,2|0,0:0|0:0,0:0:0:0:
296,48,138957,2,0,B|168:68|168:68|104:32,1,194.999991073609,0|2,1:0|0:0,0:0:0:0:
8,60,139479,2,0,B|36:104|36:104|20:184,1,129.999994049073,0|2,1:0|0:0,0:0:0:0:
192,340,140001,6,0,B|264:356|324:328|324:328|292:344|284:372,1,194.999991073609,0|2,1:0|0:0,0:0:0:0:
416,380,140522,2,0,L|396:228,1,129.999994049073,0|2,1:0|0:0,0:0:0:0:
512,16,141044,1,0,1:0:0:0:
424,68,141175,2,0,L|284:60,1,129.999994049073,0|0,1:0|1:0,0:0:0:0:
200,16,141566,2,0,B|64:32|64:32|120:60,1,179.999994506836,0|0,0:0|2:0,0:0:0:0:
180,120,142088,6,0,P|152:168|48:136,1,172.500003290176,4|0,1:0|0:0,0:0:0:0:
0,236,142609,2,0,B|24:276|24:276|16:344,1,115.000002193451
220,376,143131,2,0,B|268:364|268:364|340:380|340:380|392:368,1,172.500003290176,0|2,1:0|0:0,0:0:0:0:
452,288,143653,2,0,L|508:300,2,57.5000010967255
300,112,144175,6,0,B|268:44|304:4|304:4|336:24|324:64,1,172.500003290176
380,140,144696,2,0,L|208:125,1,172.500003290176
132,52,145218,2,0,P|104:100|108:160,1,115.000002193451,0|2,1:0|0:0,0:0:0:0:
180,224,145609,1,2,0:0:0:0:
80,252,145740,2,0,L|-5:244,2,57.5000010967255
248,356,146261,6,0,B|372:344|372:344|408:380,1,172.500003290176,0|0,0:0|0:0,0:0:0:0:
508,356,146783,2,0,L|492:224,1,115.000002193451,0|0,0:0|0:0,0:0:0:0:
512,36,147305,2,0,B|460:28|460:28|408:60|408:60|336:48,1,172.500003290176,0|2,1:0|0:0,0:0:0:0:
256,8,147827,2,0,L|188:16,2,57.5000010967255,0|0|0,0:0|0:0|0:0,0:0:0:0:
72,148,148348,6,0,L|4:140,2,57.5000010967255,0|0|0,0:0|0:0|0:0,0:0:0:0:
236,276,148870,2,0,B|104:296|104:296|164:320,1,172.500003290176,0|0,0:0|0:0,0:0:0:0:
220,380,149392,2,0,L|288:368,1,57.5000010967255,0|0,1:0|1:0,0:0:0:0:
360,308,149653,2,0,P|390:318|420:336,1,57.5000010967255,0|2,1:0|0:0,0:0:0:0:
504,380,149914,6,0,B|536:280|444:280|504:180,1,194.999991073609,0|0,0:0|2:0,0:0:0:0:
412,136,150435,6,0,P|348:164|312:56,1,172.500003290176,4|0,1:2|0:0,0:0:0:0:
380,32,150957,2,0,L|504:48,1,115.000002193451,0|2,1:0|0:0,0:0:0:0:
512,252,151479,2,0,B|456:264|456:264|424:308|424:308|356:320,1,172.500003290176,0|0,1:0|0:0,0:0:0:0:
276,264,152001,2,0,L|264:384,1,115.000002193451,0|2,1:0|0:0,0:0:0:0:
8,336,152522,6,0,L|2:276,1,57.5000010967255,2|0,0:0|0:0,0:0:0:0:
56,188,152783,2,0,L|50:128,1,57.5000010967255,2|0,0:0|0:0,0:0:0:0:
84,32,153044,2,0,B|124:48|124:48|200:32,1,115.000002193451,0|2,1:0|0:0,0:0:0:0:
400,4,153566,2,0,B|384:68|384:68|404:120|404:120|384:180,1,172.500003290176,0|0,1:0|0:0,0:0:0:0:
400,272,154088,2,0,P|448:236|508:256,1,115.000002193451,0|2,1:0|0:0,0:0:0:0:
311,340,154609,6,0,B|256:364|256:364|146:340,1,172.500003290176,0|2,1:0|0:0,0:0:0:0:
60,272,155131,2,0,P|36:332|48:388,1,115.000002193451,0|2,1:0|0:0,0:0:0:0:
176,228,155653,2,0,B|212:184|204:124|204:124|180:84|136:64,1,172.500003290176,0|0,1:0|0:0,0:0:0:0:
84,12,156175,2,0,P|44:48|-16:32,1,115.000002193451,0|2,1:0|0:0,0:0:0:0:
28,264,156696,6,0,P|44:292|52:328,1,57.5000010967255,0|0,1:0|0:0,0:0:0:0:
132,380,156957,2,0,P|140:352|154:327,1,57.5000010967255,2|0,0:0|0:0,0:0:0:0:
256,352,157218,2,0,L|380:336,1,115.000002193451,0|2,1:0|0:0,0:0:0:0:
512,184,157740,2,0,L|450:175,1,57.5000010967255,0|0,1:0|1:0,0:0:0:0:
396,92,158001,2,0,L|458:83,1,57.5000010967255,0|0,1:0|0:0,0:0:0:0:
356,20,158261,6,0,B|292:12|292:12|232:40|232:40|152:24,1,194.999991073609,0|0,0:0|2:0,0:0:0:0:
148,36,158783,6,0,B|186:69|190:120|161:168|120:188|56:174|35:130|35:130|56:172|55:196|45:219|9:238|48:310,1,450.000017166138,4|2,0:0|3:0,0:0:0:0:
188,356,160609,6,0,B|269:376|260:320|347:342|347:342|316:297|315:238|343:187|425:152|491:185|514:236|532:295|503:343|468:373|413:375,1,629.999980773926,0|8,0:0|3:0,0:0:0:0:
112,152,162957,6,0,B|116:155|8:76|8:76|184:21|184:21|132:172,1,450.000017166138,0|8,0:0|3:0,0:0:0:0:
264,252,164783,6,0,L|272:189|272:189|322:229|322:229|384:217|384:217|360:277|360:277|391:333|391:333|326:330|326:330|281:376|281:376|265:313|265:313|206:286|206:286|248:259|246:261,1,629.999980773926,0|2,0:0|3:0,0:0:0:0:
428,12,167131,6,0,B|528:32|528:32|468:52,1,150,0|0,0:0|0:0,0:0:0:0:
408,100,167653,2,0,L|432:208,1,100,4|0,3:0|0:0,0:0:0:0:
356,364,168175,2,0,P|268:360|232:312,1,150,0|0,0:0|0:0,0:0:0:0:
148,284,168696,2,0,P|120:336|116:388,1,100,4|0,3:0|0:0,0:0:0:0:
16,208,169218,6,0,B|0:52,1,150,0|0,0:0|0:0,0:0:0:0:
76,8,169740,2,0,B|116:32|116:32|176:16,1,100,4|0,3:0|0:0,0:0:0:0:
276,160,170261,2,0,B|176:148|176:148|116:180,1,150,0|0,0:0|0:0,0:0:0:0:
100,256,170783,2,0,L|208:244,1,100,4|0,3:0|0:0,0:0:0:0:
400,280,171305,6,0,L|384:396,1,100,4|0,3:0|0:0,0:0:0:0:
504,240,171827,2,0,L|488:356,1,100,4|0,3:0|0:0,0:0:0:0:
312,240,172348,6,0,L|298:140,1,100,4|0,3:0|0:0,0:0:0:0:
208,200,172870,2,0,L|194:100,1,100,4|0,3:0|0:0,0:0:0:0:
380,16,173392,6,0,L|484:28,1,100,4|0,3:0|0:0,0:0:0:0:
312,96,173914,2,0,L|416:108,1,100,4|0,3:0|0:0,0:0:0:0:
268,212,174435,6,0,L|164:224,1,100,4|0,3:0|0:0,0:0:0:0:
336,292,174957,2,0,L|232:304,1,100,4|0,3:0|0:0,0:0:0:0:
48,376,175479,5,4,3:0:0:0:
0,200,175740,1,4,3:0:0:0:
48,376,176001,5,4,3:0:0:0:
0,200,176262,1,4,3:0:0:0:
148,96,176522,5,4,3:0:0:0:
100,272,176783,1,4,3:0:0:0:
148,96,177044,5,4,3:0:0:0:
100,272,177305,1,4,3:0:0:0:
248,376,177566,5,4,3:0:0:0:
200,200,177827,1,4,3:0:0:0:
248,376,178088,5,4,3:0:0:0:
200,200,178349,1,4,3:0:0:0:
348,96,178609,5,4,3:0:0:0:
300,272,178870,1,4,3:0:0:0:
348,96,179131,5,4,3:0:0:0:
300,272,179392,1,4,3:0:0:0:
452,368,179653,6,0,L|501:359,3,50,4|4|4|4,3:0|3:0|3:0|3:0,0:0:0:0:
428,280,180175,6,0,L|378:271,3,50,4|4|4|4,3:0|3:0|3:0|3:0,0:0:0:0:
452,192,180696,6,0,L|501:183,3,50,4|4|4|4,3:0|3:0|3:0|3:0,0:0:0:0:
428,104,181218,6,0,L|360:92,3,50,4|4|4|4,3:0|3:0|3:0|3:0,0:0:0:0:
292,68,181740,6,4,L|304:8,1,50,4|4,3:0|3:0,3:3:0:0:
193,78,182001,6,4,L|159:27,1,50,4|4,3:0|3:0,3:3:0:0:
132,156,182261,6,4,L|72:144,1,50,4|4,3:0|3:0,3:3:0:0:
142,254,182522,6,4,L|91:288,1,50,4|4,3:0|3:0,3:3:0:0:
220,316,182783,6,4,L|208:376,1,50,4|4,3:0|3:0,3:3:0:0:
318,305,183044,6,4,L|352:356,1,50,4|4,3:0|3:0,3:3:0:0:
380,227,183305,6,0,B|432:220|472:240|472:240|448:216|432:164,1,150
500,92,183827,6,0,B|400:56|400:128|300:92,1,194.999991073609,4|0,1:2|0:0,0:0:0:0:
208,72,184348,2,0,L|224:8,1,64.9999970245363,0|0,1:0|0:0,0:0:0:0:
120,128,184609,2,0,P|112:104|86:71,1,64.9999970245363,2|0,0:0|0:0,0:0:0:0:
160,224,184870,2,0,L|24:216,1,129.999994049073,0|2,0:0|0:0,0:0:0:0:
0,316,185261,1,0,0:0:0:0:
96,356,185392,2,0,B|160:344|160:344|220:372|220:372|300:356,1,194.999991073609,0|0,1:0|0:0,0:0:0:0:
332,268,185914,6,0,B|352:204|352:204|380:336,1,194.999991073609
472,372,186435,2,0,L|488:232,1,129.999994049073,0|2,1:0|0:0,0:0:0:0:
444,148,186827,1,0,0:0:0:0:
500,60,186957,2,0,B|452:48|452:48|408:64|408:64|353:41|308:64,1,194.999991073609
232,128,187479,1,0,1:0:0:0:
60,12,187740,2,0,L|48:96,1,64.9999970245363,2|0,0:0|0:0,0:0:0:0:
0,168,188001,6,0,B|24:200|24:200|-4:320|-4:320|16:348,1,194.999991073609,0|0,0:0|0:0,0:0:0:0:
112,376,188522,2,0,L|264:352,1,129.999994049073,0|2,1:0|0:0,0:0:0:0:
444,304,189044,2,0,B|316:284|316:284|388:244,1,194.999991073609,0|0,0:0|0:0,0:0:0:0:
468,212,189566,2,0,B|496:173|496:173|472:72,1,129.999994049073,0|2,1:0|0:0,0:0:0:0:
276,32,190088,6,0,B|176:68|176:-4|76:32,1,194.999991073609,0|0,0:0|0:0,0:0:0:0:
20,108,190609,2,0,B|104:116|104:116|136:148,1,129.999994049073,0|2,1:0|0:0,0:0:0:0:
76,348,191131,2,0,B|144:336|144:336|200:356|200:356|280:340,1,194.999991073609
356,292,191653,6,0,P|388:320|412:364,1,75,4|0,1:1|0:0,0:0:0:0:
440,372,192175,6,0,B|405:308|418:249|418:249|450:208|511:197,1,194.999991073609,4|0,0:0|0:0,0:0:0:0:
512,112,192696,2,0,L|496:32,1,64.9999970245363,0|0,1:0|0:0,0:0:0:0:
404,4,192957,2,0,L|388:84,1,64.9999970245363,2|0,0:0|0:0,0:0:0:0:
328,152,193218,2,0,B|192:136|192:136|252:112,1,194.999991073609,0|0,0:0|0:0,0:0:0:0:
184,32,193740,2,0,B|96:40|96:40|64:80,1,129.999994049073,0|2,1:0|0:0,0:0:0:0:
0,268,194261,6,0,B|56:300|124:288|124:288|84:316|72:356,1,194.999991073609,0|0,0:0|0:0,0:0:0:0:
176,372,194783,2,0,L|316:352,1,129.999994049073,0|2,1:0|0:0,0:0:0:0:
408,380,195175,1,0,0:0:0:0:
512,364,195305,2,0,B|492:300|492:300|521:247|521:247|500:172,1,194.999991073609,0|0,0:0|0:0,0:0:0:0:
404,212,195827,2,0,L|424:72,1,129.999994049073,0|2,1:0|0:0,0:0:0:0:
224,16,196348,6,0,P|168:84|76:28,1,194.999991073609,0|0,0:0|0:0,0:0:0:0:
4,100,196870,2,0,B|32:164|32:164|12:232,1,129.999994049073,0|2,1:0|0:0,0:0:0:0:
160,372,197392,2,0,B|144:248|144:248|192:188,1,194.999991073609,0|0,0:0|0:0,0:0:0:0:
268,260,197914,2,0,L|428:240,1,129.999994049073,0|2,1:0|0:0,0:0:0:0:
508,68,198435,6,0,B|432:80|380:40|380:40|348:64|304:80,1,194.999991073609,0|0,0:0|0:0,0:0:0:0:
244,8,198957,1,0,1:0:0:0:
40,52,199218,2,0,L|56:120,1,64.9999970245363,2|0,0:0|0:0,0:0:0:0:
24,216,199479,1,0,1:0:0:0:
124,184,199609,2,0,B|208:200|208:200|240:244,1,129.999994049073,0|0,1:0|1:0,0:0:0:0:
164,300,200001,2,0,B|48:320|48:320|116:344,1,179.999994506836,4|0,1:1|2:0,0:0:0:0:
236,364,200522,6,0,L|368:348,1,129.999994049073,4|2,0:0|0:0,0:0:0:0:
464,380,200914,1,0,0:0:0:0:
440,280,201044,2,0,L|420:192,1,64.9999970245363,0|0,1:0|0:0,0:0:0:0:
484,132,201305,2,0,P|501:104|511:73,1,64.9999970245363,2|0,0:0|0:0,0:0:0:0:
416,32,201566,2,0,B|316:-4|316:68|216:32,1,194.999991073609,0|0,0:0|0:0,0:0:0:0:
128,4,202088,2,0,B|100:48|100:48|120:124,1,129.999994049073,0|2,1:0|0:0,0:0:0:0:
328,228,202609,6,0,B|256:264|204:252|204:252|260:280|260:296,1,194.999991073609,0|0,0:0|0:0,0:0:0:0:
200,376,203131,2,0,B|160:356|160:356|68:376,1,129.999994049073,0|2,1:0|0:0,0:0:0:0:
0,304,203522,1,0,0:0:0:0:
72,228,203653,2,0,B|60:160|60:160|16:124|16:124|4:56,1,194.999991073609,0|0,0:0|0:0,0:0:0:0:
108,76,204175,2,0,P|184:65|220:20,1,129.999994049073,0|2,1:0|0:0,0:0:0:0:
360,212,204696,6,0,P|314:167|251:163,1,129.999994049073,0|2,0:0|0:0,0:0:0:0:
160,212,205088,1,0,0:0:0:0:
244,272,205218,2,0,L|260:356,1,64.9999970245363,0|0,1:0|0:0,0:0:0:0:
352,376,205479,2,0,P|360:344|384:308,1,64.9999970245363,2|0,0:0|0:0,0:0:0:0:
480,340,205740,2,0,B|452:212|452:212|488:144,1,194.999991073609,0|0,0:0|0:0,0:0:0:0:
512,56,206261,2,0,L|364:36,1,129.999994049073,0|2,1:0|0:0,0:0:0:0:
148,68,206783,6,0,B|124:48|116:12|116:12|128:92|76:144,1,194.999991073609,0|0,0:0|0:0,0:0:0:0:
8,204,207305,2,0,L|160:220,1,129.999994049073,0|2,1:0|0:0,0:0:0:0:
324,308,207827,2,0,B|256:320|256:320|224:364|224:364|140:380,1,194.999991073609,0|0,0:0|0:0,0:0:0:0:
52,352,208348,6,0,L|40:272,1,75,4|0,1:1|2:0,0:0:0:0:
4,296,208870,6,0,B|25:247|25:247|4:168,1,129.999994049073,4|2,0:0|0:0,0:0:0:0:
32,72,209261,1,0,0:0:0:0:
108,144,209392,2,0,L|188:128,1,64.9999970245363,0|0,1:0|0:0,0:0:0:0:
236,48,209653,2,0,L|172:35,1,64.9999970245363,2|0,0:0|0:0,0:0:0:0:
328,0,209914,2,0,B|336:80|336:80|312:120|312:120|324:196,1,194.999991073609,0|0,0:0|0:0,0:0:0:0:
396,260,210435,2,0,P|444:216|512:228,1,129.999994049073,0|2,1:0|0:0,0:0:0:0:
304,348,210957,6,0,B|248:358|180:328|180:328|160:352|112:376,1,194.999991073609,0|0,0:0|0:0,0:0:0:0:
28,340,211479,2,0,L|8:200,1,129.999994049073,0|2,1:0|0:0,0:0:0:0:
84,140,211870,1,0,0:0:0:0:
20,60,212001,2,0,B|-3:39|-3:39|124:12|124:12|104:48,1,194.999991073609,0|0,0:0|0:0,0:0:0:0:
212,40,212522,2,0,L|352:24,1,129.999994049073,0|2,1:0|0:0,0:0:0:0:
504,192,213044,6,0,B|420:176|420:176|380:204,1,129.999994049073,0|2,0:0|0:0,0:0:0:0:
360,304,213435,1,0,0:0:0:0:
280,236,213566,2,0,L|268:172,1,64.9999970245363,0|0,1:0|0:0,0:0:0:0:
183,275,213827,2,0,P|160:251|130:238,1,64.9999970245363,2|0,0:0|0:0,0:0:0:0:
240,364,214088,2,0,B|140:392|140:336|40:364,1,194.999991073609,0|0,0:0|0:0,0:0:0:0:
4,280,214609,2,0,B|24:244|24:244|0:132,1,129.999994049073,0|2,1:0|0:0,0:0:0:0:
188,8,215131,5,0,0:0:0:0:
276,64,215261,2,0,B|320:80|320:80|412:64,1,129.999994049073,0|0,1:0|1:0,0:0:0:0:
492,120,215653,2,0,B|484:180|484:180|516:252|516:252|504:332,1,194.999991073609,0|0,1:0|0:0,0:0:0:0:
428,376,216175,1,0,1:0:0:0:
368,292,216305,2,0,B|284:300|284:300|248:340,1,129.999994049073,0|0,1:0|1:0,0:0:0:0:
156,376,216696,6,0,B|172:288|140:260|140:260|108:288|116:332,1,194.999991073609,4|0,1:1|0:0,0:0:0:0:
16,288,217218,6,0,B|-24:188|56:188|16:88,1,194.999991073609,4|0,1:2|0:0,0:0:0:0:
72,8,217740,2,0,P|120:28|152:32,1,57.5000010967255,0|0,1:0|0:0,0:0:0:0:
192,108,218001,2,0,P|164:116|138:129,1,57.5000010967255,2|0,0:0|0:0,0:0:0:0:
128,232,218261,2,0,P|216:240|264:172,1,172.500003290176,0|0,1:0|0:0,0:0:0:0:
332,256,218783,2,0,B|308:296|308:296|328:372,1,115.000002193451,0|2,1:0|0:0,0:0:0:0:
508,212,219305,6,0,L|496:148,1,57.5000010967255
410,67,219566,2,0,L|399:123,1,57.5000010967255,2|0,0:0|0:0,0:0:0:0:
312,180,219827,2,0,L|300:116,1,57.5000010967255,0|2,1:0|0:0,0:0:0:0:
214,35,220088,2,0,L|203:91,1,57.5000010967255,2|0,0:0|0:0,0:0:0:0:
116,148,220348,2,0,L|104:84,1,57.5000010967255,0|2,1:0|0:0,0:0:0:0:
24,24,220609,2,0,L|13:80,1,57.5000010967255,2|2,0:0|0:0,0:0:0:0:
52,216,220870,6,0,P|77:229|104:237,1,57.5000010967255,0|0,1:0|0:0,0:0:0:0:
56,332,221131,2,0,P|28:340|3:353,1,57.5000010967255,2|0,0:0|0:0,0:0:0:0:
160,384,221392,6,0,B|212:336|200:272|200:272|224:320|260:324,1,194.999991073609,0|0,1:0|0:0,0:0:0:0:
332,384,221914,2,0,L|456:364,1,115.000002193451,0|2,1:0|0:0,0:0:0:0:
512,284,222305,1,0,0:0:0:0:
408,268,222435,6,0,L|394:212,1,57.5000010967255,0|0,1:0|0:0,0:0:0:0:
324,292,222696,2,0,L|310:236,1,57.5000010967255,0|0,1:0|0:0,0:0:0:0:
328,132,222957,2,0,B|276:156|276:156|196:140,1,115.000002193451,0|2,1:0|0:0,0:0:0:0:
40,24,223479,6,0,B|48:92|48:92|24:144|24:144|36:212,1,172.500003290176,0|2,1:0|0:0,0:0:0:0:
72,288,224001,2,0,P|44:348|0:372,1,115.000002193451,0|2,1:0|0:0,0:0:0:0:
136,212,224522,2,0,B|192:208|240:236|240:236|212:204|204:176,1,172.500003290176,0|2,1:0|0:0,0:0:0:0:
256,84,225044,5,4,0:0:0:0:
