osu file format v14

[General]
AudioFilename: audio.mp3
AudioLeadIn: 0
PreviewTime: 183175
Countdown: 0
SampleSet: Soft
StackLeniency: 0.6
Mode: 0
LetterboxInBreaks: 0
WidescreenStoryboard: 1

[Editor]
DistanceSpacing: 1
BeatDivisor: 4
GridSize: 8
TimelineZoom: 1

[Metadata]
Title:A Light That Never Comes
TitleUnicode:A Light That Never Comes
Artist:Linkin Park, Steve Aoki
ArtistUnicode:Linkin Park, Steve Aoki
Creator:pw384
Version:Easy
Source:
Tags:Recharged HootOwlStar 384059043
BeatmapID:1247760
BeatmapSetID:566773

[Difficulty]
HPDrainRate:1.3
CircleSize:2.5
OverallDifficulty:1.7
ApproachRate:2
SliderMultiplier:0.96
SliderTickRate:1

[Events]
//Background and Video events
0,0,"bg.jpg",0,0
//Break Periods
2,42113,48175
2,92201,98788
2,158983,165044
//Storyboard Layer 0 (Background)
//Storyboard Layer 1 (Fail)
//Storyboard Layer 2 (Pass)
//Storyboard Layer 3 (Foreground)
//Storyboard Sound Samples

[TimingPoints]
175,521.739130434783,4,2,0,80,1,0
305,-100,4,2,0,60,0,0
8522,-100,4,2,0,60,0,0
16870,-100,4,2,0,40,0,0
17392,-100,4,2,0,60,0,0
24696,-100,4,1,0,40,0,0
25218,-100,4,2,0,65,0,0
41392,-100,4,2,0,80,0,0
41914,-100,4,2,0,40,0,0
50261,-100,4,3,0,40,0,0
52348,-100,4,3,0,45,0,0
54435,-100,4,3,0,50,0,0
56522,-100,4,3,0,55,0,0
58609,-100,4,3,0,60,0,0
71131,-100,4,2,0,40,0,0
75305,-100,4,2,0,60,0,0
78957,-100,4,2,0,60,0,0
79479,-100,4,2,0,60,0,0
83131,-100,4,1,0,40,0,0
83653,-100,4,2,0,60,0,0
91479,-100,4,1,0,40,0,0
92001,-100,4,2,0,60,0,0
100348,-100,4,2,0,60,0,0
108175,-100,4,1,0,40,0,0
108696,-100,4,2,0,50,0,0
117044,-100,4,3,0,60,0,0
121218,-100,4,3,0,65,0,0
125392,-100,4,2,0,70,0,0
133218,-100,4,1,0,55,0,0
133740,-100,4,2,0,75,0,0
141566,-100,4,1,0,60,0,0
142088,-100,4,2,0,80,0,1
149914,-100,4,1,0,60,0,0
150435,-100,4,2,0,80,0,1
158261,-100,4,1,0,60,0,1
158783,-100,4,2,0,50,0,0
181740,-100,4,2,0,60,0,0
183305,-100,4,2,0,60,0,0
183827,-100,4,2,0,85,0,1
191653,-100,4,2,0,85,0,0
192175,-100,4,2,0,85,0,1
200001,-100,4,1,0,60,0,0
200522,-100,4,2,0,85,0,1
208348,-100,4,1,0,60,0,0
208870,-100,4,2,0,85,0,1
216696,-100,4,1,0,60,0,1
217218,-100,4,2,0,70,0,0
220870,-100,4,2,0,70,0,0
221392,-100,4,2,0,70,0,0
225044,-100,4,2,0,85,0,0

[Colours]
Combo1 : 85,85,85
Combo2 : 233,233,233

[HitObjects]
59,122,175,6,0,P|190:125|192:255,1,288,0|0,1:0|1:0,0:0:0:0:
124,192,2261,2,0,B|192:140|256:192|256:192|320:244|388:192,1,288,0|0,1:0|1:0,0:0:0:0:
319,128,4348,2,0,P|321:258|452:261,1,288,0|8,1:0|1:3,0:0:0:0:
388,192,6435,5,0,1:0:0:0:
256,60,7479,1,0,1:0:0:0:
124,192,8522,6,0,B|192:244|256:192|256:192|320:140|388:192,1,288,4|0,1:0|0:0,0:0:0:0:
320,256,10609,2,0,P|312:304|320:360,2,96,0|0|0,1:0|1:0|1:0,0:0:0:0:
388,192,12175,1,0,0:0:0:0:
320,128,12696,6,0,P|312:80|320:24,2,96,0|0|0,1:0|1:0|1:0,0:0:0:0:
388,192,14261,1,0,0:0:0:0:
320,256,14783,2,0,P|256:358|192:256,1,288,0|0,1:0|0:0,0:0:0:0:
124,191,16870,6,0,P|256:143|388:192,1,288,4|0,1:0|0:0,0:0:0:0:
472,144,18957,2,0,P|432:104|384:80,1,96,0|0,1:0|1:0,0:0:0:0:
304,56,20001,2,0,L|208:56,1,96,0|0,1:0|0:0,0:0:0:0:
114,85,21044,6,0,P|72:109|40:144,1,96,0|0,1:0|1:0,0:0:0:0:
40,240,22088,2,0,P|80:280|128:304,1,96,0|0,1:0|0:0,0:0:0:0:
208,328,23131,1,0,1:0:0:0:
304,328,23653,1,0,1:0:0:0:
397,298,24175,2,0,P|439:274|472:240,1,96,0|0,1:0|0:0,0:0:0:0:
472,144,25218,6,0,B|438:179|337:186|393:104|258:89|216:168,1,288,4|0,1:0|1:0,0:0:0:0:
296,216,27305,2,0,B|254:295|119:280|175:198|74:205|40:240,1,288,0|0,1:0|1:0,0:0:0:0:
40,144,29392,6,0,P|24:96|40:48,2,96,0|0|0,1:0|1:0|1:0,0:0:0:0:
120,96,30957,1,0,1:0:0:0:
200,48,31479,2,0,P|216:96|200:144,1,96,0|0,1:0|1:0,0:0:0:0:
120,192,32522,2,0,P|104:240|120:288,1,96,0|0,1:0|1:0,0:0:0:0:
192,336,33566,6,0,P|322:326|324:195,1,288,4|0,1:0|1:0,0:0:0:0:
256,264,35653,2,0,L|456:280,1,192,0|0,1:0|1:0,0:0:0:0:
488,192,37218,1,0,1:0:0:0:
447,104,37740,6,0,L|352:112,1,96,0|0,1:0|1:0,0:0:0:0:
256,144,38783,2,0,L|256:240,1,96,0|0,1:0|1:0,0:0:0:0:
160,272,39827,2,0,L|64:279,1,96,0|0,1:0|1:0,0:0:0:0:
24,192,40870,1,0,1:0:0:0:
64,104,41392,6,0,L|160:112,1,96,0|4,1:0|0:0,0:0:0:0:
80,192,50261,6,0,B|128:152|200:144|256:192|256:192|312:240|384:232|432:192,2,384,0|0|0,0:0|0:0|0:0,0:0:0:0:
112,384,55479,5,0,0:0:0:0:
256,256,56522,1,0,0:0:0:0:
400,384,57566,1,0,0:0:0:0:
432,192,58609,6,0,B|384:152|312:144|256:192|256:192|200:240|128:232|80:192,2,384,2|2|2,0:0|0:0|0:0,0:0:0:0:
472,280,63305,5,2,0:0:0:0:
400,344,63827,2,0,P|352:352|304:352,1,96,2|2,0:0|0:0,0:0:0:0:
207,352,64870,2,0,P|159:351|112:344,1,96,2|2,0:0|0:0,0:0:0:0:
40,280,65914,1,2,0:0:0:0:
8,192,66435,1,2,0:0:0:0:
256,192,66957,12,2,71131,0:0:0:0:
272,192,74783,5,4,1:0:0:0:
368,192,75305,6,0,P|448:120|432:40,2,192,4|0|0,1:0|0:0|1:0,0:0:0:0:
352,96,77914,1,0,1:0:0:0:
256,80,78435,1,0,1:0:0:0:
160,96,78957,1,0,1:0:0:0:
143,191,79480,6,0,P|70:137|76:45,2,192,0|0|0,1:0|0:0|1:0,0:0:0:0:
232,232,82088,1,0,1:0:0:0:
280,152,82609,2,0,P|304:120|360:96,1,96,0|0,1:0|0:0,0:0:0:0:
368,192,83653,6,0,P|448:264|432:344,2,192,4|0|0,1:0|0:0|1:0,0:0:0:0:
352,288,86262,1,0,1:0:0:0:
256,304,86783,1,0,1:0:0:0:
160,288,87305,1,0,1:0:0:0:
143,192,87828,6,0,P|70:246|76:338,2,192,0|0|0,1:0|0:0|1:0,0:0:0:0:
232,152,90435,1,0,1:0:0:0:
280,232,90957,2,0,P|304:264|360:288,1,96,0|0,1:0|0:0,0:0:0:0:
448,264,92001,5,4,1:0:0:0:
40,144,100348,6,0,B|74:179|175:186|119:104|254:89|296:168,1,288,4|0,1:0|1:0,0:0:0:0:
216,216,102435,2,0,B|258:295|393:280|337:198|438:205|472:240,1,288,0|0,1:0|1:0,0:0:0:0:
472,144,104522,6,0,P|488:96|472:48,2,96,0|0|0,1:0|1:0|1:0,0:0:0:0:
392,96,106087,1,0,1:0:0:0:
312,48,106609,2,0,P|296:96|312:144,1,96,0|0,1:0|1:0,0:0:0:0:
392,192,107653,2,0,P|408:240|392:288,1,96,0|0,1:0|0:0,0:0:0:0:
320,336,108696,6,0,P|190:326|188:195,1,288,0|0,0:0|0:0,0:0:0:0:
256,264,110783,2,0,P|126:254|124:123,1,288,0|0,0:0|0:0,0:0:0:0:
200,64,112870,6,0,B|272:64|320:112|320:184|320:184|416:192|416:192|432:288,2,384,2|2|2,0:0|0:0|0:0,0:0:0:0:
48,192,118088,5,2,0:0:0:0:
168,344,119131,2,0,P|256:312|344:344,1,192,2|2,0:0|0:0,0:0:0:0:
464,192,121218,6,0,P|472:144|464:96,1,96,2|2,0:0|0:0,0:0:0:0:
400,24,122261,2,0,P|352:16|304:24,1,96,2|2,0:0|0:0,0:0:0:0:
206,23,123305,2,0,P|159:16|112:24,1,96,2|2,0:0|0:0,0:0:0:0:
47,97,124348,2,0,P|40:144|48:192,1,96,2|0,0:0|1:0,0:0:0:0:
96,272,125392,6,0,P|232:328|288:216,1,288,4|0,1:0|1:0,0:0:0:0:
222,155,127479,2,0,P|299:49|416:112,1,288,0|0,1:0|1:0,0:0:0:0:
464,192,129566,6,0,P|471:239|288:360,1,288,0|0,1:0|1:0,0:0:0:0:
208,365,131653,2,0,P|76:326|47:192,1,288,0|0,1:0|1:0,0:0:0:0:
96,112,133740,6,0,P|232:56|288:168,1,288,4|0,1:0|1:0,0:0:0:0:
222,228,135827,2,0,P|299:334|416:272,1,288,0|0,1:0|1:0,0:0:0:0:
464,192,137914,6,0,P|472:144|464:96,1,96,0|0,1:0|1:0,0:0:0:0:
400,24,138957,2,0,P|352:16|304:24,1,96,0|0,1:0|1:0,0:0:0:0:
206,23,140001,2,0,P|159:16|112:24,1,96,0|0,1:0|1:0,0:0:0:0:
47,97,141044,2,0,P|40:144|48:192,1,96,0|0,1:0|0:0,0:0:0:0:
144,192,142088,6,0,P|112:264|8:280,2,192,4|0|0,1:0|1:0|0:0,0:0:0:0:
208,120,144696,1,0,0:0:0:0:
256,36,145218,1,0,1:0:0:0:
304,120,145740,1,0,0:0:0:0:
368,192,146261,6,0,P|400:264|504:280,2,192,0|0|0,0:0|1:0|0:0,0:0:0:0:
464,191,148870,2,0,P|471:144|465:97,1,96,0|0,0:0|1:0,0:0:0:0:
400,24,149914,1,4,0:0:0:0:
344,104,150435,6,0,P|256:136|168:104,1,192,0|0,1:0|1:0,0:0:0:0:
112,24,152001,1,0,1:0:0:0:
46,97,152522,2,0,P|40:144|47:191,1,96,0|0,1:0|1:0,0:0:0:0:
120,256,153566,2,0,P|127:303|120:350,1,96,0|0,1:0|1:0,0:0:0:0:
32,304,154609,6,0,L|320:304,1,288,0|0,1:0|1:0,0:0:0:0:
392,240,156696,2,0,L|392:144,1,96,0|0,1:0|1:0,0:0:0:0:
304,104,157740,2,0,L|304:8,2,96,0|0|4,1:0|0:0|0:0,0:0:0:0:
416,192,167131,5,0,0:0:0:0:
344,128,167653,2,0,P|256:96|168:128,1,192,4|4,3:0|3:0,0:0:0:0:
96,192,169218,1,0,0:0:0:0:
168,256,169740,2,0,P|256:288|344:256,1,192,4|4,3:0|3:0,0:0:0:0:
416,192,171305,6,0,P|440:136|360:24,2,192,4|4|4,3:0|3:0|3:0,0:0:0:0:
344,128,173914,1,4,3:0:0:0:
256,88,174435,1,4,3:0:0:0:
168,128,174957,1,4,3:0:0:0:
96,192,175479,6,0,P|72:136|152:24,2,192,4|4|4,3:0|3:0|3:0,0:0:0:0:
176,244,178088,1,4,3:0:0:0:
256,296,178609,1,4,3:0:0:0:
336,244,179131,1,4,3:0:0:0:
416,192,179653,6,0,B|348:124|348:124|256:152|256:152|164:124|164:124|96:192,1,384,4|0,3:0|3:0,0:0:0:0:
176,248,182261,2,0,B|224:264|224:264|256:296|256:296|288:264|288:264|336:248,1,192,0|0,3:0|3:0,0:0:0:0:
416,192,183827,5,4,0:0:0:0:
496,144,184348,2,0,P|384:104|336:144,1,192,0|0,1:0|1:0,0:0:0:0:
256,96,185914,1,0,0:0:0:0:
175,143,186435,2,0,P|95:98|16:144,1,192,0|0,1:0|1:0,0:0:0:0:
96,192,188001,6,0,P|80:240|96:288,2,96,0|0|0,0:0|1:0|0:0,0:0:0:0:
176,240,189566,1,0,1:0:0:0:
256,192,190088,1,0,0:0:0:0:
336,144,190609,1,0,1:0:0:0:
416,191,191131,2,0,P|431:147|419:101,2,96,0|4|4,0:0|1:1|0:0,0:0:0:0:
496,240,192696,6,0,P|384:280|336:240,1,192,0|0,1:0|1:0,0:0:0:0:
256,288,194262,1,0,0:0:0:0:
175,240,194783,2,0,P|95:285|16:240,1,192,0|0,1:0|1:0,0:0:0:0:
96,192,196349,6,0,P|80:144|96:96,2,96,0|0|0,0:0|1:0|0:0,0:0:0:0:
176,144,197914,1,0,1:0:0:0:
256,192,198436,1,0,0:0:0:0:
336,240,198957,1,0,1:0:0:0:
416,192,199479,2,0,P|431:236|419:282,1,96,0|4,0:0|1:1,0:0:0:0:
352,352,200522,6,0,L|160:352,1,192,4|0,0:0|0:0,0:0:0:0:
104,272,202088,1,0,1:0:0:0:
160,192,202609,2,0,L|352:192,1,192,0|0,0:0|0:0,0:0:0:0:
408,112,204175,1,0,1:0:0:0:
352,32,204696,6,0,L|160:32,1,192,0|0,0:0|0:0,0:0:0:0:
104,112,206262,1,0,1:0:0:0:
160,192,206783,2,0,L|352:192,1,192,0|0,0:0|0:0,0:0:0:0:
408,272,208348,1,4,1:1:0:0:
392,368,208870,6,0,B|320:384|256:336|256:336|192:384|120:368,1,288,4|0,0:0|1:0,0:0:0:0:
128,272,210957,2,0,P|224:191|127:112,1,288,0|0,0:0|1:0,0:0:0:0:
120,16,213044,6,0,B|192:0|256:48|256:48|320:0|392:16,1,288,0|0,0:0|1:0,0:0:0:0:
384,112,215131,2,0,P|287:192|384:271,1,288,0|4,0:0|1:1,0:0:0:0:
440,192,217218,6,0,P|480:104|432:24,2,192,4|0|0,1:2|1:0|1:0,0:0:0:0:
348,220,219827,1,0,1:0:0:0:
256,192,220348,1,0,1:0:0:0:
164,164,220870,1,0,1:0:0:0:
72,192,221392,6,0,P|32:280|80:360,2,192,0|0|0,1:0|1:0|1:0,0:0:0:0:
128,272,224001,2,0,P|216:264|288:336,1,192,0|4,1:0|1:2,0:0:0:0:
