osu file format v14

[General]
AudioFilename: audio.mp3
AudioLeadIn: 0
PreviewTime: 183175
Countdown: 0
SampleSet: Soft
StackLeniency: 0.6
Mode: 0
LetterboxInBreaks: 0
WidescreenStoryboard: 0

[Editor]
DistanceSpacing: 1.2
BeatDivisor: 8
GridSize: 8
TimelineZoom: 1.2

[Metadata]
Title:A Light That Never Comes
TitleUnicode:A Light That Never Comes
Artist:Linkin Park, Steve Aoki
ArtistUnicode:Linkin Park, Steve Aoki
Creator:pw384
Version:Insane
Source:
Tags:Recharged HootOwlStar 384059043
BeatmapID:1200528
BeatmapSetID:566773

[Difficulty]
HPDrainRate:5.8
CircleSize:4.3
OverallDifficulty:8.2
ApproachRate:9.2
SliderMultiplier:2
SliderTickRate:1

[Events]
//Background and Video events
0,0,"bg.jpg",0,0
//Break Periods
2,42114,46088
//Storyboard Layer 0 (Background)
//Storyboard Layer 1 (Fail)
//Storyboard Layer 2 (Pass)
//Storyboard Layer 3 (Foreground)
//Storyboard Sound Samples

[TimingPoints]
175,521.739130434783,4,2,0,80,1,0
305,-100,4,2,0,60,0,0
8001,-80,4,1,0,40,0,0
8522,-80,4,2,0,60,0,0
16870,-100,4,2,0,40,0,0
17392,-80,4,2,0,60,0,0
24696,-80,4,1,0,40,0,0
25218,-71.4285714285714,4,2,0,65,0,0
41392,-50,4,2,0,80,0,0
41914,-200,4,2,0,40,0,0
50261,-125,4,3,0,40,0,0
52348,-125,4,3,0,45,0,0
54435,-125,4,3,0,50,0,0
56522,-125,4,3,0,55,0,0
58609,-125,4,3,0,60,0,0
71131,-125,4,2,0,40,0,0
74783,-50,4,1,0,40,0,0
75305,-66.6666666666667,4,2,0,60,0,0
78957,-50,4,2,0,60,0,0
79479,-66.6666666666667,4,2,0,60,0,0
83131,-66.6666666666667,4,1,0,40,0,0
83653,-66.6666666666667,4,2,0,60,0,0
91479,-66.6666666666667,4,1,0,40,0,0
92001,-80,4,2,0,60,0,0
99827,-80,4,1,0,50,0,0
99892,-80,4,1,0,30,0,0
100348,-71.4285714285714,4,2,0,60,0,0
108175,-55.5555555555556,4,1,0,40,0,0
108696,-125,4,2,0,50,0,0
117044,-125,4,3,0,60,0,0
121218,-125,4,3,0,65,0,0
125392,-125,4,2,0,70,0,0
133218,-66.6666666666667,4,1,0,55,0,0
133740,-125,4,2,0,75,0,0
141566,-66.6666666666667,4,1,0,60,0,0
142088,-80,4,2,0,80,0,1
149914,-80,4,1,0,60,0,0
150435,-66.6666666666667,4,2,0,80,0,1
158261,-50,4,1,0,60,0,1
158783,-133.333333333333,4,2,0,50,0,0
181740,-66.6666666666667,4,2,0,60,0,0
183305,-133.333333333333,4,2,0,60,0,0
183827,-66.6666666666667,4,2,0,85,0,1
191653,-50,4,2,0,85,0,0
192175,-66.6666666666667,4,2,0,85,0,1
200001,-50,4,1,0,60,0,0
200522,-66.6666666666667,4,2,0,85,0,1
208348,-50,4,1,0,60,0,0
208870,-66.6666666666667,4,2,0,85,0,1
216696,-50,4,1,0,60,0,1
217218,-66.6666666666667,4,2,0,70,0,0
220870,-50,4,2,0,70,0,0
221392,-66.6666666666667,4,2,0,70,0,0
225044,-50,4,2,0,85,0,0
225566,-100,4,2,0,5,0,0

[Colours]
Combo1 : 85,85,85
Combo2 : 233,233,233

[HitObjects]
121,219,175,6,0,L|136:121,1,100,0|2,1:0|0:0,0:0:0:0:
200,281,696,2,0,L|208:225,1,50,0|0,1:0|0:0,0:0:0:0:
58,60,957,2,0,L|50:116,1,50,2|0,0:0|0:0,0:0:0:0:
207,231,1218,6,0,P|256:242|304:231,1,100,0|2,1:0|0:0,0:0:0:0:
376,121,1609,1,0,0:0:0:0:
376,121,1740,2,0,L|320:113,1,50,0|0,1:0|0:0,0:0:0:0:
136,121,2001,2,0,L|192:128,1,50,2|0,0:0|0:0,0:0:0:0:
390,219,2261,6,0,L|376:121,1,100,0|2,1:0|0:0,0:0:0:0:
304,231,2652,1,0,0:0:0:0:
304,231,2783,2,0,L|312:281,1,50,0|0,1:0|0:0,0:0:0:0:
461,109,3044,2,0,L|454:60,1,50,2|0,0:0|0:0,0:0:0:0:
304,231,3305,6,0,P|255:242|207:231,1,100,0|2,1:0|0:0,0:0:0:0:
136,121,3696,1,0,0:0:0:0:
136,121,3827,2,0,L|192:113,1,50,0|0,1:0|0:0,0:0:0:0:
376,121,4088,2,0,L|320:128,1,50,2|0,0:0|0:0,0:0:0:0:
207,231,4348,6,0,P|158:241|110:231,1,100,0|2,1:0|0:0,0:0:0:0:
55,110,4740,1,0,0:0:0:0:
55,110,4870,2,0,L|48:160,1,50,8|0,1:3|0:0,0:0:0:0:
128,321,5131,2,0,L|136:272,1,50,2|0,0:0|0:0,0:0:0:0:
305,231,5392,6,0,P|353:241|401:231,1,100,0|2,1:0|0:0,0:0:0:0:
457,110,5784,1,0,0:0:0:0:
456,110,5914,2,0,L|464:160,1,50,8|0,1:3|0:0,0:0:0:0:
383,321,6175,2,0,L|376:272,1,50,2|0,0:0|0:0,0:0:0:0:
328,80,6435,6,0,P|255:63|183:79,1,150,0|0,1:0|0:0,0:0:0:0:
207,152,6957,2,0,P|255:141|304:152,1,100,8|2,1:3|0:0,0:0:0:0:
329,279,7479,6,0,L|337:335,1,50,0|2,1:0|0:0,0:0:0:0:
177,329,7740,2,0,L|184:279,1,50,0|2,1:0|0:0,0:0:0:0:
272,192,8001,2,0,L|240:192,7,31.25
168,256,8522,6,0,L|104:264,1,62.5,4|0,1:0|0:0,0:0:0:0:
344,128,8783,2,0,L|408:120,1,62.5,2|0,0:0|0:0,0:0:0:0:
288,304,9044,2,0,P|224:304|200:288,1,93.75,0|0,1:0|0:0,0:0:0:0:
184,280,9305,2,0,L|70:295,1,93.75,2|0,0:0|0:0,0:0:0:0:
72,296,9566,5,0,1:0:0:0:
8,240,9696,2,0,B|0:168|0:168|8:144,1,93.75
16,128,9957,2,0,L|88:120,1,62.5,0|0,0:0|1:0,0:0:0:0:
203,44,10218,1,0,0:0:0:0:
203,44,10348,2,0,L|109:55,1,93.75,2|0,0:0|0:0,0:0:0:0:
86,60,10609,6,0,P|78:84|78:124,1,62.5,0|0,1:0|0:0,0:0:0:0:
184,280,10870,2,0,P|192:256|192:216,1,62.5,2|0,0:0|0:0,0:0:0:0:
176,136,11131,2,0,P|240:136|264:120,1,93.75,0|0,1:0|0:0,0:0:0:0:
283,127,11392,2,0,L|355:135,1,62.5,2|0,0:0|0:0,0:0:0:0:
464,264,11653,6,0,P|400:264|376:248,1,93.75,0|0,1:0|0:0,0:0:0:0:
360,240,11914,2,0,L|296:248,1,62.5,2|0,0:0|0:0,0:0:0:0:
245,77,12175,2,0,L|284:129,1,62.5,0|0,1:0|0:0,0:0:0:0:
162,258,12435,2,0,L|187:198,1,62.5,2|0,0:0|0:0,0:0:0:0:
283,127,12696,5,0,1:0:0:0:
297,247,12827,1,0,0:0:0:0:
186,200,12957,1,2,0:0:0:0:
283,127,13088,1,0,0:0:0:0:
297,247,13218,2,0,L|308:349,1,93.75,0|0,1:0|0:0,0:0:0:0:
312,360,13479,2,0,P|346:365|378:365,1,62.5,2|0,0:0|0:0,0:0:0:0:
464,264,13740,5,0,1:0:0:0:
464,264,13870,2,0,P|472:216|472:192,1,62.5,0|2,0:0|0:0,0:0:0:0:
464,56,14131,2,0,L|400:56,1,62.5,0|0,0:0|1:0,0:0:0:0:
283,127,14392,2,0,P|232:128|176:80,1,125
256,40,14783,6,0,L|328:40,1,62.5,0|0,1:0|0:0,0:0:0:0:
484,96,15044,2,0,L|388:96,1,93.75,2|0,0:0|0:0,0:0:0:0:
368,96,15305,2,0,P|360:120|360:160,1,62.5,0|0,1:0|0:0,0:0:0:0:
400,296,15566,2,0,P|408:272|408:232,1,62.5,2|0,0:0|0:0,0:0:0:0:
376,168,15827,6,0,L|280:168,1,93.75,0|0,1:0|0:0,0:0:0:0:
264,176,16088,2,0,L|328:176,1,62.5,2|0,0:0|0:0,0:0:0:0:
192,232,16348,2,0,L|128:232,1,62.5,0|0,1:0|0:0,0:0:0:0:
40,92,16609,2,0,P|88:84|136:132,1,93.75,2|0,0:0|0:0,0:0:0:0:
136,120,16870,6,0,B|168:101|200:112|220:134|220:134|240:160|232:192|224:240,1,200,4|0,1:0|0:0,0:0:0:0:
216,96,17653,2,0,L|280:96,1,62.5,2|0,0:0|0:0,0:0:0:0:
352,48,17914,6,0,P|400:40|456:104,1,125,0|2,1:0|0:0,0:0:0:0:
384,118,18305,1,0,0:0:0:0:
384,118,18435,2,0,L|378:180,1,62.5,0|0,1:0|0:0,0:0:0:0:
416,264,18696,2,0,L|478:269,1,62.5,2|0,0:0|0:0,0:0:0:0:
328,304,18957,6,0,L|232:296,1,93.75,0|0,1:0|0:0,0:0:0:0:
216,296,19218,2,0,P|176:304|112:272,1,93.75,2|0,0:0|0:0,0:0:0:0:
112,272,19479,2,0,L|96:376,1,93.75,0|0,1:0|0:0,0:0:0:0:
88,344,19740,2,0,L|104:240,1,93.75,2|0,0:0|0:0,0:0:0:0:
96,232,20001,6,0,P|64:216|24:216,1,62.5,0|0,1:0|0:0,0:0:0:0:
16,112,20261,1,2,0:0:0:0:
16,112,20392,2,0,P|48:128|88:128,1,62.5,0|0,0:0|1:0,0:0:0:0:
207,38,20653,1,0,0:0:0:0:
207,38,20783,2,0,P|177:57|157:92,1,62.5,2|0,0:0|0:0,0:0:0:0:
176,240,21044,6,0,P|173:204|153:169,1,62.5,0|0,1:0|0:0,0:0:0:0:
2,52,21305,2,0,P|4:87|24:122,1,62.5,2|0,0:0|0:0,0:0:0:0:
136,160,21566,2,0,L|240:152,1,93.75,0|0,1:0|0:0,0:0:0:0:
248,160,21827,2,0,L|319:154,1,62.5,2|0,0:0|0:0,0:0:0:0:
384,192,22088,6,0,P|368:248|416:312,1,125,0|2,1:0|0:0,0:0:0:0:
504,248,22479,1,0,0:0:0:0:
504,248,22609,2,0,L|440:240,1,62.5,0|0,1:0|0:0,0:0:0:0:
288,288,22870,2,0,L|224:288,1,62.5,2|0,0:0|0:0,0:0:0:0:
70,240,23131,6,0,L|7:247,1,62.5,0|0,1:0|0:0,0:0:0:0:
40,94,23392,2,0,L|48:32,1,62.5,2|0,0:0|0:0,0:0:0:0:
128,192,23653,2,0,P|143:250|120:296,1,93.75,0|0,1:0|0:0,0:0:0:0:
120,296,23914,2,0,L|182:288,1,62.5,2|0,0:0|0:0,0:0:0:0:
414,257,24175,2,0,L|376:207,1,62.5,0|0,1:0|0:0,0:0:0:0:
233,22,24435,2,0,L|209:79,1,62.5,2|0,0:0|0:0,0:0:0:0:
120,296,24696,6,0,L|126:265,1,31.25
160,272,24827,2,0,L|154:241,1,31.25
188,234,24957,2,0,L|171:207,1,31.25
200,189,25088,2,0,L|174:170,1,31.25
188,144,25218,6,0,P|272:156|324:144,1,139.999995727539,4|2,1:0|0:0,0:0:0:0:
400,0,25609,1,0,0:0:0:0:
400,0,25740,2,0,P|408:32|408:72,1,69.9999978637696,0|0,1:0|0:0,0:0:0:0:
333,212,26001,2,0,P|325:180|325:140,1,69.9999978637696,2|0,0:0|0:0,0:0:0:0:
464,168,26261,6,0,P|472:208|472:312,1,139.999995727539,0|2,1:0|0:0,0:0:0:0:
333,212,26653,1,0,0:0:0:0:
333,212,26783,2,0,P|325:180|325:140,1,69.9999978637696,0|0,1:0|0:0,0:0:0:0:
400,0,27044,2,0,P|408:32|408:72,1,69.9999978637696,2|0,0:0|0:0,0:0:0:0:
256,104,27305,5,0,1:0:0:0:
256,104,27435,2,0,L|136:96,1,104.999996795654
136,112,27696,2,0,P|104:112|64:96,1,69.9999978637696,0|0,0:0|1:0,0:0:0:0:
253,26,27957,1,0,0:0:0:0:
261,34,28088,2,0,L|253:130,1,69.9999978637696,2|0,0:0|0:0,0:0:0:0:
128,250,28348,6,0,P|125:180|136:111,1,139.999995727539,0|2,1:0|0:0,0:0:0:0:
216,288,28740,1,0,0:0:0:0:
216,288,28870,2,0,P|224:320|224:368,1,69.9999978637696,0|0,1:0|0:0,0:0:0:0:
59,259,29131,2,0,P|91:251|139:251,1,69.9999978637696,2|0,0:0|0:0,0:0:0:0:
216,288,29392,6,0,P|288:304|360:280,1,139.999995727539,0|2,1:0|0:0,0:0:0:0:
400,192,29783,2,0,L|392:120,1,69.9999978637696,0|0,0:0|1:0,0:0:0:0:
256,80,30044,1,0,0:0:0:0:
256,80,30175,2,0,L|248:8,1,69.9999978637696,2|0,0:0|0:0,0:0:0:0:
196,160,30435,6,0,L|210:266,1,104.999996795654,0|0,1:0|0:0,0:0:0:0:
215,287,30696,2,0,P|248:301|282:303,1,69.9999978637696,2|0,0:0|0:0,0:0:0:0:
466,207,30957,2,0,P|433:193|399:191,1,69.9999978637696,0|0,1:0|0:0,0:0:0:0:
384,368,31218,2,0,P|397:335|399:301,1,69.9999978637696,2|0,0:0|0:0,0:0:0:0:
303,117,31479,6,0,P|289:149|287:183,1,69.9999978637696,0|0,1:0|0:0,0:0:0:0:
466,207,31740,1,2,0:0:0:0:
466,207,31870,2,0,L|386:199,1,69.9999978637696,0|0,0:0|1:0,0:0:0:0:
303,117,32131,1,0,0:0:0:0:
303,117,32261,2,0,L|223:109,1,69.9999978637696,2|0,0:0|0:0,0:0:0:0:
176,32,32522,6,0,P|136:64|0:8,1,209.999993591309,0|0,1:0|0:0,0:0:0:0:
32,88,33044,2,0,L|8:160,1,69.9999978637696,0|0,1:0|0:0,0:0:0:0:
128,96,33305,2,0,L|144:168,1,69.9999978637696,2|0,0:0|0:0,0:0:0:0:
216,40,33566,6,0,B|256:80|256:80|344:72,1,139.999995727539,4|2,1:0|0:0,0:0:0:0:
488,112,33957,1,0,0:0:0:0:
488,112,34088,2,0,L|400:120,1,69.9999978637696,0|0,1:0|0:0,0:0:0:0:
256,192,34348,2,0,L|344:184,1,69.9999978637696,2|0,0:0|0:0,0:0:0:0:
500,174,34609,6,0,L|413:159,1,69.9999978637696,0|0,1:0|0:0,0:0:0:0:
256,192,34870,2,0,L|343:207,1,69.9999978637696,2|0,0:0|0:0,0:0:0:0:
496,238,35131,2,0,L|416:201,1,69.9999978637696,0|0,1:0|0:0,0:0:0:0:
256,192,35391,2,0,L|336:229,1,69.9999978637696,2|0,0:0|0:0,0:0:0:0:
464,320,35653,6,0,P|412:309|348:309,1,104.999996795654,0|0,1:0|0:0,0:0:0:0:
340,316,35914,2,0,P|292:316|256:303,1,69.9999978637696,2|0,0:0|0:0,0:0:0:0:
160,192,36175,1,0,1:0:0:0:
160,192,36305,1,0,0:0:0:0:
160,192,36435,2,0,P|162:231|160:272,1,69.9999978637696,2|0,0:0|0:0,0:0:0:0:
96,128,36696,6,0,P|96:72|112:24,1,104.999996795654,0|0,1:0|0:0,0:0:0:0:
128,16,36957,2,0,L|200:24,1,69.9999978637696,2|0,0:0|0:0,0:0:0:0:
314,23,37218,2,0,L|384:16,1,69.9999978637696,0|0,1:0|0:0,0:0:0:0:
496,80,37479,2,0,P|480:136|440:152,1,104.999996795654,2|0,0:0|0:0,0:0:0:0:
424,136,37740,6,0,P|408:176|416:216,1,69.9999978637696,0|0,1:0|0:0,0:0:0:0:
312,200,38001,1,2,0:0:0:0:
312,200,38131,2,0,P|318:242|345:273,1,69.9999978637696,0|0,0:0|1:0,0:0:0:0:
247,311,38392,1,0,0:0:0:0:
247,311,38522,2,0,P|273:344|312:357,1,69.9999978637696,2|0,0:0|0:0,0:0:0:0:
240,288,38783,6,0,P|184:264|136:264,1,104.999996795654,0|0,1:0|0:0,0:0:0:0:
120,280,39044,2,0,P|80:288|40:288,1,69.9999978637696,2|0,0:0|0:0,0:0:0:0:
312,200,39305,2,0,P|338:230|358:265,1,69.9999978637696,0|0,1:0|0:0,0:0:0:0:
208,200,39566,2,0,P|221:161|241:126,1,69.9999978637696,2|0,0:0|0:0,0:0:0:0:
437,197,39827,6,0,P|397:221|309:197,1,139.999995727539,0|2,1:0|0:0,0:0:0:0:
147,74,40218,1,0,0:0:0:0:
147,74,40348,2,0,L|219:66,1,69.9999978637696,0|0,1:0|0:0,0:0:0:0:
365,310,40609,2,0,L|293:318,1,69.9999978637696,2|0,0:0|0:0,0:0:0:0:
75,187,40870,6,0,P|115:163|203:187,1,139.999995727539,0|2,1:0|0:0,0:0:0:0:
256,248,41261,1,0,0:0:0:0:
295,317,41392,6,0,B|399:357|399:357|448:376|504:304|464:248|400:232,1,300,0|0,1:0|0:0,0:0:0:0:
256,136,41914,5,4,0:0:0:0:
224,200,48175,5,2,0:0:0:0:
216,216,49218,5,0,0:0:0:0:
208,232,49740,5,2,0:0:0:0:
200,248,50261,6,0,P|168:256|120:248,1,80
64,192,50653,1,0,0:0:0:0:
64,192,50783,2,0,L|72:112,1,80,8|0,0:0|0:0,0:0:0:0:
120,8,51305,6,0,P|152:0|200:8,1,80
256,64,51697,1,0,0:0:0:0:
256,64,51827,2,0,L|248:144,1,80,8|0,0:0|0:0,0:0:0:0:
312,248,52348,6,0,P|344:256|392:248,1,80
448,192,52740,1,0,0:0:0:0:
448,192,52870,2,0,L|440:112,1,80,8|0,0:0|0:0,0:0:0:0:
392,8,53392,6,0,P|360:0|312:8,1,80
256,64,53784,1,0,0:0:0:0:
256,64,53914,2,0,L|264:144,1,80,8|0,0:0|0:0,0:0:0:0:
256,320,54435,6,0,L|248:240,1,80
112,192,54957,2,0,L|120:112,1,80,8|0,0:0|0:0,0:0:0:0:
104,32,55348,1,0,0:0:0:0:
88,40,55479,2,0,L|184:32,1,80
256,64,56001,2,0,L|352:56,1,80,8|0,0:0|0:0,0:0:0:0:
408,72,56392,1,0,0:0:0:0:
424,80,56522,5,0,0:0:0:0:
400,168,56783,1,0,0:0:0:0:
488,192,57044,1,8,0:0:0:0:
512,104,57305,1,0,0:0:0:0:
400,168,57566,2,0,L|416:256,1,80
360,304,57957,1,0,0:0:0:0:
352,320,58088,2,0,L|337:241,1,80,8|0,0:0|0:0,0:0:0:0:
256,47,58609,5,2,0:0:0:0:
154,293,59653,1,2,0:0:0:0:
400,191,60696,1,2,0:0:0:0:
154,90,61740,1,2,0:0:0:0:
302,302,62783,5,2,0:0:0:0:
300,80,63305,1,2,0:0:0:0:
145,238,63827,1,2,0:0:0:0:
367,236,64348,1,2,0:0:0:0:
209,81,64870,1,2,0:0:0:0:
211,303,65392,1,2,0:0:0:0:
366,145,65914,1,2,0:0:0:0:
144,147,66435,1,2,0:0:0:0:
256,288,66957,5,2,0:0:0:0:
323,124,67218,1,2,0:0:0:0:
160,192,67479,1,2,0:0:0:0:
323,259,67740,1,2,0:0:0:0:
255,96,68001,1,2,0:0:0:0:
188,259,68261,1,2,0:0:0:0:
352,191,68522,1,2,0:0:0:0:
188,124,68783,1,2,0:0:0:0:
302,302,69044,5,2,0:0:0:0:
300,80,69305,1,2,0:0:0:0:
145,238,69566,1,2,0:0:0:0:
367,236,69827,1,2,0:0:0:0:
209,81,70088,1,2,0:0:0:0:
211,303,70348,2,0,L|240:272,1,40,2|0,0:0|0:0,0:0:0:0:
366,145,70609,1,2,0:0:0:0:
144,147,70870,1,2,0:0:0:0:
256,192,71131,5,2,0:0:0:0:
256,192,71392,12,0,74001,0:0:0:0:
168,16,74783,6,0,B|176:72|184:160|112:152|56:152|40:64|104:0|168:48|208:120,1,350,0|0,1:0|2:0,0:0:0:0:
208,128,75305,6,0,P|216:176|208:224,1,75.0000028610231,4|0,1:0|0:0,0:0:0:0:
72,264,75566,2,0,P|120:256|168:264,1,75.0000028610231,2|0,0:0|0:0,0:0:0:0:
376,368,75827,2,0,P|320:376|256:368,1,112.500004291535,0|0,1:0|0:0,0:0:0:0:
248,352,76088,2,0,P|240:304|248:256,1,75.0000028610231,2|0,0:0|0:0,0:0:0:0:
312,192,76348,6,2,L|320:152,5,37.5000014305115
328,128,76740,2,0,L|320:48,1,75.0000028610231,0|0,1:0|1:0,0:0:0:0:
72,264,77131,1,2,0:0:0:0:
432,272,77392,6,0,B|404:276|404:276|376:272|376:272|348:276|348:276|320:272,1,112.500004291535,0|0,1:0|0:0,0:0:0:0:
312,264,77653,2,0,B|284:260|284:260|256:264|256:264|228:260|228:260|200:264,1,112.500004291535,2|0,0:0|0:0,0:0:0:0:
192,272,77914,6,0,L|144:272,1,37.5000014305115,0|0,1:0|0:0,0:0:0:0:
176,280,78044,2,0,L|128:280,1,37.5000014305115,2|0,0:0|0:0,0:0:0:0:
160,288,78175,2,0,B|132:292|132:292|104:288|104:288|76:292|76:292|48:288,1,112.500004291535,2|0,0:0|0:0,0:0:0:0:
32,280,78435,6,0,L|24:232,1,37.5000014305115,0|0,1:0|0:0,0:0:0:0:
40,256,78566,2,0,L|32:208,1,37.5000014305115,2|0,0:0|0:0,0:0:0:0:
48,232,78696,2,0,L|40:184,1,37.5000014305115,2|0,0:0|0:0,0:0:0:0:
56,208,78827,2,0,L|48:160,1,37.5000014305115,0|0,1:0|0:0,0:0:0:0:
64,184,78957,6,0,B|56:144|56:144|72:80,1,100,0|0,1:0|0:0,0:0:0:0:
216,48,79218,2,0,L|256:192,1,150,2|0,0:0|0:0,0:0:0:0:
256,192,79479,6,0,L|176:184,1,75.0000028610231,0|0,1:0|0:0,0:0:0:0:
400,120,79740,2,0,L|325:112,1,75.0000028610231,2|0,0:0|0:0,0:0:0:0:
216,48,80001,2,0,L|250:171,1,112.500004291535,0|0,1:0|0:0,0:0:0:0:
240,176,80261,2,0,L|160:168,1,75.0000028610231,2|0,0:0|0:0,0:0:0:0:
464,112,80522,6,2,L|417:108,5,37.5000014305115
400,120,80914,2,0,L|320:112,1,75.0000028610231,0|0,1:0|1:0,0:0:0:0:
256,328,81305,1,2,0:0:0:0:
96,192,81566,6,0,L|80:112,1,75.0000028610231,0|0,1:0|0:0,0:0:0:0:
168,32,81827,2,0,L|184:112,1,75.0000028610231,0|0,0:0|1:0,0:0:0:0:
61,189,82088,6,0,L|69:115,1,75.0000028610231,0|0,1:0|0:0,0:0:0:0:
202,34,82349,2,0,L|194:108,1,75.0000028610231,0|0,0:0|1:0,0:0:0:0:
34,167,82609,6,0,L|74:80,1,75.0000028610231,0|0,1:0|0:0,0:0:0:0:
229,56,82870,2,0,L|189:143,1,75.0000028610231,0|0,1:0|1:0,0:0:0:0:
136,272,83131,6,0,L|176:264,7,37.5000014305115
208,256,83653,6,0,P|216:208|208:160,1,75.0000028610231,4|0,1:0|0:0,0:0:0:0:
72,120,83914,2,0,P|120:128|168:120,1,75.0000028610231,2|0,0:0|0:0,0:0:0:0:
376,16,84175,2,0,P|320:8|256:16,1,112.500004291535,0|0,1:0|0:0,0:0:0:0:
248,32,84435,2,0,P|240:80|248:128,1,75.0000028610231,2|0,0:0|0:0,0:0:0:0:
312,192,84696,6,2,L|320:232,5,37.5000014305115
328,256,85088,2,0,L|320:336,1,75.0000028610231,0|0,1:0|1:0,0:0:0:0:
48,95,85479,1,2,0:0:0:0:
432,112,85740,6,0,B|404:108|404:108|376:112|376:112|348:108|348:108|320:112,1,112.500004291535,0|0,1:0|0:0,0:0:0:0:
312,120,86001,2,0,B|284:124|284:124|256:120|256:120|228:124|228:124|200:120,1,112.500004291535,2|0,0:0|0:0,0:0:0:0:
192,112,86261,6,0,L|144:112,1,37.5000014305115,0|0,1:0|0:0,0:0:0:0:
176,104,86391,2,0,L|128:104,1,37.5000014305115,2|0,0:0|0:0,0:0:0:0:
160,96,86522,2,0,B|132:92|132:92|104:96|104:96|76:92|76:92|48:96,1,112.500004291535,2|0,0:0|0:0,0:0:0:0:
32,104,86782,6,0,L|24:152,1,37.5000014305115,0|0,1:0|0:0,0:0:0:0:
40,128,86913,2,0,L|32:176,1,37.5000014305115,2|0,0:0|0:0,0:0:0:0:
48,152,87043,2,0,L|40:200,1,37.5000014305115,2|0,0:0|0:0,0:0:0:0:
56,176,87174,2,0,L|48:224,1,37.5000014305115,0|0,1:0|0:0,0:0:0:0:
64,200,87305,5,0,1:0:0:0:
96,280,87435,1,0,1:0:0:0:
144,216,87566,1,0,1:0:0:0:
176,296,87696,1,0,1:0:0:0:
224,232,87827,6,0,P|264:224|312:224,1,75.0000028610231,0|0,1:0|0:0,0:0:0:0:
368,368,88088,2,0,P|360:328|360:280,1,75.0000028610231,2|0,0:0|0:0,0:0:0:0:
392,96,88348,2,0,P|400:152|392:208,1,112.500004291535,0|0,1:0|0:0,0:0:0:0:
408,224,88609,2,0,P|448:216|496:216,1,75.0000028610231,2|0,0:0|0:0,0:0:0:0:
400,72,88870,6,2,L|408:32,5,37.5000014305115
392,96,89261,2,0,P|352:104|304:104,1,75.0000028610231,0|0,1:0|1:0,0:0:0:0:
48,24,89653,1,2,0:0:0:0:
160,160,89914,6,0,L|120:168,3,37.5000014305115,0|0|0|0,1:0|0:0|0:0|0:0,0:0:0:0:
112,184,90175,2,0,L|72:192,3,37.5000014305115,2|0|0|0,0:0|0:0|0:0|0:0,0:0:0:0:
64,208,90435,2,0,P|48:240|64:312,1,112.500004291535,0|0,1:0|0:0,0:0:0:0:
80,328,90696,2,0,P|144:328|168:336,1,75.0000028610231,2|0,0:0|0:0,0:0:0:0:
256,272,90957,5,0,1:0:0:0:
256,272,91088,2,0,P|292:278|330:274,1,75.0000028610231,0|2,1:0|0:0,0:0:0:0:
392,216,91348,1,0,1:0:0:0:
416,136,91479,2,0,L|424:96,7,37.5000014305115
432,72,92001,6,0,L|336:80,1,93.75,4|0,1:0|0:0,0:0:0:0:
320,72,92261,2,0,L|257:75,1,62.5,2|0,0:0|0:0,0:0:0:0:
168,136,92522,1,0,1:0:0:0:
168,136,92653,1,0,0:0:0:0:
168,136,92783,2,0,L|105:132,1,62.5,2|0,0:0|0:0,0:0:0:0:
16,80,93044,6,0,P|30:131|22:187,1,93.75,0|0,1:0|0:0,0:0:0:0:
24,192,93305,2,0,L|32:256,1,62.5,2|0,0:0|0:0,0:0:0:0:
176,248,93566,2,0,L|116:222,1,62.5,0|0,1:0|0:0,0:0:0:0:
51,351,93827,2,0,L|102:312,1,62.5,2|0,0:0|0:0,0:0:0:0:
288,344,94088,6,0,P|312:304|319:258,1,93.75,0|0,1:0|0:0,0:0:0:0:
336,248,94348,2,0,L|395:222,1,62.5,2|0,0:0|0:0,0:0:0:0:
354,89,94609,1,0,1:0:0:0:
354,89,94740,1,0,0:0:0:0:
354,89,94870,2,0,L|345:152,1,62.5,2|0,0:0|0:0,0:0:0:0:
507,204,95131,6,0,L|433:146,1,93.75,0|0,1:0|0:0,0:0:0:0:
436,128,95392,2,0,L|445:65,1,62.5,2|0,0:0|0:0,0:0:0:0:
275,103,95653,2,0,L|266:166,1,62.5,0|0,1:0|0:0,0:0:0:0:
112,112,95914,2,0,L|121:51,1,62.5,2|0,0:0|0:0,0:0:0:0:
32,192,96175,6,0,P|40:232|32:296,1,93.75,0|0,1:0|0:0,0:0:0:0:
20,296,96435,2,0,L|92:288,1,62.5,2|0,0:0|0:0,0:0:0:0:
160,344,96696,1,0,1:0:0:0:
160,344,96827,1,0,0:0:0:0:
160,344,96957,2,0,L|232:336,1,62.5,2|0,0:0|0:0,0:0:0:0:
288,264,97218,6,0,L|393:251,1,93.75,0|0,1:0|0:0,0:0:0:0:
400,252,97479,2,0,P|411:290|411:330,1,62.5,2|0,0:0|0:0,0:0:0:0:
330,162,97740,2,0,P|357:133|392:113,1,62.5,0|0,1:0|0:0,0:0:0:0:
288,264,98001,2,0,P|249:254|214:234,1,62.5,2|0,0:0|0:0,0:0:0:0:
144,136,98261,6,0,L|129:43,1,93.75,0|0,1:0|0:0,0:0:0:0:
128,24,98522,2,0,L|200:32,1,62.5,2|0,0:0|0:0,0:0:0:0:
256,104,98783,1,0,1:0:0:0:
256,104,98914,1,0,0:0:0:0:
256,104,99044,2,0,L|328:96,1,62.5,2|0,0:0|0:0,0:0:0:0:
416,144,99305,6,0,P|480:160|416:96,1,218.75,0|0,1:0|0:0,0:0:0:0:
424,72,99827,6,0,L|384:72,1,31.25
392,64,99957,2,0,L|352:64,1,31.25
360,56,100088,2,0,L|328:56,1,31.25
328,48,100218,2,0,L|296:48,1,31.25
296,40,100348,6,0,B|256:80|256:80|168:72,1,139.999995727539,4|2,1:0|0:0,0:0:0:0:
24,112,100739,1,2,0:0:0:0:
24,112,100870,2,0,L|112:120,1,69.9999978637696,0|0,1:0|0:0,0:0:0:0:
256,192,101130,2,0,L|168:184,1,69.9999978637696,2|0,0:0|0:0,0:0:0:0:
12,174,101391,6,0,L|99:159,1,69.9999978637696,0|0,1:0|0:0,0:0:0:0:
256,192,101653,2,0,L|169:207,1,69.9999978637696,2|2,0:0|0:0,0:0:0:0:
16,238,101913,2,0,L|96:201,1,69.9999978637696,0|0,1:0|0:0,0:0:0:0:
256,192,102175,2,0,L|176:229,1,69.9999978637696,2|0,0:0|0:0,0:0:0:0:
48,320,102435,6,0,P|100:309|164:309,1,104.999996795654,0|0,1:0|0:0,0:0:0:0:
172,316,102696,2,0,P|220:316|256:303,1,69.9999978637696,2|0,0:0|0:0,0:0:0:0:
352,192,102957,1,0,1:0:0:0:
352,192,103087,1,0,0:0:0:0:
352,192,103217,2,0,P|350:231|352:272,1,69.9999978637696,2|0,0:0|0:0,0:0:0:0:
416,128,103479,6,0,P|416:72|400:24,1,104.999996795654,0|0,1:0|0:0,0:0:0:0:
384,16,103739,2,0,L|312:24,1,69.9999978637696,2|0,0:0|0:0,0:0:0:0:
198,23,104000,2,0,L|128:16,1,69.9999978637696,0|0,1:0|0:0,0:0:0:0:
16,80,104261,2,0,P|32:136|72:152,1,104.999996795654,2|0,0:0|0:0,0:0:0:0:
88,136,104522,6,0,P|104:176|96:216,1,69.9999978637696,0|0,1:0|0:0,0:0:0:0:
200,200,104783,1,2,0:0:0:0:
200,200,104913,2,0,P|194:242|167:273,1,69.9999978637696,0|0,0:0|1:0,0:0:0:0:
265,311,105174,1,0,0:0:0:0:
265,311,105304,2,0,P|239:344|200:357,1,69.9999978637696,2|0,0:0|0:0,0:0:0:0:
272,288,105566,6,0,P|328:264|376:264,1,104.999996795654,0|0,1:0|0:0,0:0:0:0:
392,280,105826,2,0,P|432:288|472:288,1,69.9999978637696,2|0,0:0|0:0,0:0:0:0:
200,200,106087,2,0,P|174:230|154:265,1,69.9999978637696,0|0,1:0|0:0,0:0:0:0:
304,200,106349,2,0,P|291:161|271:126,1,69.9999978637696,2|0,0:0|0:0,0:0:0:0:
75,197,106609,6,0,P|115:221|203:197,1,139.999995727539,0|2,1:0|0:0,0:0:0:0:
365,74,107000,1,0,0:0:0:0:
365,74,107130,2,0,L|293:66,1,69.9999978637696,0|0,1:0|0:0,0:0:0:0:
147,310,107392,2,0,L|219:318,1,69.9999978637696,2|0,0:0|0:0,0:0:0:0:
437,187,107653,6,0,P|397:163|309:187,1,139.999995727539,0|2,1:0|0:0,0:0:0:0:
256,248,108043,1,0,0:0:0:0:
216,317,108175,2,0,L|164:325,7,44.999998626709
147,310,108696,5,0,0:0:0:0:
138,83,109218,1,0,0:0:0:0:
365,74,109740,1,0,0:0:0:0:
374,301,110262,1,0,0:0:0:0:
142,196,110783,5,0,0:0:0:0:
260,305,111305,1,0,0:0:0:0:
369,187,111827,1,0,0:0:0:0:
251,78,112349,1,0,0:0:0:0:
197,137,112870,5,2,0:0:0:0:
314,246,113392,1,0,0:0:0:0:
310,133,113914,1,0,0:0:0:0:
201,250,114436,1,0,0:0:0:0:
253,135,114957,5,2,0:0:0:0:
258,248,115479,1,0,0:0:0:0:
312,189,116001,1,0,0:0:0:0:
199,194,116523,1,0,0:0:0:0:
256,192,117044,5,2,0:0:0:0:
248,208,118088,1,2,0:0:0:0:
240,224,119131,5,2,0:0:0:0:
232,240,120175,1,2,0:0:0:0:
224,256,121218,5,2,0:0:0:0:
320,224,121740,1,2,0:0:0:0:
288,128,122261,1,2,0:0:0:0:
192,160,122783,1,2,0:0:0:0:
287,287,123305,5,2,0:0:0:0:
351,160,123566,1,2,0:0:0:0:
224,96,123827,1,2,0:0:0:0:
160,223,124088,1,2,0:0:0:0:
383,255,124348,5,2,0:0:0:0:
383,255,124479,1,0,1:0:0:0:
319,64,124740,1,2,0:0:0:0:
319,64,124870,1,0,1:0:0:0:
128,128,125131,1,8,0:0:0:0:
192,319,125392,6,0,L|280:328,1,80,4|2,1:0|0:0,0:0:0:0:
319,64,125914,2,0,L|232:56,1,80,0|2,1:0|0:0,0:0:0:0:
383,255,126435,6,0,L|392:168,1,80,0|2,1:0|0:0,0:0:0:0:
472,136,126827,1,2,0:0:0:0:
472,136,126957,2,0,L|463:223,1,80,0|2,1:0|0:0,0:0:0:0:
120,207,127479,6,0,L|128:128,1,80,0|2,1:0|0:0,0:0:0:0:
47,168,127871,1,2,0:0:0:0:
47,168,128001,2,0,L|40:248,1,80,0|2,1:0|0:0,0:0:0:0:
122,291,128392,1,2,0:0:0:0:
122,291,128522,6,0,L|194:257,1,80,0|2,1:0|0:0,0:0:0:0:
191,166,128914,1,2,0:0:0:0:
191,166,129044,2,0,L|125:119,1,80,0|0,1:0|0:0,0:0:0:0:
240,327,129566,6,0,L|320:320,1,80,0|2,1:0|0:0,0:0:0:0:
272,56,130088,2,0,L|193:65,1,80,0|2,1:0|0:0,0:0:0:0:
391,207,130609,6,0,L|383:128,1,80,0|2,1:0|0:0,0:0:0:0:
463,168,131001,1,2,0:0:0:0:
463,168,131131,2,0,L|472:248,1,80,0|2,1:0|0:0,0:0:0:0:
120,176,131653,6,0,L|128:255,1,80,0|2,1:0|0:0,0:0:0:0:
47,216,132045,1,2,0:0:0:0:
47,215,132175,2,0,L|40:136,1,80,0|2,1:0|0:0,0:0:0:0:
122,93,132566,1,2,0:0:0:0:
122,93,132696,6,0,L|194:126,1,80,0|2,1:0|0:0,0:0:0:0:
191,218,133088,1,0,0:0:0:0:
191,218,133218,2,0,L|150:247,7,37.5000014305115
144,248,133740,6,0,L|136:344,1,80,4|2,1:0|0:0,0:0:0:0:
262,207,134261,2,0,L|256:128,1,80,0|2,1:0|0:0,0:0:0:0:
361,359,134783,6,0,L|368:280,1,80,0|2,1:0|0:0,0:0:0:0:
486,239,135175,1,2,0:0:0:0:
486,239,135305,2,0,L|480:160,1,80,0|2,1:0|0:0,0:0:0:0:
384,104,135696,1,2,0:0:0:0:
384,104,135827,6,0,L|390:24,1,80,0|2,1:0|0:0,0:0:0:0:
256,80,136218,1,2,0:0:0:0:
256,80,136348,2,0,L|176:73,1,80,0|2,1:0|0:0,0:0:0:0:
48,112,136740,1,2,0:0:0:0:
48,112,136870,6,0,L|89:115,1,40,0|0,1:0|0:0,0:0:0:0:
256,160,137131,2,0,L|215:157,1,40,2|2,0:0|0:0,0:0:0:0:
48,192,137392,2,0,L|127:198,1,80,0|2,1:0|0:0,0:0:0:0:
152,216,137783,1,2,0:0:0:0:
176,232,137914,5,0,1:0:0:0:
344,206,138175,1,2,0:0:0:0:
344,206,138305,1,0,0:0:0:0:
344,206,138435,1,0,1:0:0:0:
193,128,138696,1,2,0:0:0:0:
269,280,138957,5,0,1:0:0:0:
297,112,139218,1,2,0:0:0:0:
297,112,139348,1,0,0:0:0:0:
297,112,139479,2,0,L|288:32,1,80,0|2,1:0|0:0,0:0:0:0:
123,170,140001,5,0,1:0:0:0:
350,287,140261,1,2,0:0:0:0:
350,287,140392,1,0,0:0:0:0:
350,287,140522,1,0,1:0:0:0:
236,59,140783,2,0,L|224:112,1,40,2|0,0:0|0:0,0:0:0:0:
123,170,141044,5,0,1:0:0:0:
123,170,141175,2,0,L|104:248,1,80,0|0,1:0|1:0,0:0:0:0:
160,320,141566,6,0,L|150:356,7,37.5000014305115
168,296,142088,6,0,P|208:280|264:280,1,93.75,4|0,1:0|0:0,0:0:0:0:
280,288,142348,2,0,P|312:288|352:280,1,62.5
408,192,142609,1,0,0:0:0:0:
408,192,142740,1,0,0:0:0:0:
408,192,142870,2,0,L|416:120,1,62.5,2|0,0:0|0:0,0:0:0:0:
424,32,143131,5,0,1:0:0:0:
344,80,143261,2,0,L|216:64,2,125,2|2|0,0:0|0:0|0:0,0:0:0:0:
272,112,143914,2,0,P|256:160|256:216,1,93.75
256,224,144175,6,0,P|264:256|264:304,1,62.5
160,176,144435,2,0,P|152:144|152:96,1,62.5
168,272,144696,2,0,P|136:272|80:232,1,93.75
80,224,144957,2,0,L|8:232,1,62.5,2|0,0:0|0:0,0:0:0:0:
256,304,145218,6,0,L|362:291,1,93.75,0|0,1:0|0:0,0:0:0:0:
368,304,145479,2,0,L|440:296,1,62.5,2|2,0:0|0:0,0:0:0:0:
496,232,145740,1,0,0:0:0:0:
495,232,145870,2,0,P|479:291|496:352,1,125
368,304,146261,6,0,L|376:232,1,62.5
334,113,146522,2,0,L|328:176,1,62.5
256,304,146783,2,0,B|224:300|224:300|196:308|196:308|164:304,1,93.75
144,296,147044,2,0,L|80:304,1,62.5,2|0,0:0|0:0,0:0:0:0:
8,224,147305,5,0,1:0:0:0:
48,152,147435,2,0,L|32:8,2,125,2|2|0,0:0|0:0|0:0,0:0:0:0:
80,80,148088,2,0,P|120:72|176:80,1,93.75
192,88,148348,6,0,L|256:80,1,62.5
432,112,148609,2,0,L|369:119,1,62.5
280,264,148870,2,0,L|296:160,1,93.75
296,144,149131,2,0,L|303:206,1,62.5,2|0,0:0|0:0,0:0:0:0:
328,336,149392,5,0,1:0:0:0:
256,360,149522,2,0,L|176:344,1,62.5,0|0,1:0|1:0,0:0:0:0:
152,280,149783,5,2,0:0:0:0:
80,304,149914,2,0,L|40:296,3,31.25
40,280,150175,2,0,L|0:272,3,31.25
0,256,150435,6,0,L|0:176,1,75.0000028610231,4|0,1:2|0:0,0:0:0:0:
56,120,150696,1,2,0:0:0:0:
56,120,150827,1,0,0:0:0:0:
56,120,150957,2,0,L|56:8,1,112.500004291535,0|0,1:0|0:0,0:0:0:0:
72,24,151218,2,0,L|152:24,1,75.0000028610231,2|0,0:0|0:0,0:0:0:0:
224,56,151479,6,0,P|264:72|360:24,1,150.000005722046,0|2,1:0|0:0,0:0:0:0:
440,144,151870,1,0,0:0:0:0:
440,144,152001,2,0,L|365:137,1,75.0000028610231,0|0,1:0|0:0,0:0:0:0:
416,240,152261,2,0,L|504:248,1,75.0000028610231,2|0,0:0|0:0,0:0:0:0:
392,336,152522,6,0,L|256:320,1,112.500004291535,0|0,1:0|0:0,0:0:0:0:
256,330,152783,2,0,L|368:344,1,112.500004291535,2|0,0:0|0:0,0:0:0:0:
416,328,153044,2,0,L|280:312,1,112.500004291535,0|0,1:0|0:0,0:0:0:0:
232,338,153305,2,0,L|343:351,1,112.500004291535,2|0,0:0|0:0,0:0:0:0:
440,320,153566,6,0,L|347:309,1,75.0000028610231,0|0,1:0|0:0,0:0:0:0:
296,240,153827,1,2,0:0:0:0:
296,240,153957,2,0,L|302:165,1,75.0000028610231,0|0,0:0|1:0,0:0:0:0:
256,96,154218,1,0,0:0:0:0:
256,96,154348,2,0,L|262:21,1,75.0000028610231,2|0,0:0|0:0,0:0:0:0:
176,88,154609,5,0,1:0:0:0:
96,80,154740,1,0,0:0:0:0:
104,160,154870,1,2,0:0:0:0:
24,152,155001,1,0,0:0:0:0:
40,232,155131,2,0,P|56:280|48:344,1,112.500004291535,0|0,1:0|0:0,0:0:0:0:
40,360,155392,2,0,L|120:344,1,75.0000028610231,2|0,0:0|0:0,0:0:0:0:
184,168,155653,6,0,L|157:245,1,75.0000028610231,0|0,1:0|0:0,0:0:0:0:
278,384,155913,1,2,0:0:0:0:
278,384,156044,2,0,L|224:322,1,75.0000028610231,0|0,0:0|1:0,0:0:0:0:
384,280,156305,1,0,0:0:0:0:
384,280,156435,2,0,L|437:341,1,75.0000028610231,2|0,0:0|0:0,0:0:0:0:
304,216,156696,6,0,L|320:88,1,112.500004291535,0|0,1:0|0:0,0:0:0:0:
320,80,156957,2,0,P|352:88|400:88,1,75.0000028610231,2|0,0:0|0:0,0:0:0:0:
192,48,157218,2,0,P|160:40|80:40,1,112.500004291535,0|0,1:0|0:0,0:0:0:0:
56,48,157479,2,0,L|48:128,1,75.0000028610231,2|0,0:0|0:0,0:0:0:0:
104,192,157740,5,0,1:0:0:0:
80,288,157870,1,0,1:0:0:0:
176,264,158001,2,0,L|256:272,1,75.0000028610231,0|0,1:0|0:0,0:0:0:0:
344,328,158261,6,0,L|399:322,7,50
416,320,158783,5,4,0:0:0:0:
360,192,159044,1,0,0:0:0:0:
376,160,159175,1,0,0:0:0:0:
392,128,159305,1,2,3:0:0:0:
336,0,159566,1,0,0:0:0:0:
339,286,159827,5,0,0:0:0:0:
352,175,160088,1,0,0:0:0:0:
376,160,160218,1,0,0:0:0:0:
399,144,160349,1,2,3:0:0:0:
412,33,160610,1,0,0:0:0:0:
300,233,160870,5,0,0:0:0:0:
353,161,161131,1,0,0:0:0:0:
376,160,161262,1,0,0:0:0:0:
398,158,161392,1,8,3:0:0:0:
451,86,161653,1,0,0:0:0:0:
294,180,161914,5,0,0:0:0:0:
359,151,162175,1,0,0:0:0:0:
376,160,162306,1,0,0:0:0:0:
392,168,162436,1,8,3:0:0:0:
457,139,162697,1,0,0:0:0:0:
274,130,162957,5,0,0:0:0:0:
363,140,163218,1,0,0:0:0:0:
376,159,163349,1,0,0:0:0:0:
388,179,163479,1,8,3:0:0:0:
477,189,163740,1,0,0:0:0:0:
285,65,164001,5,0,0:0:0:0:
374,131,164262,1,0,0:0:0:0:
376,159,164393,1,0,0:0:0:0:
378,188,164523,1,8,3:0:0:0:
468,254,164784,1,0,0:0:0:0:
336,0,165044,5,0,0:0:0:0:
392,128,165305,1,0,0:0:0:0:
376,159,165435,1,0,0:0:0:0:
360,192,165566,1,2,3:0:0:0:
416,319,165827,1,0,0:0:0:0:
256,280,166088,6,0,P|200:272|176:272,1,75.0000028610231
154,278,166479,1,0,0:0:0:0:
128,288,166609,2,0,L|48:280,1,75.0000028610231,2|0,3:0|0:0,0:0:0:0:
85,144,167131,5,0,0:0:0:0:
425,237,167653,1,4,3:0:0:0:
118,110,168175,5,0,0:0:0:0:
392,271,168697,1,4,3:0:0:0:
154,90,169218,5,0,0:0:0:0:
356,292,169740,1,4,3:0:0:0:
191,79,170261,5,0,0:0:0:0:
318,303,170783,1,4,3:0:0:0:
225,79,171305,5,4,3:0:0:0:
285,303,171827,1,4,3:0:0:0:
256,88,172348,5,4,3:0:0:0:
254,294,172870,1,4,3:0:0:0:
280,101,173392,5,4,3:0:0:0:
230,281,173914,1,4,3:0:0:0:
297,119,174435,5,4,3:0:0:0:
213,263,174957,1,4,3:0:0:0:
309,138,175479,5,4,3:0:0:0:
201,243,175740,1,4,3:0:0:0:
314,158,176001,5,4,3:0:0:0:
196,224,176262,1,4,3:0:0:0:
314,176,176522,5,4,3:0:0:0:
196,206,176783,1,4,3:0:0:0:
310,192,177044,5,4,3:0:0:0:
200,190,177305,1,4,3:0:0:0:
303,204,177566,5,4,3:0:0:0:
207,178,177827,1,4,3:0:0:0:
293,213,178088,5,4,3:0:0:0:
217,169,178349,1,4,3:0:0:0:
283,219,178609,5,4,3:0:0:0:
226,162,178870,1,4,3:0:0:0:
272,222,179131,5,4,3:0:0:0:
237,160,179392,1,4,3:0:0:0:
263,222,179653,5,4,3:0:0:0:
272,222,179783,1,4,3:0:0:0:
283,219,179914,1,4,3:0:0:0:
293,213,180044,1,4,3:0:0:0:
303,204,180175,1,4,3:0:0:0:
310,192,180305,1,4,3:0:0:0:
314,176,180435,1,4,3:0:0:0:
314,158,180566,1,4,3:0:0:0:
309,138,180696,5,4,3:0:0:0:
297,119,180827,1,4,3:0:0:0:
280,101,180957,1,4,3:0:0:0:
256,88,181088,1,4,3:0:0:0:
225,79,181218,1,4,3:0:0:0:
191,79,181348,1,4,3:0:0:0:
154,90,181479,1,4,3:0:0:0:
118,110,181609,1,4,3:0:0:0:
85,144,181740,6,4,P|72:163|64:184,1,37.5000014305115,4|4,3:0|3:0,3:0:0:0:
79,190,181870,2,4,P|70:211|68:234,1,37.5000014305115,4|4,3:0|3:0,3:0:0:0:
84,236,182001,2,4,P|82:258|85:281,1,37.5000014305115,4|4,3:0|3:0,3:0:0:0:
102,279,182131,2,4,P|105:301|114:322,1,37.5000014305115,4|4,3:0|3:0,3:0:0:0:
129,316,182261,6,4,P|139:336|153:354,1,37.5000014305115,4|4,3:0|3:0,3:0:0:0:
166,344,182391,2,4,P|180:362|198:375,1,37.5000014305115,4|4,3:0|3:0,3:0:0:0:
208,362,182522,2,4,P|227:375|248:383,1,37.5000014305115,4|4,3:0|3:0,3:0:0:0:
254,368,182652,2,4,P|275:377|298:379,1,37.5000014305115,4|4,3:0|3:0,3:0:0:0:
300,363,182783,6,4,P|322:365|345:362,1,37.5000014305115,4|4,3:0|3:0,3:0:0:0:
343,345,182913,2,4,P|365:342|386:333,1,37.5000014305115,4|4,3:0|3:0,3:0:0:0:
380,318,183044,2,4,P|400:308|418:294,1,37.5000014305115,4|4,3:0|3:0,3:0:0:0:
408,281,183174,2,4,P|426:267|439:249,1,37.5000014305115,4|4,3:0|3:0,3:0:0:0:
426,239,183305,6,0,L|416:128,1,112.500004291535
416,112,183827,6,0,L|432:24,1,75.0000028610231,4|0,1:2|0:0,0:0:0:0:
328,64,184088,1,2,0:0:0:0:
328,64,184218,1,0,0:0:0:0:
328,64,184348,2,0,L|312:152,1,75.0000028610231,0|0,1:0|0:0,0:0:0:0:
109,193,184609,2,0,L|193:163,1,75.0000028610231,2|0,0:0|0:0,0:0:0:0:
402,190,184870,6,0,L|318:220,1,75.0000028610231
181,65,185131,2,0,L|249:123,1,75.0000028610231,2|0,0:0|0:0,0:0:0:0:
312,320,185392,2,0,P|237:297|181:313,1,112.500004291535,0|0,1:0|0:0,0:0:0:0:
192,320,185653,2,0,L|107:313,1,75.0000028610231,2|0,0:0|0:0,0:0:0:0:
34,187,185914,5,0,0:0:0:0:
34,187,186044,1,0,0:0:0:0:
34,187,186175,2,0,L|119:194,1,75.0000028610231,2|0,0:0|0:0,0:0:0:0:
256,256,186435,2,0,B|232:224|232:224|256:128,1,112.500004291535,0|0,1:0|0:0,0:0:0:0:
256,128,186696,2,0,L|344:128,1,75.0000028610231,2|0,0:0|0:0,0:0:0:0:
478,197,186957,5,0,0:0:0:0:
478,197,187087,1,0,0:0:0:0:
478,197,187218,2,0,L|393:190,1,75.0000028610231,2|0,0:0|0:0,0:0:0:0:
256,128,187479,2,0,B|280:160|280:160|256:256,1,112.500004291535,0|0,1:0|0:0,0:0:0:0:
256,256,187739,2,0,L|168:256,1,75.0000028610231,2|0,0:0|0:0,0:0:0:0:
80,296,188001,6,0,P|144:296|176:328,1,112.500004291535
181,352,188261,2,0,L|256:352,1,75.0000028610231,2|0,0:0|0:0,0:0:0:0:
368,280,188522,1,0,1:0:0:0:
368,280,188653,1,0,0:0:0:0:
368,280,188783,2,0,L|453:287,1,75.0000028610231,2|0,0:0|0:0,0:0:0:0:
440,96,189044,6,0,B|360:112|360:112|312:88,1,112.500004291535
312,88,189305,2,0,L|232:104,1,75.0000028610231,2|0,0:0|0:0,0:0:0:0:
128,8,189566,2,0,P|136:48|128:88,1,75.0000028610231,0|0,1:0|0:0,0:0:0:0:
16,208,189827,2,0,P|8:168|16:128,1,75.0000028610231,2|0,0:0|0:0,0:0:0:0:
200,216,190088,6,0,L|280:216,1,75.0000028610231
128,280,190348,2,0,L|48:280,1,75.0000028610231,2|0,0:0|0:0,0:0:0:0:
216,232,190609,2,0,P|234:284|215:336,1,112.500004291535,0|0,1:0|0:0,0:0:0:0:
200,352,190870,2,0,L|280:352,1,75.0000028610231,2|0,0:0|0:0,0:0:0:0:
440,208,191131,5,0,0:0:0:0:
440,208,191261,2,0,P|392:184|296:192,1,150.000005722046,0|0,1:0|0:0,0:0:0:0:
184,168,191653,6,0,L|128:168,1,50,4|0,1:1|0:0,0:0:0:0:
192,184,191783,2,0,L|128:184,1,50
200,200,191914,2,0,L|136:200,1,50
208,216,192044,2,0,L|144:216,1,50
216,232,192175,6,0,P|234:284|215:336,1,112.500004291535,4|0,0:0|0:0,0:0:0:0:
200,352,192436,2,0,L|112:352,1,75.0000028610231,2|0,0:0|0:0,0:0:0:0:
40,232,192696,1,0,1:0:0:0:
40,232,192827,1,0,0:0:0:0:
40,232,192957,2,0,P|64:176|64:120,1,112.500004291535,2|0,0:0|0:0,0:0:0:0:
56,104,193218,6,0,L|136:96,1,75.0000028610231
280,16,193479,2,0,L|200:24,1,75.0000028610231,2|0,0:0|0:0,0:0:0:0:
360,96,193740,1,0,1:0:0:0:
360,96,193870,1,0,0:0:0:0:
360,96,194001,2,0,L|440:88,1,75.0000028610231,2|0,0:0|0:0,0:0:0:0:
512,192,194261,6,0,L|504:312,1,112.500004291535
496,328,194522,2,0,L|501:238,1,75.0000028610231,2|0,0:0|0:0,0:0:0:0:
360,96,194783,2,0,L|365:186,1,75.0000028610231,0|0,1:0|0:0,0:0:0:0:
147,170,195044,2,0,L|152:96,1,75.0000028610231,2|0,0:0|0:0,0:0:0:0:
0,192,195305,6,0,L|8:312,1,112.500004291535
16,328,195566,2,0,L|11:238,1,75.0000028610231,2|0,0:0|0:0,0:0:0:0:
152,96,195827,2,0,L|147:186,1,75.0000028610231,0|0,1:0|0:0,0:0:0:0:
364,170,196088,2,0,L|360:96,1,75.0000028610231,2|0,0:0|0:0,0:0:0:0:
160,112,196348,6,0,L|155:202,1,75.0000028610231
356,186,196609,2,0,L|352:112,1,75.0000028610231,2|0,0:0|0:0,0:0:0:0:
168,128,196870,2,0,L|163:202,1,75.0000028610231,0|0,1:0|0:0,0:0:0:0:
348,202,197131,2,0,L|344:128,1,75.0000028610231,2|0,0:0|0:0,0:0:0:0:
256,160,197392,6,0,L|256:280,1,112.500004291535
256,296,197653,2,0,L|256:376,1,75.0000028610231,2|0,0:0|0:0,0:0:0:0:
417,326,197914,2,0,L|344:312,1,75.0000028610231,0|0,1:0|0:0,0:0:0:0:
94,326,198175,2,0,L|168:312,1,75.0000028610231,2|0,0:0|0:0,0:0:0:0:
328,320,198435,6,0,L|401:334,1,75.0000028610231
184,320,198696,2,0,L|110:334,1,75.0000028610231,2|0,0:0|0:0,0:0:0:0:
312,328,198957,2,0,L|385:342,1,75.0000028610231,0|0,1:0|0:0,0:0:0:0:
200,328,199218,2,0,L|126:342,1,75.0000028610231,2|0,0:0|0:0,0:0:0:0:
320,192,199479,5,0,0:0:0:0:
184,184,199609,1,0,1:0:0:0:
192,192,199871,5,0,1:0:0:0:
328,200,200001,2,0,L|384:192,7,50,4|0|0|0|0|0|0|0,1:1|0:0|0:0|0:0|0:0|0:0|0:0|0:0,0:0:0:0:
392,192,200522,6,0,P|384:136|408:80,1,112.500004291535,4|0,0:0|0:0,0:0:0:0:
424,72,200783,2,0,L|336:64,1,75.0000028610231,2|0,0:0|0:0,0:0:0:0:
256,136,201044,1,0,1:0:0:0:
256,136,201175,1,0,0:0:0:0:
256,136,201305,2,0,L|144:123,1,112.500004291535,2|0,0:0|0:0,0:0:0:0:
120,112,201566,6,0,L|208:120,1,75.0000028610231
254,349,201827,2,0,L|217:269,1,75.0000028610231,2|0,0:0|0:0,0:0:0:0:
393,114,202088,2,0,L|342:186,1,75.0000028610231,0|0,1:0|0:0,0:0:0:0:
120,112,202348,2,0,L|170:39,1,75.0000028610231,2|0,0:0|0:0,0:0:0:0:
256,136,202609,6,0,P|208:112|144:112,1,112.500004291535
120,112,202870,2,0,P|80:112|40:104,1,75.0000028610231,2|0,0:0|0:0,0:0:0:0:
256,40,203131,1,0,1:0:0:0:
256,40,203261,1,0,0:0:0:0:
256,40,203392,2,0,P|296:40|336:48,1,75.0000028610231,2|0,0:0|0:0,0:0:0:0:
440,192,203653,6,0,L|464:272,1,75.0000028610231
328,256,203914,2,0,L|336:336,1,75.0000028610231,2|0,0:0|0:0,0:0:0:0:
184,256,204175,2,0,L|176:336,1,75.0000028610231,0|0,1:0|0:0,0:0:0:0:
72,192,204435,2,0,L|48:272,1,75.0000028610231,2|0,0:0|0:0,0:0:0:0:
183,256,204696,6,0,P|224:208|224:152,1,112.500004291535
216,144,204957,2,0,L|136:168,1,75.0000028610231,2|0,0:0|0:0,0:0:0:0:
56,48,205218,2,0,L|136:72,1,75.0000028610231,0|0,1:0|0:0,0:0:0:0:
296,144,205479,2,0,L|376:168,1,75.0000028610231,2|0,0:0|0:0,0:0:0:0:
456,48,205740,6,0,B|376:72|376:72|336:64,1,112.500004291535
327,58,206001,2,0,L|256:80,1,75.0000028610231,2|0,0:0|0:0,0:0:0:0:
184,324,206261,2,0,L|255:303,1,75.0000028610231,0|0,1:0|0:0,0:0:0:0:
122,120,206522,2,0,L|143:192,1,75.0000028610231,2|0,0:0|0:0,0:0:0:0:
390,263,206783,6,0,L|368:190,1,75.0000028610231
144,192,207044,2,0,L|122:264,1,75.0000028610231,2|2,0:0|0:0,0:0:0:0:
256,360,207305,1,0,1:0:0:0:
304,168,207566,2,0,L|378:178,1,75.0000028610231,2|2,0:0|0:0,0:0:0:0:
208,216,207827,6,0,L|133:205,1,75.0000028610231,0|2,0:0|0:0,0:0:0:0:
328,184,208088,2,0,L|402:194,1,75.0000028610231,0|2,0:0|0:0,0:0:0:0:
184,200,208348,6,0,L|128:192,7,50,4|0|0|0|0|0|0|0,1:1|0:0|0:0|0:0|0:0|0:0|0:0|0:0,0:0:0:0:
120,192,208870,6,0,P|128:136|104:80,1,112.500004291535,4|0,0:0|0:0,0:0:0:0:
88,72,209131,2,0,L|176:64,1,75.0000028610231,2|0,0:0|0:0,0:0:0:0:
256,136,209391,1,0,1:0:0:0:
256,136,209522,1,0,0:0:0:0:
256,136,209652,2,0,L|368:123,1,112.500004291535,2|0,0:0|0:0,0:0:0:0:
392,112,209913,6,0,L|304:120,1,75.0000028610231
258,349,210174,2,0,L|295:269,1,75.0000028610231,2|0,0:0|0:0,0:0:0:0:
119,114,210435,2,0,L|170:186,1,75.0000028610231,0|0,1:0|0:0,0:0:0:0:
392,112,210696,2,0,L|342:39,1,75.0000028610231,2|0,0:0|0:0,0:0:0:0:
256,136,210957,6,0,P|304:112|368:112,1,112.500004291535
392,112,211217,2,0,P|432:112|472:104,1,75.0000028610231,2|0,0:0|0:0,0:0:0:0:
256,40,211478,1,0,1:0:0:0:
256,40,211608,1,0,0:0:0:0:
256,40,211739,2,0,P|216:40|176:48,1,75.0000028610231,2|0,0:0|0:0,0:0:0:0:
72,192,212000,6,0,L|48:272,1,75.0000028610231
184,256,212261,2,0,L|176:336,1,75.0000028610231,2|0,0:0|0:0,0:0:0:0:
328,256,212522,2,0,L|336:336,1,75.0000028610231,0|0,1:0|0:0,0:0:0:0:
440,192,212783,2,0,L|464:272,1,75.0000028610231,2|0,0:0|0:0,0:0:0:0:
440,192,213044,6,0,L|464:112,1,75.0000028610231
328,128,213305,2,0,L|336:48,1,75.0000028610231,2|0,0:0|0:0,0:0:0:0:
184,128,213566,2,0,L|176:48,1,75.0000028610231,0|0,1:0|0:0,0:0:0:0:
72,192,213826,2,0,L|48:112,1,75.0000028610231,2|0,0:0|0:0,0:0:0:0:
56,288,214088,6,0,P|104:280|208:320,1,150.000005722046,0|2,0:0|0:0,0:0:0:0:
256,384,214479,1,0,0:0:0:0:
313,311,214609,2,0,P|381:282|456:288,1,150.000005722046,0|2,1:0|0:0,0:0:0:0:
392,206,215001,1,0,0:0:0:0:
392,206,215131,5,0,0:0:0:0:
296,217,215261,1,0,1:0:0:0:
256,129,215392,1,2,0:0:0:0:
327,64,215522,1,0,0:0:0:0:
411,112,215653,1,0,1:0:0:0:
120,206,215914,5,2,1:2:0:0:
101,112,216045,1,0,1:0:0:0:
185,64,216175,1,0,1:0:0:0:
256,129,216305,1,0,1:0:0:0:
256,129,216566,1,0,1:0:0:0:
216,217,216696,6,0,L|272:224,1,50,4|0,1:1|0:0,0:0:0:0:
224,248,216827,2,0,L|274:254,1,50
232,280,216957,2,0,L|288:287,1,50
240,312,217088,2,0,L|290:318,1,50
248,344,217218,6,0,L|322:350,1,75.0000028610231,4|0,1:2|0:0,0:0:0:0:
400,288,217479,1,2,0:0:0:0:
400,288,217609,1,0,0:0:0:0:
400,288,217740,2,0,B|475:295|475:295|464:256,1,112.500004291535,0|0,1:0|0:0,0:0:0:0:
456,240,218001,2,0,L|464:160,1,75.0000028610231,2|0,0:0|0:0,0:0:0:0:
384,16,218261,6,0,L|376:96,1,75.0000028610231,0|0,1:0|0:0,0:0:0:0:
256,80,218522,1,2,0:0:0:0:
256,80,218653,1,0,0:0:0:0:
256,80,218783,2,0,P|208:96|144:96,1,112.500004291535,0|0,1:0|0:0,0:0:0:0:
128,88,219044,2,0,P|88:88|40:96,1,75.0000028610231,2|0,0:0|0:0,0:0:0:0:
80,272,219305,6,0,B|108:276|108:276|136:272|136:272|164:276|164:276|192:272,1,112.500004291535,0|0,1:0|0:0,0:0:0:0:
200,264,219566,2,0,B|228:260|228:260|256:264|256:264|284:260|284:260|312:264,1,112.500004291535,2|0,0:0|0:0,0:0:0:0:
320,272,219827,6,0,L|368:272,1,37.5000014305115,0|0,1:0|0:0,0:0:0:0:
336,280,219957,2,0,L|384:280,1,37.5000014305115,2|0,0:0|0:0,0:0:0:0:
352,288,220088,2,0,B|380:292|380:292|408:288|408:288|436:292|436:292|464:288,1,112.500004291535,2|0,0:0|0:0,0:0:0:0:
480,280,220348,6,0,L|488:232,1,37.5000014305115,0|0,1:0|0:0,0:0:0:0:
472,256,220479,2,0,L|480:208,1,37.5000014305115,2|0,0:0|0:0,0:0:0:0:
464,232,220609,2,0,L|472:184,1,37.5000014305115,2|0,0:0|0:0,0:0:0:0:
456,208,220740,2,0,L|464:160,1,37.5000014305115,2|0,0:0|0:0,0:0:0:0:
448,184,220870,6,0,B|456:144|456:144|440:80,1,100,0|0,1:0|0:0,0:0:0:0:
296,48,221131,2,0,L|256:192,1,150,2|0,0:0|0:0,0:0:0:0:
256,192,221392,6,0,L|336:184,1,75.0000028610231,0|0,1:0|0:0,0:0:0:0:
112,120,221653,2,0,L|187:112,1,75.0000028610231,2|0,0:0|0:0,0:0:0:0:
296,48,221914,2,0,L|262:171,1,112.500004291535,0|0,1:0|0:0,0:0:0:0:
272,176,222174,2,0,L|352:168,1,75.0000028610231,2|0,0:0|0:0,0:0:0:0:
120,272,222435,6,0,L|200:264,1,75.0000028610231,0|0,1:0|0:0,0:0:0:0:
400,240,222696,2,0,L|480:232,1,75.0000028610231,2|0,0:0|0:0,0:0:0:0:
264,320,222957,2,0,L|375:307,1,112.500004291535,0|0,1:0|0:0,0:0:0:0:
392,320,223218,2,0,L|472:312,1,75.0000028610231,2|0,1:2|0:0,0:0:0:0:
408,160,223479,6,0,L|352:152,1,37.5000014305115,0|0,1:0|0:0,0:0:0:0:
400,129,223610,2,0,L|448:120,1,37.5000014305115,2|0,0:0|0:0,0:0:0:0:
392,97,223740,2,0,L|336:88,1,37.5000014305115
384,66,223871,2,0,L|432:56,1,37.5000014305115,2|0,1:2|0:0,0:0:0:0:
376,33,224001,6,0,L|296:24,1,75.0000028610231,0|0,1:0|0:0,0:0:0:0:
136,48,224261,2,0,L|192:56,1,37.5000014305115,2|0,0:0|0:0,0:0:0:0:
144,80,224392,2,0,L|200:89,1,37.5000014305115,2|0,0:0|0:0,0:0:0:0:
152,112,224522,6,0,L|96:121,1,37.5000014305115,0|0,1:0|0:0,0:0:0:0:
144,144,224653,2,0,L|88:153,1,37.5000014305115,2|0,0:0|0:0,0:0:0:0:
136,176,224783,2,0,L|80:185,1,37.5000014305115
128,208,224914,2,0,L|72:217,1,37.5000014305115,2|0,1:2|0:0,0:0:0:0:
120,240,225044,6,0,L|176:248,8,50,4|0|0|0|0|0|0|0|0,1:2|0:0|0:0|0:0|0:0|0:0|0:0|0:0|0:0,0:0:0:0:
