osu file format v14

[General]
AudioFilename: audio.mp3
AudioLeadIn: 0
PreviewTime: 183175
Countdown: 0
SampleSet: Soft
StackLeniency: 0.6
Mode: 0
LetterboxInBreaks: 0
WidescreenStoryboard: 1

[Editor]
DistanceSpacing: 1.2
BeatDivisor: 4
GridSize: 8
TimelineZoom: 1

[Metadata]
Title:A Light That Never Comes
TitleUnicode:A Light That Never Comes
Artist:Linkin Park, Steve Aoki
ArtistUnicode:Linkin Park, Steve Aoki
Creator:pw384
Version:Advanced
Source:
Tags:Recharged HootOwlStar 384059043
BeatmapID:1200529
BeatmapSetID:566773

[Difficulty]
HPDrainRate:4.2
CircleSize:3.7
OverallDifficulty:5.3
ApproachRate:5.8
SliderMultiplier:1.6
SliderTickRate:1

[Events]
//Background and Video events
0,0,"bg.jpg",0,0
//Break Periods
2,42113,48175
2,92200,99269
//Storyboard Layer 0 (Background)
//Storyboard Layer 1 (Fail)
//Storyboard Layer 2 (Pass)
//Storyboard Layer 3 (Foreground)
//Storyboard Sound Samples

[TimingPoints]
175,521.739130434783,4,2,0,80,1,0
305,-100,4,2,0,60,0,0
8001,-100,4,1,0,40,0,0
8522,-100,4,2,0,60,0,0
16870,-100,4,2,0,40,0,0
17392,-100,4,2,0,60,0,0
24696,-100,4,1,0,40,0,0
25218,-100,4,2,0,65,0,0
41392,-100,4,2,0,80,0,0
41914,-100,4,2,0,40,0,0
50261,-100,4,3,0,40,0,0
52348,-100,4,3,0,45,0,0
54435,-100,4,3,0,50,0,0
56522,-100,4,3,0,55,0,0
58609,-100,4,3,0,60,0,0
71131,-100,4,2,0,40,0,0
74783,-100,4,1,0,40,0,0
75305,-100,4,2,0,60,0,0
78957,-100,4,2,0,60,0,0
79479,-100,4,2,0,60,0,0
83131,-100,4,1,0,40,0,0
83653,-100,4,2,0,60,0,0
91479,-100,4,1,0,40,0,0
92001,-100,4,2,0,60,0,0
100348,-100,4,2,0,60,0,0
108175,-100,4,1,0,40,0,0
108696,-100,4,2,0,50,0,0
117044,-100,4,3,0,60,0,0
121218,-100,4,3,0,65,0,0
125392,-100,4,2,0,70,0,0
133218,-100,4,1,0,55,0,0
133740,-100,4,2,0,75,0,0
141566,-100,4,1,0,75,0,0
142088,-100,4,2,0,80,0,1
149914,-100,4,1,0,60,0,0
150435,-100,4,2,0,80,0,1
158261,-100,4,1,0,60,0,1
158783,-100,4,2,0,50,0,0
181740,-100,4,2,0,60,0,0
183305,-100,4,2,0,60,0,0
183827,-100,4,2,0,85,0,1
191653,-100,4,2,0,85,0,0
192175,-100,4,2,0,85,0,1
200001,-100,4,1,0,60,0,0
200522,-100,4,2,0,85,0,1
208348,-100,4,1,0,60,0,0
208870,-100,4,2,0,85,0,1
216696,-100,4,1,0,60,0,1
217218,-100,4,2,0,70,0,0
220870,-100,4,2,0,70,0,0
221392,-100,4,2,0,70,0,0
225044,-100,4,2,0,85,0,0
225566,-100,4,2,0,5,0,0

[Colours]
Combo1 : 85,85,85
Combo2 : 233,233,233

[HitObjects]
40,200,175,6,0,P|72:224|80:344,1,160,0|0,1:0|1:0,0:0:0:0:
0,288,957,1,2,0:0:0:0:
40,200,1218,2,0,L|200:192,1,160,0|0,1:0|1:0,0:0:0:0:
256,264,2001,1,2,0:0:0:0:
312,192,2261,6,0,L|472:200,1,160,0|0,1:0|1:0,0:0:0:0:
512,288,3043,1,2,0:0:0:0:
427,335,3305,2,0,P|420:257|471:199,1,160,0|0,1:0|1:0,0:0:0:0:
512,112,4088,1,2,0:0:0:0:
448,40,4348,6,0,B|424:56|416:88|416:88|368:72|312:96,1,160,0|8,1:0|1:3,0:0:0:0:
256,168,5131,1,2,0:0:0:0:
194,93,5392,2,0,B|144:72|96:88|96:88|88:56|64:40,1,160,0|8,1:0|1:3,0:0:0:0:
0,112,6175,1,2,0:0:0:0:
56,192,6435,6,0,B|136:176|136:176|176:200|176:264,1,160,0|8,1:0|1:3,0:0:0:0:
168,336,7218,1,2,0:0:0:0:
256,296,7479,1,0,1:0:0:0:
344,336,7740,1,0,1:0:0:0:
337,241,8001,2,0,B|336:200|376:176|376:176|456:192,1,160,0|4,0:0|1:0,0:0:0:0:
352,32,9044,5,0,1:0:0:0:
256,56,9305,1,2,0:0:0:0:
160,32,9566,2,0,P|104:48|64:120,2,120,0|0|2,1:0|0:0|0:0,0:0:0:0:
160,128,10609,6,0,L|144:216,1,80,0|2,1:0|0:0,0:0:0:0:
216,272,11131,2,0,L|296:272,1,80,0|2,1:0|0:0,0:0:0:0:
366,206,11653,2,0,B|352:128|352:128|368:88,2,120,0|0|2,1:0|0:0|0:0,0:0:0:0:
440,272,12696,6,0,P|432:312|408:352,1,80,0|2,1:0|0:0,0:0:0:0:
320,344,13218,2,0,P|272:336|232:336,1,80,0|2,1:0|0:0,0:0:0:0:
152,360,13740,2,0,P|88:368|24:336,2,120,0|0|0,1:0|0:0|0:0,0:0:0:0:
176,264,14783,6,0,L|208:184,1,80,0|2,1:0|0:0,0:0:0:0:
306,194,15305,2,0,L|336:120,1,80,0|2,1:0|0:0,0:0:0:0:
360,24,15827,2,0,P|424:16|488:48,2,120,0|0|2,1:0|0:0|0:0,0:0:0:0:
272,64,16870,6,0,B|245:66|218:64|192:55|192:55|160:64|144:72|126:96,1,160,4|0,1:0|0:0,0:0:0:0:
96,183,17653,1,2,0:0:0:0:
95,279,17914,2,0,P|38:261|3:214,2,120,0|0|2,1:0|0:0|0:0,0:0:0:0:
168,335,18957,5,0,1:0:0:0:
208,247,19218,1,2,0:0:0:0:
304,247,19479,1,0,1:0:0:0:
344,335,19740,1,2,0:0:0:0:
417,279,20001,2,0,P|473:261|508:214,2,120,0|0|2,1:0|0:0|0:0,0:0:0:0:
416,183,21044,6,0,L|424:103,1,80,0|2,1:0|0:0,0:0:0:0:
384,16,21566,2,0,P|344:8|296:8,1,80,0|2,1:0|0:0,0:0:0:0:
256,88,22088,2,0,B|248:112|248:144|264:152|264:184|256:208,2,120,0|0|2,1:0|0:0|0:0,0:0:0:0:
207,7,23131,6,0,P|167:8|128:16,1,80,0|2,1:0|0:0,0:0:0:0:
88,103,23653,2,0,L|96:183,1,80,0|2,1:0|0:0,0:0:0:0:
184,224,24175,2,0,P|256:253|328:223,1,160,0|0,1:0|0:0,0:0:0:0:
424,64,25218,6,0,L|432:144,1,80,4|2,1:0|0:0,0:0:0:0:
432,240,25740,2,0,L|424:320,1,80,0|2,1:0|0:0,0:0:0:0:
336,280,26261,2,0,P|256:264|176:280,1,160,0|0,1:0|1:0,0:0:0:0:
168,376,27044,1,2,0:0:0:0:
88,320,27305,6,0,L|80:240,1,80,0|2,1:0|0:0,0:0:0:0:
80,144,27827,2,0,L|88:64,1,80,0|2,1:0|0:0,0:0:0:0:
176,24,28348,2,0,B|208:104|208:104|296:104,1,160,0|0,1:0|1:0,0:0:0:0:
336,24,29131,1,2,0:0:0:0:
424,64,29392,6,0,P|437:101|433:140,1,80,0|2,1:0|0:0,0:0:0:0:
344,176,29914,2,0,P|339:215|353:252,1,80,0|2,1:0|0:0,0:0:0:0:
439,287,30435,2,0,P|363:276|304:327,1,160,0|0,1:0|1:0,0:0:0:0:
256,240,31218,1,2,0:0:0:0:
207,327,31479,6,0,P|148:276|72:287,1,160,0|0,1:0|1:0,0:0:0:0:
120,368,32261,1,2,0:0:0:0:
208,328,32522,2,0,B|225:296|227:232|194:263|196:199|212:174,1,160,0|0,1:0|1:0,0:0:0:0:
300,210,33305,1,2,0:0:0:0:
300,210,33566,6,0,B|315:184|317:120|284:151|286:87|304:56,1,160,4|0,1:0|1:0,0:0:0:0:
392,96,34348,2,0,P|406:133|408:172,1,80,2|0,0:0|1:0,0:0:0:0:
384,264,34870,1,2,0:0:0:0:
296,304,35131,2,0,L|216:304,1,80,0|2,1:0|0:0,0:0:0:0:
128,264,35653,5,0,1:0:0:0:
103,172,35914,2,0,P|105:133|119:96,1,80,2|0,0:0|1:0,0:0:0:0:
200,40,36435,1,2,0:0:0:0:
256,120,36696,2,0,B|256:136|272:168|272:168|240:216|240:216|256:252|256:264,1,160,0|0,1:0|1:0,0:0:0:0:
312,344,37479,1,2,0:0:0:0:
392,287,37740,6,0,P|406:250|408:211,1,80,0|2,1:0|0:0,0:0:0:0:
375,111,38261,2,0,P|344:88|307:72,1,80,0|2,1:0|0:0,0:0:0:0:
204,72,38783,2,0,P|167:88|136:112,1,80,0|2,1:0|0:0,0:0:0:0:
103,211,39306,2,0,P|105:250|119:287,1,80,0|2,1:0|0:0,0:0:0:0:
208,328,39827,6,0,B|225:296|227:232|194:263|196:199|212:174,1,160,0|0,1:0|1:0,0:0:0:0:
300,210,40609,1,2,0:0:0:0:
300,210,40870,2,0,B|315:184|317:120|284:151|286:87|304:56,2,160,0|0|4,1:0|1:0|0:0,0:0:0:0:
72,68,50261,6,0,P|152:60|208:116,1,160,0|8,0:0|0:0,0:0:0:0:
120,148,51044,1,0,0:0:0:0:
33,184,51305,2,0,P|90:236|167:227,1,160,0|8,0:0|0:0,0:0:0:0:
256,192,52088,1,0,0:0:0:0:
344,156,52348,6,0,P|421:147|479:200,1,160,0|8,0:0|0:0,0:0:0:0:
392,236,53131,1,0,0:0:0:0:
305,272,53393,2,0,P|362:325|440:316,2,160,0|8|0,0:0|0:0|0:0,0:0:0:0:
256,192,54696,5,0,0:0:0:0:
208,272,54957,2,0,P|200:328|168:360,1,80,8|0,0:0|0:0,0:0:0:0:
120,288,55479,2,0,P|64:272|-16:336,1,160,0|8,0:0|0:0,0:0:0:0:
72,368,56261,1,0,0:0:0:0:
120,288,56522,6,0,L|128:208,1,80,0|0,0:0|0:0,0:0:0:0:
48,160,57044,2,0,L|40:80,1,80,8|0,0:0|0:0,0:0:0:0:
128,40,57566,2,0,L|208:48,1,80,0|0,0:0|0:0,0:0:0:0:
304,48,58088,2,0,L|384:40,1,80,8|0,0:0|0:0,0:0:0:0:
472,80,58609,5,2,0:0:0:0:
104,192,59653,1,2,0:0:0:0:
472,304,60696,1,2,0:0:0:0:
256,24,61740,1,2,0:0:0:0:
40,304,62783,5,2,0:0:0:0:
80,120,63305,1,2,0:0:0:0:
256,192,63827,1,2,0:0:0:0:
432,264,64348,1,2,0:0:0:0:
472,80,64870,5,2,0:0:0:0:
344,224,65392,1,2,0:0:0:0:
168,160,65914,1,2,0:0:0:0:
40,304,66435,1,2,0:0:0:0:
32,112,66957,6,0,P|24:72|32:32,1,80,2|2,0:0|0:0,0:0:0:0:
120,72,67479,2,0,L|200:72,1,80,2|2,0:0|0:0,0:0:0:0:
256,152,68001,2,0,L|256:232,1,80,2|2,0:0|0:0,0:0:0:0:
312,312,68522,2,0,L|392:312,1,80,2|2,0:0|0:0,0:0:0:0:
480,350,69044,6,0,P|487:310|480:272,1,80,2|2,0:0|0:0,0:0:0:0:
392,232,69566,2,0,L|392:152,1,80,2|2,0:0|0:0,0:0:0:0:
480,111,70088,2,0,P|487:73|480:33,1,80,2|2,0:0|0:0,0:0:0:0:
392,72,70609,2,0,L|312:72,1,80,2|2,0:0|0:0,0:0:0:0:
256,152,71131,5,2,0:0:0:0:
256,192,71392,12,0,74001,0:0:0:0:
136,48,74783,5,4,1:0:0:0:
136,48,75305,6,0,P|144:88|136:128,1,80,4|2,1:0|0:0,0:0:0:0:
56,176,75827,2,0,P|48:215|56:254,1,80,0|2,1:0|0:0,0:0:0:0:
136,312,76348,2,2,P|208:272|288:272,1,160,0|0,0:0|1:0,0:0:0:0:
376,312,77131,1,2,0:0:0:0:
455,254,77392,6,0,P|463:215|456:176,1,80,0|2,1:0|0:0,0:0:0:0:
375,126,77914,2,0,P|368:86|376:48,1,80,0|2,1:0|0:0,0:0:0:0:
464,88,78435,1,0,1:0:0:0:
320,216,78957,1,0,1:0:0:0:
256,144,79218,1,2,0:0:0:0:
192,216,79479,6,0,P|144:232|112:232,1,80,0|2,1:0|0:0,0:0:0:0:
56,160,80001,2,0,P|104:144|136:144,1,80,0|2,1:0|0:0,0:0:0:0:
192,216,80522,2,2,B|256:264|256:264|320:216,1,160,0|0,0:0|1:0,0:0:0:0:
378,143,81305,1,2,0:0:0:0:
378,143,81566,6,0,P|418:145|456:160,1,80,0|0,1:0|0:0,0:0:0:0:
397,232,82088,2,0,P|357:230|320:216,1,80,0|0,1:0|0:0,0:0:0:0:
256,144,82609,2,0,L|256:64,1,80,0|0,1:0|1:0,0:0:0:0:
160,64,83131,1,0,1:0:0:0:
352,64,83653,6,0,P|392:64|432:72,1,80,4|2,1:0|0:0,0:0:0:0:
488,152,84175,2,0,L|488:232,1,80,0|2,1:0|0:0,0:0:0:0:
431,312,84696,2,2,P|354:326|286:287,1,160,0|0,0:0|1:0,0:0:0:0:
256,192,85479,1,2,0:0:0:0:
225,96,85740,6,0,P|157:57|80:71,1,160,0|0,1:0|1:0,0:0:0:0:
24,152,86522,1,2,0:0:0:0:
96,216,86783,2,0,L|184:224,1,80,0|2,1:0|0:0,0:0:0:0:
216,312,87305,2,0,L|296:312,1,80,0|0,1:0|1:0,0:0:0:0:
336,223,87827,6,0,L|416:216,1,80,0|2,1:0|0:0,0:0:0:0:
488,152,88348,2,0,L|480:72,1,80,0|2,1:0|0:0,0:0:0:0:
408,8,88870,2,2,B|368:24|368:24|352:64|352:64|312:80|312:80|296:120,1,160,0|0,0:0|1:0,0:0:0:0:
256,192,89653,1,2,0:0:0:0:
211,275,89914,6,0,B|200:304|200:304|160:320|160:320|144:360|144:360|104:376,2,160,0|0|0,1:0|1:0|1:0,0:0:0:0:
256,192,91218,1,2,0:0:0:0:
299,107,91479,2,0,P|222:107|166:162,1,160,0|4,0:0|1:0,0:0:0:0:
212,210,100348,6,0,B|197:184|195:120|228:151|226:87|208:56,1,160,4|0,1:0|1:0,0:0:0:0:
120,96,101131,2,0,P|106:133|104:172,1,80,2|0,0:0|1:0,0:0:0:0:
128,264,101652,1,2,0:0:0:0:
216,304,101914,2,0,L|296:304,1,80,0|2,1:0|0:0,0:0:0:0:
384,264,102435,5,0,1:0:0:0:
409,172,102696,2,0,P|407:133|393:96,1,80,2|0,0:0|1:0,0:0:0:0:
312,40,103217,1,2,0:0:0:0:
256,120,103479,2,0,B|256:136|240:168|240:168|272:216|272:216|256:252|256:264,1,160,0|0,1:0|1:0,0:0:0:0:
200,344,104261,1,2,0:0:0:0:
120,287,104522,6,0,P|106:250|104:211,1,80,0|2,1:0|0:0,0:0:0:0:
136,111,105044,2,0,P|167:88|204:72,1,80,0|2,1:0|0:0,0:0:0:0:
307,72,105566,2,0,P|344:88|376:112,1,80,0|2,1:0|0:0,0:0:0:0:
409,211,106088,2,0,P|407:250|393:287,1,80,0|2,1:0|0:0,0:0:0:0:
304,328,106609,6,0,B|287:296|285:232|318:263|316:199|300:174,1,160,0|0,1:0|1:0,0:0:0:0:
256,88,107392,1,2,0:0:0:0:
213,173,107653,2,0,B|152:224|152:224|72:216,1,160,0|0,1:0|0:0,0:0:0:0:
160,48,108696,5,0,0:0:0:0:
352,16,109218,1,0,0:0:0:0:
384,208,109740,1,0,0:0:0:0:
192,240,110261,1,0,0:0:0:0:
160,48,110783,5,0,0:0:0:0:
320,80,111305,1,0,0:0:0:0:
288,240,111827,1,0,0:0:0:0:
128,208,112348,1,0,0:0:0:0:
272,152,112870,5,2,0:0:0:0:
432,184,113392,1,0,0:0:0:0:
400,344,113914,1,0,0:0:0:0:
240,312,114435,1,0,0:0:0:0:
320,144,114957,5,2,0:0:0:0:
352,352,115478,1,0,0:0:0:0:
160,368,116000,1,0,0:0:0:0:
128,176,116522,1,0,0:0:0:0:
248,256,117044,5,2,0:0:0:0:
240,272,118088,1,2,0:0:0:0:
232,288,119131,1,2,0:0:0:0:
224,304,120175,1,2,0:0:0:0:
216,320,121218,5,2,0:0:0:0:
32,256,121740,1,2,0:0:0:0:
216,192,122261,1,2,0:0:0:0:
32,128,122783,1,2,0:0:0:0:
216,64,123305,5,2,0:0:0:0:
288,128,123566,1,2,0:0:0:0:
216,192,123827,1,2,0:0:0:0:
288,256,124088,1,2,0:0:0:0:
216,320,124348,6,0,L|176:328,1,40,2|0,0:0|1:0,0:0:0:0:
112,256,124740,2,0,L|72:264,1,40,2|0,0:0|1:0,0:0:0:0:
8,192,125131,1,8,0:0:0:0:
72,120,125392,6,0,L|152:128,1,80,4|2,1:0|0:0,0:0:0:0:
216,56,125914,2,0,L|296:56,1,80,0|2,1:0|0:0,0:0:0:0:
360,128,126435,2,0,L|440:120,1,80,0|2,1:0|0:0,0:0:0:0:
504,192,126957,1,0,1:0:0:0:
504,192,127218,1,2,0:0:0:0:
440,264,127479,6,0,L|360:256,1,80,0|2,1:0|0:0,0:0:0:0:
296,328,128000,2,0,L|216:328,1,80,0|2,1:0|0:0,0:0:0:0:
152,256,128522,2,0,L|72:264,1,80,0|2,1:0|0:0,0:0:0:0:
8,336,129044,2,0,P|40:272|24:184,1,160,0|0,1:0|1:0,0:0:0:0:
48,96,129827,5,2,0:0:0:0:
128,152,130088,2,0,L|208:160,1,80,0|2,1:0|0:0,0:0:0:0:
304,160,130609,2,0,L|384:152,1,80,0|2,1:0|0:0,0:0:0:0:
464,96,131131,1,0,1:0:0:0:
464,96,131392,1,0,0:0:0:0:
464,192,131653,6,0,B|432:240|432:240|440:344,1,160,0|0,1:0|1:0,0:0:0:0:
352,312,132435,1,2,0:0:0:0:
256,312,132696,1,0,1:0:0:0:
160,312,132957,1,2,0:0:0:0:
72,342,133218,2,0,B|80:240|80:240|48:192,1,160,0|4,0:0|1:0,0:0:0:0:
48,96,134001,5,2,0:0:0:0:
128,152,134262,2,0,L|208:160,1,80,0|2,1:0|0:0,0:0:0:0:
304,160,134783,2,0,L|384:152,1,80,0|2,1:0|0:0,0:0:0:0:
464,96,135305,1,0,1:0:0:0:
376,56,135566,1,2,0:0:0:0:
384,152,135827,6,0,B|392:256|392:256|336:288,1,160,0|0,1:0|1:0,0:0:0:0:
256,328,136609,1,2,0:0:0:0:
168,283,136870,2,0,B|120:256|120:256|128:152,2,160,0|0|0,1:0|1:0|1:0,0:0:0:0:
256,248,138175,5,2,0:0:0:0:
256,152,138435,2,0,L|256:72,1,80,0|2,1:0|0:0,0:0:0:0:
168,32,138957,2,0,B|88:64|88:64|48:136,1,160,0|0,1:0|1:0,0:0:0:0:
120,192,139740,1,2,0:0:0:0:
52,255,140001,6,0,B|88:320|88:320|168:352,1,160,0|0,1:0|1:0,0:0:0:0:
256,312,140783,1,2,0:0:0:0:
344,352,141044,2,0,L|424:320,1,80,0|0,1:0|1:0,0:0:0:0:
480,248,141566,2,0,B|428:220|428:220|328:256,1,160,0|4,1:0|1:0,0:0:0:0:
256,312,142348,6,0,L|256:152,1,160,0|0,0:0|0:0,0:0:0:0:
192,80,143131,2,0,P|160:128|168:192,2,120,0|2|0,1:0|0:0|0:0,0:0:0:0:
120,24,144175,6,0,P|80:72|72:96,1,80,0|0,0:0|0:0,0:0:0:0:
72,184,144696,2,0,L|64:264,1,80,0|0,0:0|0:0,0:0:0:0:
56,360,145218,2,0,L|175:347,2,120,0|2|0,1:0|0:0|0:0,0:0:0:0:
64,264,146261,6,0,L|144:256,1,80,0|0,0:0|0:0,0:0:0:0:
233,219,146783,2,0,L|256:296,1,80,0|0,0:0|0:0,0:0:0:0:
336,347,147305,2,0,L|456:360,2,120,0|2|0,1:0|0:0|0:0,0:0:0:0:
368,256,148348,6,0,L|448:264,1,80,0|0,0:0|0:0,0:0:0:0:
512,192,148870,1,0,0:0:0:0:
512,192,149131,1,0,0:0:0:0:
448,120,149392,2,0,L|368:128,1,80,0|0,1:0|1:0,0:0:0:0:
296,192,149914,2,0,P|272:144|312:48,1,160,0|4,0:0|1:1,0:0:0:0:
488,120,150957,6,0,L|480:208,1,80,0|2,1:0|0:0,0:0:0:0:
432,280,151479,2,0,L|312:267,2,120,0|0|2,1:0|0:0|0:0,0:0:0:0:
384,360,152522,6,0,L|304:352,1,80,0|2,1:0|0:0,0:0:0:0:
208,352,153044,2,0,L|128:360,1,80,0|2,1:0|0:0,0:0:0:0:
80,280,153566,2,0,L|199:267,2,120,0|0|2,1:0|0:0|0:0,0:0:0:0:
40,192,154609,6,0,P|32:152|48:104,1,80,0|2,1:0|0:0,0:0:0:0:
128,80,155131,2,0,P|137:41|129:2,1,80,0|2,1:0|0:0,0:0:0:0:
40,40,155653,2,0,L|208:56,1,160,0|0,1:0|1:0,0:0:0:0:
256,128,156435,1,2,0:0:0:0:
312,55,156696,6,0,L|472:40,2,160,0|0|0,1:0|1:0|1:0,0:0:0:0:
256,128,158001,1,0,1:0:0:0:
256,224,158261,2,0,B|264:256|264:256|248:288|248:288|264:320|264:320|248:352|248:352|256:376,1,160,0|4,0:0|0:0,0:0:0:0:
256,192,159044,12,0,165044,0:0:0:0:
72,72,167131,6,0,L|104:232,3,160,0|4|0|4,0:0|3:0|0:0|3:0,0:0:0:0:
136,376,169218,2,0,L|296:344,3,160,0|4|0|4,0:0|3:0|0:0|3:0,0:0:0:0:
440,312,171305,6,0,L|408:152,1,160,4|4,3:0|3:0,0:0:0:0:
376,8,172348,2,0,L|216:40,1,160,4|4,3:0|3:0,0:0:0:0:
72,72,173392,6,0,L|104:232,1,160,4|4,3:0|3:0,0:0:0:0:
136,376,174435,2,0,L|296:344,1,160,4|4,3:0|3:0,0:0:0:0:
336,168,175479,6,0,L|320:88,1,80,4|4,3:0|3:0,0:0:0:0:
232,112,176001,2,0,L|152:128,1,80,4|4,3:0|3:0,0:0:0:0:
176,216,176522,2,0,L|192:296,1,80,4|4,3:0|3:0,0:0:0:0:
280,272,177044,2,0,L|360:256,1,80,4|4,3:0|3:0,0:0:0:0:
432,192,177566,6,0,L|392:120,1,80,4|4,3:0|3:0,0:0:0:0:
344,39,178088,2,0,L|256:40,1,80,4|4,3:0|3:0,0:0:0:0:
168,39,178609,2,0,L|125:110,1,80,4|4,3:0|3:0,0:0:0:0:
80,192,179131,2,0,L|122:262,1,80,4|4,3:0|3:0,0:0:0:0:
64,336,179653,6,0,B|88:292|176:264|240:304|240:304|128:128|128:128|224:144|224:144|256:192|256:192|288:240|288:240|384:256|384:256|272:80|272:80|336:120|424:92|448:48,1,1120,4|0,3:0|0:0,0:0:0:0:
448,48,183827,6,0,P|488:112|464:192,1,160,4|0,1:2|1:0,0:0:0:0:
392,128,184609,1,2,0:0:0:0:
336,208,184870,2,0,L|176:208,1,160,0|0,0:0|1:0,0:0:0:0:
120,128,185653,1,2,0:0:0:0:
64,48,185914,6,0,P|24:112|48:192,1,160,0|0,0:0|1:0,0:0:0:0:
16,280,186696,1,2,0:0:0:0:
88,344,186957,2,0,P|136:344|168:336,1,80,0|2,0:0|0:0,0:0:0:0:
208,248,187479,1,0,1:0:0:0:
304,248,187740,1,2,0:0:0:0:
345,336,188001,6,0,P|384:344|424:344,1,80,0|2,0:0|0:0,0:0:0:0:
496,280,188522,1,0,1:0:0:0:
466,189,188783,1,2,0:0:0:0:
466,189,189044,2,0,P|488:114|448:48,1,160,0|0,0:0|1:0,0:0:0:0:
392,128,189827,1,2,0:0:0:0:
327,55,190088,6,0,P|255:26|183:56,1,160,0|0,0:0|1:0,0:0:0:0:
120,128,190870,1,2,0:0:0:0:
46,189,191131,1,0,0:0:0:0:
160,344,191653,1,4,1:1:0:0:
352,344,192175,6,0,B|368:288|368:288|408:288|440:264|456:232,1,160,4|0,0:0|1:0,0:0:0:0:
368,192,192957,1,2,0:0:0:0:
452,144,193218,2,0,B|440:120|408:96|368:96|368:96|352:40,1,160,0|0,0:0|1:0,0:0:0:0:
256,64,194001,1,2,0:0:0:0:
160,40,194261,6,0,B|144:96|144:96|104:96|72:120|56:152,1,160,0|0,0:0|1:0,0:0:0:0:
144,192,195043,1,2,0:0:0:0:
59,239,195305,2,0,B|72:264|104:288|144:288|144:288|160:344,1,160,0|0,0:0|1:0,0:0:0:0:
256,312,196088,1,2,0:0:0:0:
352,344,196348,6,0,P|392:344|432:328,1,80,0|2,0:0|0:0,0:0:0:0:
408,232,196870,2,0,P|368:232|328:248,1,80,0|2,1:0|0:0,0:0:0:0:
255,311,197392,2,0,P|232:240|280:160,1,160,0|0,0:0|1:0,0:0:0:0:
336,96,198175,1,2,0:0:0:0:
413,155,198435,6,0,P|344:191|270:168,1,160,0|0,0:0|1:0,0:0:0:0:
208,96,199218,1,2,0:0:0:0:
120,64,199479,2,0,L|80:56,1,40,0|0,0:0|1:0,0:0:0:0:
0,112,199870,2,0,L|8:152,1,40,0|4,1:0|1:1,0:0:0:0:
96,192,200261,1,0,0:0:0:0:
136,280,200522,6,0,L|128:368,1,80,4|2,0:0|0:0,0:0:0:0:
56,287,201044,2,0,L|144:279,1,80,0|2,1:0|0:0,0:0:0:0:
216,224,201566,2,0,L|296:224,1,80,0|2,0:0|0:0,0:0:0:0:
376,280,202088,2,0,L|384:368,1,80,0|2,1:0|0:0,0:0:0:0:
456,287,202609,6,0,L|368:279,1,80,0|2,0:0|0:0,0:0:0:0:
296,224,203131,2,0,L|216:224,1,80,0|2,1:0|0:0,0:0:0:0:
135,279,203653,2,0,L|56:287,2,80,0|2|0,0:0|0:0|1:0,0:0:0:0:
40,112,204696,6,0,P|40:56|72:16,1,80,0|2,0:0|0:0,0:0:0:0:
128,88,205218,2,0,P|176:96|208:96,1,80,0|2,1:0|0:0,0:0:0:0:
256,16,205740,1,0,0:0:0:0:
304,96,206001,2,0,P|344:95|384:88,2,80,2|0|2,0:0|1:0|0:0,0:0:0:0:
256,176,206783,6,0,P|328:184|440:160,1,160,0|0,0:0|1:0,0:0:0:0:
488,112,207566,2,0,B|496:168|496:168|480:216|480:216|488:272,1,160,2|2,0:0|0:0,0:0:0:0:
448,352,208348,1,4,1:1:0:0:
256,344,208870,6,0,L|176:336,1,80,4|2,0:0|0:0,0:0:0:0:
80,352,209392,2,0,L|88:272,1,80,0|2,1:0|0:0,0:0:0:0:
176,232,209914,2,0,L|176:152,1,80,0|2,0:0|0:0,0:0:0:0:
88,112,210435,2,0,L|80:32,1,80,0|2,1:0|0:0,0:0:0:0:
176,48,210957,6,0,B|256:40|256:40|336:48,1,160,0|0,0:0|1:0,0:0:0:0:
432,32,211740,1,2,0:0:0:0:
432,32,212001,2,0,L|424:112,1,80,0|2,0:0|0:0,0:0:0:0:
368,192,212522,2,0,P|408:208|448:208,1,80,0|2,1:0|0:0,0:0:0:0:
463,304,213044,6,0,P|384:300|312:267,1,160,0|0,0:0|1:0,0:0:0:0:
256,192,213827,1,2,0:0:0:0:
199,116,214088,2,0,P|127:83|48:79,1,160,0|0,0:0|1:0,0:0:0:0:
0,168,214870,1,2,0:0:0:0:
80,224,215131,6,0,P|96:264|96:304,1,80,0|2,0:0|0:0,0:0:0:0:
0,280,215653,1,0,1:0:0:0:
176,192,216175,2,0,B|256:192,1,80,0|2,1:0|0:0,0:0:0:0:
312,272,216696,2,0,P|368:264|448:336,1,160,4|4,1:1|1:2,0:0:0:0:
352,360,217479,5,2,0:0:0:0:
256,352,217740,1,0,1:0:0:0:
160,360,218001,1,2,0:0:0:0:
67,325,218261,2,0,P|122:269|200:272,1,160,0|0,1:0|1:0,0:0:0:0:
256,352,219044,1,2,0:0:0:0:
312,272,219305,6,0,P|312:216|296:176,1,80,0|2,1:0|0:0,0:0:0:0:
207,190,219827,2,0,P|197:151|200:112,1,80,0|2,1:0|0:0,0:0:0:0:
256,32,220348,1,0,1:0:0:0:
256,32,220609,1,2,0:0:0:0:
313,112,220870,2,0,P|336:128|392:136,1,80,0|2,1:0|0:0,0:0:0:0:
445,58,221392,5,0,1:0:0:0:
352,24,221653,1,2,0:0:0:0:
256,32,221914,1,0,1:0:0:0:
160,24,222175,1,2,0:0:0:0:
67,59,222435,2,0,P|122:115|200:112,1,160,0|0,1:0|1:0,0:0:0:0:
256,32,223218,1,2,0:0:0:0:
312,112,223479,6,0,P|312:168|296:208,1,80,0|2,1:0|0:0,0:0:0:0:
207,193,224001,2,0,P|197:232|200:272,1,80,0|2,1:0|0:0,0:0:0:0:
256,352,224522,1,0,1:0:0:0:
256,352,224783,1,2,0:0:0:0:
313,271,225044,2,0,P|390:269|445:325,1,160,4|0,1:2|0:0,0:0:0:0:
