osu file format v14

[General]
AudioFilename: audio.mp3
AudioLeadIn: 0
PreviewTime: 37502
Countdown: 0
SampleSet: Soft
StackLeniency: 0.4
Mode: 0
LetterboxInBreaks: 0
WidescreenStoryboard: 0

[Editor]
Bookmarks: 19138,37642,73530,91474
DistanceSpacing: 1.3
BeatDivisor: 4
GridSize: 32
TimelineZoom: 1.1

[Metadata]
Title:Min the end
TitleUnicode:Min the end
Artist:Linkin Park vs. Sally
ArtistUnicode:Linkin Park vs. Sally
Creator:Seto Kousuke
Version:hypercyte's One Insane Thing
Source:
Tags:chata 茶太 ~眠~ 東方神霊廟 ~ Ten Desires. 東方 ZUN Team Shanghai Alice NSY shuriken 門前の妖怪小娘 Youkai Girl at the Gate comiket 80 c80 Kyouko kasodani sleep nemuri サリーdoujin touhou pop rock english maemi no yume chester bennington akayume iceluin shirahane suou melwoine faito hypercyte hypercute
BeatmapID:2769649
BeatmapSetID:1336972

[Difficulty]
HPDrainRate:6
CircleSize:4.4
OverallDifficulty:8
ApproachRate:9
SliderMultiplier:3
SliderTickRate:1

[Events]
//Background and Video events
0,0,"seto_linkin_park_min_bg.jpg",0,0
//Break Periods
2,11326,14030
//Storyboard Layer 0 (Background)
//Storyboard Layer 1 (Fail)
//Storyboard Layer 2 (Pass)
//Storyboard Layer 3 (Foreground)
//Storyboard Layer 4 (Overlay)
//Storyboard Sound Samples

[TimingPoints]
1174,560.747663551402,4,2,44,20,1,0
7903,-100,4,3,44,20,0,0
10145,-55.5555555555556,4,3,44,50,0,0
11268,-55.5555555555556,4,3,44,20,0,0
14631,-71.4285714285714,4,3,44,50,0,0
15754,-71.4285714285714,4,3,44,30,0,0
16875,-71.4285714285714,4,3,44,15,0,0
19118,-71.4285714285714,4,2,44,30,0,0
19678,560.747663551402,4,2,44,60,1,0
19678,-416.666666666667,4,2,44,60,0,0
20098,-416.666666666667,4,2,44,5,0,0
20238,-100,4,2,44,60,0,0
26406,-125,4,2,44,60,0,0
28229,-100,4,2,44,60,0,0
28649,-416.666666666667,4,2,44,60,0,0
29070,-416.666666666667,4,2,44,5,0,0
29210,-100,4,2,44,60,0,0
33135,-90.9090909090909,4,2,44,60,0,0
34537,-100,4,2,44,60,0,0
35378,-125,4,2,44,60,0,0
37481,-125,4,2,44,5,0,0
37621,-133.333333333333,4,2,44,44,0,0
40846,-133.333333333333,4,2,44,5,0,0
40986,-133.333333333333,4,2,44,44,0,0
54304,-133.333333333333,4,2,44,5,0,0
54444,-133.333333333333,4,2,44,44,0,0
55565,-133.333333333333,4,2,44,44,0,0
55986,-133.333333333333,4,2,44,5,0,0
56126,-133.333333333333,4,2,44,44,0,0
59210,-100,4,2,44,44,0,0
59491,-133.333333333333,4,2,44,44,0,0
62294,-133.333333333333,4,2,44,48,0,0
63416,-133.333333333333,4,2,44,52,0,0
64537,-111.111111111111,4,2,44,52,0,0
73369,-111.111111111111,4,2,44,5,0,0
73509,-86.9565217391304,4,2,44,60,0,0
91453,-133.333333333333,4,2,44,44,0,0
92014,-133.333333333333,4,3,44,30,0,0

[Colours]
Combo1 : 230,154,76
Combo2 : 107,67,75
Combo3 : 97,122,126
Combo4 : 144,21,42

[HitObjects]
95,259,10145,6,0,P|115:172|129:108,1,134.999995880127,8|8,0:0|0:0,0:0:0:0:
244,303,10565,6,0,P|264:216|278:152,1,134.999995880127,8|8,0:0|0:0,0:0:0:0:
402,353,10986,6,0,P|422:266|436:202,1,134.999995880127,8|8,0:0|0:0,0:0:0:0:
129,95,14630,5,4,0:0:0:0:
137,116,14771,1,4,0:0:0:0:
250,63,15051,5,4,0:0:0:0:
258,84,15192,1,4,0:0:0:0:
363,29,15472,5,4,0:0:0:0:
371,50,15613,1,4,0:0:0:0:
256,192,17434,12,0,18976,0:0:0:0:
232,204,19116,5,0,0:0:0:0:
232,204,19257,5,2,0:0:0:0:
232,204,19397,5,2,0:0:0:0:
232,204,19537,5,2,0:0:0:0:
232,204,19678,6,0,P|277:195|297:192,1,63.000001538086,14|0,0:0|0:0,0:0:0:0:
293,192,20238,2,0,B|314:157|314:157|278:118,1,75,8|0,0:1|0:0,0:0:0:0:
380,344,20519,2,0,P|380:252|477:255,1,150,2|0,0:0|0:0,0:0:0:0:
506,259,20939,1,0,0:0:0:0:
506,259,21079,1,8,0:0:0:0:
291,383,21360,5,8,0:0:0:0:
406,196,21500,2,0,P|383:323|374:389,1,150,12|0,0:0|0:0,0:0:0:0:
174,193,21920,2,0,B|218:177|253:193|274:234|264:241|278:287|332:304|368:269,1,225,14|8,0:0|0:0,0:0:0:0:
165,185,22481,2,0,P|96:167|10:146,1,150,8|2,0:1|0:0,0:0:0:0:
424,97,23042,5,2,0:0:0:0:
424,97,23182,1,2,0:0:0:0:
350,24,23322,2,0,B|332:85|332:85|335:104|335:104|312:178,1,150,10|8,0:0|0:1,0:0:0:0:
400,304,23743,2,0,P|468:249|445:173,1,150,10|0,0:0|0:0,0:0:0:0:
185,221,24163,6,0,P|80:242|3:263,1,150,10|0,0:0|0:0,0:0:0:0:
133,148,24584,1,10,0:0:0:0:
182,205,24724,2,0,P|239:206|263:250,1,75,8|0,0:1|0:0,0:0:0:0:
271,347,25005,2,0,P|312:315|288:172,1,150,2|0,0:0|0:0,0:0:0:0:
60,68,25565,6,0,B|74:78|74:78|227:42,1,150,10|8,0:0|0:1,0:0:0:0:
345,105,25986,2,0,P|409:133|406:203,1,150,2|0,0:0|0:0,0:0:0:0:
339,243,26406,6,0,P|282:238|260:177,1,120,10|0,0:0|0:0,0:0:0:0:
275,164,26827,1,10,0:0:0:0:
263,236,26967,2,0,P|240:191|254:163,1,60,8|0,0:1|0:0,0:0:0:0:
363,251,27248,2,0,P|366:281|351:307,1,60,10|0,0:0|0:0,0:0:0:0:
157,359,27528,5,2,0:3:0:0:
176,264,27668,1,2,0:3:0:0:
99,201,27808,1,10,0:3:0:0:
157,359,28089,5,8,0:1:0:0:
263,236,28229,2,0,P|357:259|435:282,1,150,12|0,0:0|0:0,0:0:0:0:
281,52,28649,6,0,P|257:67|261:100,1,63.000001538086,14|0,0:0|0:0,0:0:0:0:
260,99,29210,6,0,B|219:83|187:100|176:130|187:151|181:200|137:224|97:200,1,225,8|0,0:1|0:0,0:0:0:0:
33,82,29771,1,2,0:0:0:0:
104,46,29911,1,2,0:0:0:0:
101,121,30051,1,10,0:0:0:0:
33,82,30332,5,8,0:1:0:0:
104,270,30472,2,0,P|102:195|100:120,1,150,12|0,0:0|0:0,0:0:0:0:
284,118,30892,2,0,B|243:140|205:125|186:77|205:68|186:28|132:18|95:52,1,225,14|8,0:0|0:0,0:0:0:0:
345,49,31453,6,0,P|383:62|391:107,1,75,8|0,0:1|0:0,0:0:0:0:
263,282,31734,2,0,P|210:215|319:120,1,225,2|0,0:0|0:0,0:0:0:0:
389,191,32294,6,0,P|394:231|356:261,1,75,10|0,0:0|0:0,0:0:0:0:
316,205,32575,1,8,0:1:0:0:
464,170,32715,2,0,P|474:220|422:316,1,150,10|0,0:0|0:0,0:0:0:0:
177,352,33135,6,0,P|203:197|227:85,1,247.500007553101,10|10,0:0|0:0,0:0:0:0:
167,342,33696,2,0,P|159:301|148:261,1,82.5000025177003,8|0,0:1|0:0,0:0:0:0:
304,92,33977,2,0,B|370:57|410:138|388:149|428:227|502:183,1,247.500007553101,2|0,0:0|0:0,0:0:0:0:
302,114,34537,6,0,P|240:131|199:143,1,75,10|0,0:0|0:0,0:0:0:0:
67,7,34818,1,8,0:1:0:0:
1,117,34958,2,0,P|83:134|99:220,1,150,2|0,0:0|0:0,0:0:0:0:
15,341,35378,6,0,P|20:283|80:265,1,120,10|0,0:0|0:0,0:0:0:0:
113,327,35799,1,10,0:0:0:0:
91,257,35939,2,0,P|119:291|119:318,1,60,8|8,0:1|0:0,0:0:0:0:
4,345,36220,2,0,P|-6:316|7:279,1,60,10|0,0:0|0:0,0:0:0:0:
206,265,36500,5,2,0:0:0:0:
296,301,36640,1,0,0:0:0:0:
384,222,36780,1,12,0:0:0:0:
206,265,37061,5,10,0:1:0:0:
423,367,37201,2,0,P|398:268|378:201,1,150,12|0,0:0|0:0,0:0:0:0:
456,98,37621,6,0,B|475:92|475:92|451:184,2,112.500004291535,10|10|8,0:0|0:0|0:1,0:0:0:0:
228,155,38603,5,2,0:0:0:0:
317,215,38743,1,2,0:0:0:0:
222,44,39023,1,10,0:0:0:0:
35,161,39304,6,0,L|98:170,1,56.2500021457673,10|8,0:1|0:0,0:0:0:0:
144,90,39584,2,0,L|88:82,1,56.2500021457673,0|2,0:0|0:0,0:0:0:0:
224,296,39864,5,10,0:0:0:0:
292,217,40005,1,2,0:0:0:0:
389,201,40145,1,10,0:0:0:0:
466,264,40285,1,2,0:0:0:0:
377,190,40425,5,10,0:1:0:0:
452,133,40565,1,2,0:0:0:0:
335,102,40706,6,0,P|291:93|229:77,1,84.3750032186509,2|0,0:0|0:0,0:0:0:0:
242,91,40986,2,0,P|202:101|192:126,1,56.2500021457673,2|0,0:0|0:0,0:0:0:0:
224,197,41266,1,8,0:0:0:0:
98,134,41406,6,0,P|121:214|127:246,1,112.500004291535,2|8,0:0|0:0,0:0:0:0:
94,324,41827,1,0,0:0:0:0:
79,118,41967,6,0,P|87:80|107:66,1,56.2500021457673,2|8,0:0|0:0,0:0:0:0:
224,197,42248,2,0,P|263:176|268:109,1,112.500004291535,2|2,0:0|0:0,0:0:0:0:
91,63,42668,2,0,P|73:85|68:112,1,56.2500021457673,10|0,0:1|0:0,0:0:0:0:
177,280,42949,5,2,0:0:0:0:
224,197,43089,1,2,0:0:0:0:
178,289,43229,2,0,P|121:319|124:374,1,112.500004291535,2|8,0:0|0:0,0:0:0:0:
301,383,43649,2,0,P|309:349|288:318,1,56.2500021457673,2|8,0:0|0:1,0:0:0:0:
224,197,43930,5,8,0:0:0:0:
320,131,44070,1,2,0:0:0:0:
186,57,44210,2,0,P|151:81|166:153,1,112.500004291535,2|0,0:0|0:0,0:0:0:0:
319,233,44631,6,0,P|359:221|390:212,1,56.2500021457673,10|0,0:0|0:0,0:0:0:0:
393,39,44911,2,0,P|405:79|414:110,1,56.2500021457673,10|0,0:1|0:0,0:0:0:0:
463,254,45192,1,0,0:0:0:0:
454,266,45472,6,0,P|417:276|409:311,1,56.2500021457673,2|0,0:0|0:0,0:0:0:0:
468,377,45752,2,0,P|495:374|512:353,1,56.2500021457673,8|0,0:0|0:0,0:0:0:0:
225,245,46033,5,10,0:1:0:0:
159,299,46173,1,8,0:0:0:0:
237,259,46313,1,0,0:0:0:0:
321,268,46453,1,0,0:0:0:0:
468,377,46593,6,0,P|488:293|502:245,2,112.500004291535,14|8|10,0:0|0:0|0:1,0:0:0:0:
410,96,47435,5,2,0:0:0:0:
403,241,47575,1,2,0:0:0:0:
447,170,47715,1,2,0:0:0:0:
281,159,47855,1,2,0:0:0:0:
318,235,47995,1,10,0:0:0:0:
325,87,48135,1,2,0:0:0:0:
367,165,48276,6,0,P|372:114|373:104,1,56.2500021457673,8|8,0:1|0:0,0:0:0:0:
367,165,48556,2,0,P|388:182|410:200,1,56.2500021457673,2|2,0:0|0:0,0:0:0:0:
201,224,48836,6,0,P|143:249|143:314,2,112.500004291535,8|10|10,0:0|0:0|0:1,0:0:0:0:
347,32,49678,1,2,0:0:0:0:
404,97,49818,1,2,0:0:0:0:
336,39,49958,5,2,0:0:0:0:
314,127,50098,1,2,0:0:0:0:
245,182,50238,1,10,0:0:0:0:
325,133,50378,1,2,0:0:0:0:
348,51,50519,2,0,P|370:137|403:160,1,112.500004291535,8|0,0:1|0:0,0:0:0:0:
458,172,50939,6,0,P|481:158|493:133,1,56.2500021457673,2|8,0:0|0:0,0:0:0:0:
320,233,51220,1,2,0:0:0:0:
394,250,51360,2,0,P|444:269|463:281,1,56.2500021457673,10|0,0:0|0:0,0:0:0:0:
416,344,51640,2,0,P|390:331|363:323,1,56.2500021457673,10|0,0:1|0:0,0:0:0:0:
229,145,51920,5,2,0:0:0:0:
137,151,52061,1,2,0:0:0:0:
61,200,52201,1,2,0:0:0:0:
22,280,52341,1,2,0:0:0:0:
8,369,52481,1,10,0:0:0:0:
41,279,52621,2,0,P|38:215|1:183,1,112.500004291535,2|10,0:0|0:0,0:0:0:0:
98,361,53042,6,0,P|134:381|159:369,1,56.2500021457673,2|0,0:0|0:0,0:0:0:0:
229,145,53322,2,0,B|214:119|214:119|214:153,1,56.2500021457673,10|0,0:0|0:0,0:0:0:0:
270,237,53603,6,0,P|297:258|333:255,1,56.2500021457673,10|0,0:0|0:0,0:0:0:0:
277,68,53883,1,10,0:1:0:0:
229,145,54023,2,0,P|160:134|76:120,1,140.625005364418,2|0,0:0|0:0,0:0:0:0:
76,132,54444,5,2,0:0:0:0:
50,24,54584,1,0,0:0:0:0:
169,9,54724,1,8,0:0:0:0:
270,237,55005,5,10,0:1:0:0:
382,218,55145,1,8,0:0:0:0:
382,218,55565,6,0,P|289:251|197:284,1,196.875007510186,14|0,0:0|0:0,0:0:0:0:
191,294,56126,5,10,0:1:0:0:
124,237,56266,1,2,0:0:0:0:
186,117,56406,2,0,P|195:147|185:172,1,56.2500021457673,2|0,0:0|0:0,0:0:0:0:
78,263,56687,2,0,P|99:240|126:236,1,56.2500021457673,2|0,0:0|0:0,0:0:0:0:
191,294,56967,5,10,0:0:0:0:
264,384,57107,1,2,0:0:0:0:
341,384,57248,2,0,L|402:383,2,56.2500021457673,8|8|0,0:1|0:0|0:0,0:0:0:0:
191,294,57668,6,0,P|142:320|143:378,1,112.500004291535,2|0,0:0|0:0,0:0:0:0:
268,256,58089,2,0,P|258:212|232:199,1,56.2500021457673,10|0,0:0|0:0,0:0:0:0:
329,323,58369,2,0,P|371:320|385:309,1,56.2500021457673,10|0,0:1|0:0,0:0:0:0:
363,165,58649,5,2,0:0:0:0:
416,230,58790,2,0,P|458:227|472:216,1,56.2500021457673,2|0,0:0|0:0,0:0:0:0:
366,169,59070,5,2,0:0:0:0:
268,256,59210,2,0,B|224:262|224:262|219:221|219:221|260:215|260:215|265:238,1,150,10|10,0:0|0:1,0:0:0:0:
348,287,59631,2,0,B|353:318|353:318|307:327,1,56.2500021457673,8|0,0:0|0:0,0:0:0:0:
129,209,59911,6,0,P|115:140|160:109,1,112.500004291535,2|0,0:0|0:0,0:0:0:0:
153,214,60332,2,0,P|181:192|184:167,1,56.2500021457673,10|0,0:0|0:0,0:0:0:0:
96,34,60612,2,0,P|88:71|157:111,1,112.500004291535,10|0,0:1|0:0,0:0:0:0:
309,64,61033,5,2,0:0:0:0:
381,79,61173,1,2,0:0:0:0:
390,153,61313,1,0,0:0:0:0:
312,260,61453,1,0,0:0:0:0:
319,187,61593,1,10,0:0:0:0:
302,363,61734,5,10,0:1:0:0:
319,187,62014,5,2,0:0:0:0:
232,264,62154,2,0,B|216:258|216:258|106:286,2,112.500004291535,2|2|2,0:0|0:0|0:0,0:0:0:0:
292,141,62855,2,0,P|318:189|310:207,1,56.2500021457673,10|0,0:1|0:0,0:0:0:0:
315,265,63135,1,2,0:0:0:0:
315,265,63276,1,2,0:0:0:0:
428,209,63416,5,2,0:0:0:0:
75,184,63696,1,8,0:0:0:0:
436,204,63977,5,10,0:1:0:0:
457,128,64117,1,8,0:0:0:0:
428,209,64257,1,0,0:0:0:0:
75,184,64537,6,0,P|87:112|258:62,1,269.999991760254,14|10,0:0|0:1,0:0:0:0:
243,248,65378,5,2,0:0:0:0:
254,174,65519,1,2,0:0:0:0:
329,186,65659,2,0,P|322:231|318:261,1,67.4999979400635,2|0,0:0|0:0,0:0:0:0:
155,307,65939,1,10,0:0:0:0:
167,235,66079,2,0,P|171:201|192:91,1,134.999995880127,2|10,0:0|0:0,0:0:0:0:
210,25,66500,5,2,0:0:0:0:
210,25,66640,1,0,0:0:0:0:
263,114,66780,2,0,P|253:184|242:248,1,134.999995880127,10|10,0:0|0:0,0:0:0:0:
155,307,67201,2,0,P|163:264|167:231,1,67.4999979400635,2|8,0:0|0:1,0:0:0:0:
449,151,67762,5,2,0:0:0:0:
374,56,67902,2,0,B|383:91|383:91|367:139|367:139|357:189,1,134.999995880127,2|10,0:0|0:0,0:0:0:0:
426,269,68322,1,2,0:0:0:0:
314,323,68463,1,10,0:1:0:0:
379,362,68603,1,8,0:0:0:0:
95,259,69023,5,10,0:0:0:0:
123,176,69163,1,2,0:0:0:0:
201,135,69304,1,10,0:0:0:0:
115,156,69444,1,2,0:0:0:0:
43,107,69584,1,10,0:1:0:0:
43,107,69864,5,2,0:0:0:0:
100,172,70004,1,2,0:0:0:0:
97,260,70145,1,2,0:0:0:0:
122,175,70285,1,2,0:0:0:0:
200,137,70425,1,10,0:0:0:0:
200,137,70706,5,10,0:1:0:0:
115,153,70846,1,10,0:0:0:0:
40,107,70987,1,2,0:0:0:0:
101,171,71127,1,2,0:0:0:0:
95,257,71267,1,10,0:0:0:0:
95,257,71547,5,10,0:0:0:0:
123,175,71687,1,2,0:0:0:0:
200,133,71828,1,10,0:1:0:0:
480,192,72107,1,2,0:0:0:0:
32,192,72388,1,10,0:1:0:0:
480,192,72668,1,0,0:0:0:0:
32,192,72949,1,10,0:0:0:0:
278,323,73229,6,0,P|268:269|249:213,1,101.249996910095,12|0,0:1|0:0,0:0:0:0:
184,251,73509,6,0,B|166:215|169:165|218:138|238:161|280:128|287:58|238:17,1,258.750004935265,14|8,0:0|0:0,0:0:0:0:
253,224,74070,2,0,P|259:165|209:135,1,86.2500016450882,8|0,0:1|0:0,0:0:0:0:
147,61,74350,2,0,P|101:93|96:130,1,86.2500016450882,2|0,0:0|0:0,0:0:0:0:
253,224,74631,6,0,P|327:193|504:133,1,258.750004935265,2|2,0:0|0:0,0:0:0:0:
386,149,75192,2,0,P|340:149|313:112,1,86.2500016450882,8|8,0:1|0:0,0:0:0:0:
147,61,75472,2,0,P|146:116|110:146,1,86.2500016450882,2|0,0:0|0:0,0:0:0:0:
0,240,75752,1,12,0:0:0:0:
386,149,76173,5,8,0:0:0:0:
306,186,76313,2,0,P|316:129|326:77,1,86.2500016450882,8|0,0:1|0:0,0:0:0:0:
442,66,76593,2,0,P|496:91|492:211,1,172.500003290176,8|0,0:0|0:0,0:0:0:0:
363,305,77154,6,0,P|330:298|223:280,1,86.2500016450882,10|0,0:0|0:0,0:0:0:0:
238,369,77435,2,0,P|280:376|322:384,1,86.2500016450882,10|8,0:1|0:0,0:0:0:0:
63,344,77715,2,0,P|59:285|90:261,1,86.2500016450882,2|0,0:0|0:0,0:0:0:0:
212,187,77995,6,0,P|220:129|112:87,1,172.500003290176,8|0,0:0|0:0,0:0:0:0:
83,136,78416,1,8,0:0:0:0:
130,72,78556,2,0,P|183:75|212:99,1,86.2500016450882,8|0,0:1|0:0,0:0:0:0:
307,244,78836,1,2,0:0:0:0:
307,244,79117,5,2,0:0:0:0:
383,181,79257,1,2,0:0:0:0:
307,244,79397,2,0,P|285:208|299:168,1,86.2500016450882,10|0,0:0|0:0,0:0:0:0:
464,113,79678,2,0,P|486:149|472:189,1,86.2500016450882,10|8,0:1|0:0,0:0:0:0:
297,244,79958,2,0,P|279:196|297:163,1,86.2500016450882,2|0,0:0|0:0,0:0:0:0:
472,189,80238,5,12,0:0:0:0:
106,79,80519,1,2,0:0:0:0:
47,253,80799,1,8,0:1:0:0:
146,224,80939,1,8,0:0:0:0:
50,263,81079,1,8,0:0:0:0:
405,291,81360,1,2,0:0:0:0:
50,263,81640,1,8,0:0:0:0:
288,172,81920,5,10,0:1:0:0:
202,161,82061,1,8,0:0:0:0:
235,240,82201,1,8,0:0:0:0:
275,14,82481,6,0,P|254:115|204:353,1,345.000006580353,14|8,0:0|0:1,0:0:0:0:
186,31,83322,1,2,0:0:0:0:
323,219,83603,2,0,P|379:205|423:192,1,86.2500016450882,2|0,0:0|0:0,0:0:0:0:
483,176,83883,1,8,0:0:0:0:
79,65,84163,5,8,0:1:0:0:
32,199,84304,2,0,B|103:186|103:186|123:173|123:173|210:156,1,172.500003290176,12|0,0:0|0:0,0:0:0:0:
422,313,84724,2,0,P|414:245|324:218,1,172.500003290176,12|0,0:0|0:0,0:0:0:0:
334,381,85145,5,8,0:0:0:0:
274,328,85285,2,0,P|221:320|168:312,1,86.2500016450882,8|0,0:1|0:0,0:0:0:0:
91,300,85565,1,8,0:0:0:0:
324,218,86126,6,0,P|322:167|286:148,1,86.2500016450882,10|0,0:0|0:0,0:0:0:0:
213,180,86406,2,0,P|215:231|251:250,1,86.2500016450882,10|8,0:1|0:0,0:0:0:0:
325,51,86687,2,0,P|297:16|237:18,1,86.2500016450882,2|0,0:0|0:0,0:0:0:0:
144,83,86967,5,8,0:0:0:0:
442,251,87388,1,8,0:0:0:0:
512,192,87528,1,8,0:1:0:0:
145,174,87808,1,2,0:0:0:0:
215,114,88089,5,2,0:0:0:0:
145,174,88229,1,2,0:0:0:0:
108,81,88369,2,0,P|38:67|2:61,1,86.2500016450882,10|0,0:0|0:0,0:0:0:0:
251,213,88649,2,0,P|293:220|335:229,1,86.2500016450882,10|12,0:1|0:0,0:0:0:0:
59,298,88930,2,0,P|53:239|97:206,1,86.2500016450882,2|0,0:0|0:0,0:0:0:0:
215,114,89210,5,12,0:0:0:0:
251,239,89631,5,8,0:0:0:0:
215,114,89771,1,12,0:1:0:0:
436,194,90051,1,8,0:0:0:0:
102,186,90332,1,8,0:0:0:0:
321,333,90612,5,10,0:0:0:0:
355,260,90752,1,2,0:0:0:0:
306,187,90892,2,0,P|296:111|266:13,1,172.500003290176,10|0,0:1|0:0,0:0:0:0:
483,41,91453,6,0,B|502:35|502:35|478:127,1,112.500004291535,2|2,0:0|0:0,0:0:0:0:
