osu file format v14

[General]
AudioFilename: audio.mp3
AudioLeadIn: 0
PreviewTime: 37502
Countdown: 0
SampleSet: Soft
StackLeniency: 0.7
Mode: 0
LetterboxInBreaks: 0
WidescreenStoryboard: 1

[Editor]
Bookmarks: 7923,19699,28670,37642,55586,73530,82502,91474
DistanceSpacing: 1.3
BeatDivisor: 4
GridSize: 32
TimelineZoom: 1.4

[Metadata]
Title:Min the end
TitleUnicode:Min the end
Artist:Linkin Park vs. Sally
ArtistUnicode:Linkin Park vs. Sally
Creator:Seto Kousuke
Version:Suouyume's One Hard Thing
Source:
Tags:chata 茶太 ~眠~ 東方神霊廟 ~ Ten Desires. 東方 ZUN Team Shanghai Alice NSY shuriken 門前の妖怪小娘 Youkai Girl at the Gate comiket 80 c80 Kyouko kasodani sleep nemuri サリーdoujin touhou pop rock english maemi no yume chester bennington akayume iceluin shirahane suou melwoine faito hypercyte hypercute
BeatmapID:2769653
BeatmapSetID:1336972

[Difficulty]
HPDrainRate:4
CircleSize:4
OverallDifficulty:6
ApproachRate:7
SliderMultiplier:2.1
SliderTickRate:1

[Events]
//Background and Video events
0,0,"seto_linkin_park_min_bg.jpg",0,0
//Break Periods
//Storyboard Layer 0 (Background)
//Storyboard Layer 1 (Fail)
//Storyboard Layer 2 (Pass)
//Storyboard Layer 3 (Foreground)
//Storyboard Layer 4 (Overlay)
//Storyboard Sound Samples

[TimingPoints]
1174,560.747663551402,4,2,44,20,1,0
7903,-100,4,3,44,20,0,0
10146,-100,4,3,44,50,0,0
11268,-100,4,3,44,20,0,0
14632,-100,4,3,44,50,0,0
15754,-100,4,3,44,30,0,0
16875,-100,4,3,44,15,0,0
19118,-100,4,2,44,30,0,0
19678,560.747663551402,4,2,44,60,1,0
19678,-95.2380952380952,4,2,44,60,0,0
21850,-95.2380952380952,4,2,44,5,0,0
21920,-95.2380952380952,4,2,44,60,0,0
24093,-95.2380952380952,4,2,44,5,0,0
24163,-95.2380952380952,4,2,44,60,0,0
26336,-95.2380952380952,4,2,44,5,0,0
26406,-95.2380952380952,4,2,44,60,0,0
28019,-95.2380952380952,4,2,44,5,0,0
28089,-95.2380952380952,4,2,44,60,0,0
28579,-95.2380952380952,4,2,44,5,0,0
28649,-95.2380952380952,4,2,44,60,0,0
30822,-95.2380952380952,4,2,44,5,0,0
30892,-95.2380952380952,4,2,44,60,0,0
33065,-95.2380952380952,4,2,44,5,0,0
33135,-95.2380952380952,4,2,44,60,0,0
35308,-95.2380952380952,4,2,44,5,0,0
35378,-95.2380952380952,4,2,44,60,0,0
36991,-95.2380952380952,4,2,44,5,0,0
37061,-95.2380952380952,4,2,44,60,0,0
37551,-95.2380952380952,4,2,44,5,0,0
37621,-95.2380952380952,4,2,44,44,0,0
62294,-95.2380952380952,4,2,44,48,0,0
63416,-95.2380952380952,4,2,44,52,0,0
64467,-95.2380952380952,4,2,44,5,0,0
64537,-95.2380952380952,4,2,44,52,0,0
73439,-95.2380952380952,4,2,44,5,0,0
73509,-90.9090909090909,4,2,44,60,0,0
75682,-90.9090909090909,4,2,44,5,0,0
75752,-90.9090909090909,4,2,44,60,0,0
77925,-90.9090909090909,4,2,44,5,0,0
77995,-90.9090909090909,4,2,44,60,0,0
80168,-90.9090909090909,4,2,44,5,0,0
80238,-90.9090909090909,4,2,44,60,0,0
82411,-90.9090909090909,4,2,44,5,0,0
82481,-90.9090909090909,4,2,44,60,0,0
84654,-90.9090909090909,4,2,44,5,0,0
84724,-90.9090909090909,4,2,44,60,0,0
86897,-90.9090909090909,4,2,44,5,0,0
86967,-90.9090909090909,4,2,44,60,0,0
89140,-90.9090909090909,4,2,44,5,0,0
89210,-90.9090909090909,4,2,44,60,0,0
91383,-90.9090909090909,4,2,44,5,0,0
91453,-90.9090909090909,4,2,44,44,0,0
92014,-90.9090909090909,4,3,44,30,0,0

[Colours]
Combo1 : 230,154,76
Combo2 : 107,67,75
Combo3 : 97,122,126
Combo4 : 144,21,42

[HitObjects]
172,124,7902,6,0,L|237:124,1,52.5
299,85,8183,2,0,L|356:85,1,52.5
413,141,8463,2,0,L|413:245,1,105,8|0,0:1|0:0,0:0:0:0:
303,374,9024,1,0,0:0:0:0:
303,374,9164,1,0,0:0:0:0:
244,313,9304,2,0,P|194:297|144:311,1,105,8|8,0:2|0:1,0:0:0:0:
11,8,10145,5,8,0:0:0:0:
11,8,10286,1,8,0:0:0:0:
74,168,10566,1,8,0:0:0:0:
74,168,10706,1,8,0:0:0:0:
201,57,10987,1,8,0:0:0:0:
201,57,11127,1,8,0:0:0:0:
201,57,11267,2,0,L|192:111,1,52.5
177,191,11547,2,0,L|286:174,1,105,8|8,0:2|0:1,0:0:0:0:
484,23,12388,6,0,L|420:23,1,52.5
364,74,12669,2,0,L|300:74,1,52.5
241,27,12949,2,0,B|192:44|192:44|134:25,1,105,8|0,0:1|0:0,0:0:0:0:
2,122,13510,1,0,0:0:0:0:
2,122,13650,1,0,0:0:0:0:
72,167,13790,2,0,P|88:198|72:270,1,105,8|8,0:2|0:1,0:0:0:0:
305,373,14631,5,4,0:0:0:0:
305,373,14772,1,4,0:0:0:0:
358,213,15052,1,4,0:0:0:0:
358,213,15192,1,4,0:0:0:0:
469,338,15473,1,4,0:0:0:0:
469,338,15613,1,4,0:0:0:0:
469,338,15753,2,0,L|394:338,1,52.5
345,293,16033,2,0,B|290:283|290:283|231:309,1,105,8|8,0:2|0:1,0:0:0:0:
256,192,17435,12,0,19117,0:0:0:0:
38,360,19678,6,0,B|26:300|26:300|44:232,1,110.249996635437,14|0,0:0|0:0,0:0:0:0:
107,196,20099,1,8,0:0:0:0:
152,271,20239,2,0,L|268:279,2,110.249996635437,8|2|0,0:1|0:0|0:0,0:0:0:0:
15,158,21080,1,8,0:0:0:0:
115,16,21361,1,8,0:1:0:0:
167,86,21501,2,0,B|205:93|232:105|232:105|261:89|306:79,1,137.812495794296,12|0,0:0|0:0,0:0:0:0:
315,80,21921,6,0,P|285:122|295:184,1,110.249996635437,14|0,0:0|0:0,0:0:0:0:
373,144,22342,1,8,0:0:0:0:
418,219,22482,2,0,L|419:341,2,110.249996635437,8|2|0,0:1|0:0|0:0,0:0:0:0:
492,58,23323,1,10,0:0:0:0:
327,6,23604,1,8,0:1:0:0:
327,6,23744,2,0,B|290:0|266:32|266:32|244:63|198:57,1,137.812495794296,10|0,0:0|0:0,0:0:0:0:
190,62,24164,6,0,P|231:103|236:166,1,110.249996635437,10|0,0:0|0:0,0:0:0:0:
289,225,24585,2,0,P|232:240|175:212,1,110.249996635437,10|0,0:0|0:0,0:0:0:0:
98,229,25006,2,0,P|113:172|165:137,1,110.249996635437,2|0,0:0|0:0,0:0:0:0:
302,232,25566,1,10,0:0:0:0:
427,107,25847,1,8,0:1:0:0:
427,107,25987,2,0,B|406:119|389:127|389:127|399:170|404:224,1,137.812495794296,2|0,0:0|0:0,0:0:0:0:
419,229,26407,6,0,P|407:279|401:341,1,110.249996635437,10|0,0:0|0:0,0:0:0:0:
326,384,26828,1,10,0:0:0:0:
253,334,26968,2,0,P|252:302|249:270,1,55.1249983177186,8|0,0:1|0:0,0:0:0:0:
292,201,27249,2,0,P|241:228|180:206,1,110.249996635437,10|0,0:0|0:0,0:0:0:0:
79,80,27809,6,0,P|117:59|164:76,1,82.6874974765778,10|0,0:0|0:0,0:0:0:0:
164,83,28090,1,8,0:1:0:0:
225,19,28230,2,0,P|286:37|317:103,1,137.812495794296,12|0,0:0|0:0,0:0:0:0:
337,138,28650,6,0,B|307:187|307:187|329:255,1,110.249996635437,14|0,0:0|0:0,0:0:0:0:
265,304,29071,1,8,0:0:0:0:
334,357,29211,2,0,L|443:342,2,110.249996635437,8|2|0,0:1|0:0|0:0,0:0:0:0:
228,214,30052,1,10,0:0:0:0:
113,349,30333,1,8,0:1:0:0:
113,349,30473,2,0,B|134:337|144:308|144:308|111:271|110:230,1,137.812495794296,12|0,0:0|0:0,0:0:0:0:
130,192,30893,6,0,P|144:156|114:82,1,110.249996635437,14|0,0:0|0:0,0:0:0:0:
171,16,31314,1,8,0:0:0:0:
245,63,31454,2,0,B|272:63|300:76|300:76|326:59|361:55,2,110.249996635437,8|2|0,0:1|0:0|0:0,0:0:0:0:
210,236,32295,1,10,0:0:0:0:
367,152,32576,1,8,0:1:0:0:
367,152,32716,2,0,P|357:220|350:288,1,137.812495794296,10|0,0:0|0:0,0:0:0:0:
336,330,33136,6,0,P|367:317|451:350,1,110.249996635437,10|0,0:0|0:0,0:0:0:0:
498,270,33557,2,0,P|471:249|457:160,1,110.249996635437,10|0,0:0|0:0,0:0:0:0:
367,152,33978,2,0,P|362:185|292:241,1,110.249996635437,2|0,0:0|0:0,0:0:0:0:
140,191,34538,1,10,0:0:0:0:
221,36,34819,1,8,0:1:0:0:
221,36,34959,2,0,B|234:56|259:70|259:70|247:109|244:175,1,137.812495794296,2|0,0:0|0:0,0:0:0:0:
223,193,35379,6,0,P|232:247|238:302,1,110.249996635437,10|0,0:0|0:0,0:0:0:0:
188,375,35800,1,10,0:0:0:0:
123,315,35940,2,0,P|86:303|49:315,1,55.1249983177186,8|8,0:1|0:0,0:0:0:0:
19,222,36221,2,0,P|59:227|104:163,1,110.249996635437,10|2,0:0|0:0,0:0:0:0:
229,56,36781,6,0,P|210:94|215:156,1,82.6874974765778,12|0,0:0|0:0,0:0:0:0:
220,176,37062,1,10,0:1:0:0:
301,143,37202,2,0,B|335:127|366:152|366:152|395:176|438:158,1,137.812495794296,12|0,0:0|0:0,0:0:0:0:
442,173,37622,5,10,0:0:0:0:
313,51,37903,1,10,0:0:0:0:
323,226,38183,2,0,P|348:264|346:331,1,110.249996635437,8|0,0:1|0:0,0:0:0:0:
280,384,38604,1,2,0:0:0:0:
280,384,38744,1,2,0:0:0:0:
219,218,39024,1,10,0:0:0:0:
112,359,39304,2,0,P|150:361|171:373,2,55.1249983177186,10|10|0,0:1|0:0|0:0,0:0:0:0:
37,322,39725,1,2,0:0:0:0:
37,322,39865,6,0,P|39:284|51:263,1,55.1249983177186,10|2,0:0|0:0,0:0:0:0:
1,193,40146,2,0,P|34:176|58:176,1,55.1249983177186,10|2,0:0|0:0,0:0:0:0:
98,100,40426,1,10,0:1:0:0:
190,250,40707,1,2,0:0:0:0:
239,81,40987,2,0,P|290:90|357:93,1,110.249996635437,2|8,0:0|0:0,0:0:0:0:
499,2,41548,2,0,P|456:25|443:42,2,55.1249983177186,8|8|0,0:1|0:0|0:0,0:0:0:0:
512,93,41968,1,2,0:0:0:0:
512,93,42108,6,0,B|504:122|489:142|489:142|501:167|508:210,1,110.249996635437,8|8,0:0|0:0,0:0:0:0:
438,359,42669,1,10,0:1:0:0:
290,261,42950,2,0,P|288:231|301:193,1,55.1249983177186,2|2,0:0|0:0,0:0:0:0:
362,151,43230,1,2,0:0:0:0:
242,21,43510,1,8,0:0:0:0:
81,96,43791,2,0,L|18:99,2,55.1249983177186,8|8|2,0:1|0:0|0:0,0:0:0:0:
141,32,44211,1,2,0:0:0:0:
141,32,44351,6,0,P|164:74|151:149,1,110.249996635437,8|10,0:0|0:0,0:0:0:0:
31,256,44912,1,10,0:1:0:0:
163,372,45193,1,0,0:0:0:0:
245,216,45473,2,0,B|282:210|309:224|309:224|314:255|342:274,2,110.249996635437,2|8|10,0:0|0:0|0:1,0:0:0:0:
184,280,46174,1,8,0:0:0:0:
434,363,46594,6,0,P|429:326|406:293,1,55.1249983177186,14|0,0:0|0:0,0:0:0:0:
476,236,46875,2,0,P|452:224|425:221,1,55.1249983177186,8|0,0:0|0:0,0:0:0:0:
352,270,47155,1,10,0:1:0:0:
473,141,47436,1,2,0:0:0:0:
327,41,47716,2,0,P|275:61|199:62,1,110.249996635437,2|10,0:0|0:0,0:0:0:0:
156,229,48277,2,0,P|191:239|215:239,2,55.1249983177186,8|8|0,0:1|0:0|0:0,0:0:0:0:
86,174,48697,1,2,0:0:0:0:
86,174,48837,6,0,B|66:204|66:204|79:295,1,110.249996635437,8|10,0:0|0:0,0:0:0:0:
224,373,49398,1,10,0:1:0:0:
375,281,49679,2,0,P|384:249|381:225,1,55.1249983177186,2|2,0:0|0:0,0:0:0:0:
310,175,49959,1,2,0:0:0:0:
474,237,50239,1,10,0:0:0:0:
474,60,50520,2,0,P|461:35|440:17,2,55.1249983177186,8|8|0,0:1|0:0|0:0,0:0:0:0:
395,95,50940,1,2,0:0:0:0:
395,95,51080,6,0,B|340:93|340:93|333:98|333:98|262:99,1,110.249996635437,8|10,0:0|0:0,0:0:0:0:
137,3,51641,1,10,0:1:0:0:
60,161,51921,2,0,L|131:161,1,55.1249983177186,2|2,0:0|0:0,0:0:0:0:
181,102,52202,1,2,0:0:0:0:
279,247,52482,1,10,0:0:0:0:
110,301,52763,2,0,L|38:301,2,55.1249983177186,8|10|2,0:1|0:0|0:0,0:0:0:0:
182,359,53183,1,0,0:0:0:0:
182,359,53323,6,0,B|215:358|234:341|234:341|260:361|305:363,1,110.249996635437,10|10,0:0|0:0,0:0:0:0:
423,252,53884,2,0,P|423:213|415:184,1,55.1249983177186,10|2,0:1|0:0,0:0:0:0:
367,126,54164,1,0,0:0:0:0:
232,240,54445,2,0,P|271:260|330:217,2,110.249996635437,2|8|10,0:0|0:0|0:1,0:0:0:0:
176,171,55146,1,8,0:0:0:0:
353,17,55566,6,0,L|369:138,1,110.249996635437,14|8,0:0|0:0,0:0:0:0:
490,252,56127,2,0,L|427:263,1,55.1249983177186,10|2,0:1|0:0,0:0:0:0:
348,276,56407,1,2,0:0:0:0:
242,133,56688,1,2,0:0:0:0:
154,287,56968,1,10,0:0:0:0:
154,287,57108,1,2,0:0:0:0:
125,202,57249,2,0,P|155:195|189:208,2,55.1249983177186,8|8|0,0:1|0:0|0:0,0:0:0:0:
65,267,57669,1,2,0:0:0:0:
65,267,57809,6,0,B|31:226|31:226|44:152,1,110.249996635437,8|10,0:0|0:0,0:0:0:0:
98,2,58370,1,10,0:1:0:0:
233,122,58650,1,2,0:0:0:0:
233,122,58791,2,0,L|364:95,1,110.249996635437,2|2,0:0|0:0,0:0:0:0:
425,76,59211,1,10,0:0:0:0:
413,252,59492,2,0,L|401:177,2,55.1249983177186,10|8|0,0:1|0:0|0:0,0:0:0:0:
457,333,59912,1,2,0:0:0:0:
457,333,60052,6,0,B|428:337|403:349|403:349|383:334|354:326,1,110.249996635437,8|10,0:0|0:0,0:0:0:0:
186,379,60613,2,0,P|221:356|213:277,1,110.249996635437,10|0,0:1|0:0,0:0:0:0:
175,218,61034,1,2,0:0:0:0:
175,218,61174,2,0,L|121:226,1,55.1249983177186,2|0,0:0|0:0,0:0:0:0:
54,284,61454,2,0,L|0:276,1,55.1249983177186,10|0,0:0|0:0,0:0:0:0:
37,195,61735,2,0,L|29:141,2,55.1249983177186,10|8|2,0:1|0:0|0:0,0:0:0:0:
120,226,62155,1,2,0:0:0:0:
120,226,62295,6,0,L|135:115,1,110.249996635437,8|8,0:0|0:0,0:0:0:0:
191,48,62716,1,2,0:0:0:0:
191,48,62856,1,10,0:1:0:0:
326,159,63136,1,2,0:0:0:0:
407,2,63417,2,0,P|378:-13|295:10,1,110.249996635437,2|8,0:0|0:0,0:0:0:0:
222,159,63978,1,10,0:1:0:0:
222,159,64118,2,0,B|201:183|184:198|184:198|189:225|197:280,1,137.812495794296,8|0,0:0|0:0,0:0:0:0:
176,319,64538,6,0,L|48:347,1,110.249996635437,14|8,0:0|0:0,0:0:0:0:
5,287,64959,1,2,0:0:0:0:
5,287,65099,1,10,0:1:0:0:
128,160,65379,2,0,L|115:100,1,55.1249983177186,2|2,0:0|0:0,0:0:0:0:
62,44,65660,2,0,P|100:57|178:12,1,110.249996635437,2|10,0:0|0:0,0:0:0:0:
250,23,66080,1,2,0:0:0:0:
250,23,66221,2,0,L|238:88,2,55.1249983177186,8|10|2,0:1|0:0|0:0,0:0:0:0:
334,62,66641,1,0,0:0:0:0:
334,62,66781,6,0,P|372:49|450:94,1,110.249996635437,10|10,0:0|0:0,0:0:0:0:
499,133,67202,1,2,0:0:0:0:
499,133,67342,1,8,0:1:0:0:
298,306,67763,1,2,0:0:0:0:
298,306,67903,2,0,L|422:322,1,110.249996635437,2|10,0:0|0:0,0:0:0:0:
484,277,68323,1,2,0:0:0:0:
484,277,68464,2,0,L|499:342,2,55.1249983177186,10|8|0,0:1|0:0|0:0,0:0:0:0:
431,213,68884,1,0,0:0:0:0:
431,213,69024,6,0,P|393:232|321:188,1,110.249996635437,10|10,0:0|0:0,0:0:0:0:
199,93,69585,1,10,0:1:0:0:
95,235,69865,1,2,0:0:0:0:
95,235,70006,1,2,0:0:0:0:
178,263,70146,2,0,L|193:191,1,55.1249983177186,2|2,0:0|0:0,0:0:0:0:
126,147,70426,1,10,0:0:0:0:
62,311,70707,2,0,L|7:304,2,55.1249983177186,10|10|2,0:1|0:0|0:0,0:0:0:0:
132,371,71127,1,2,0:0:0:0:
132,371,71267,6,0,P|167:346|240:371,1,110.249996635437,10|10,0:0|0:0,0:0:0:0:
316,376,71688,1,2,0:0:0:0:
316,376,71828,1,10,0:1:0:0:
236,218,72108,1,2,0:0:0:0:
393,137,72389,5,10,0:1:0:0:
393,137,72529,2,0,L|366:263,1,110.249996635437,8|0,0:0|0:0,0:0:0:0:
293,289,72950,1,10,0:1:0:0:
236,218,73089,2,0,B|201:202|170:227|170:227|141:251|98:233,1,137.812495794296,10|0,0:0|0:0,0:0:0:0:
94,248,73510,6,0,P|111:213|97:127,1,115.50000352478,14|0,0:0|0:0,0:0:0:0:
27,85,73931,1,8,0:0:0:0:
102,31,74071,2,0,L|171:25,1,57.7500017623902,8|0,0:1|0:0,0:0:0:0:
248,2,74351,2,0,L|242:71,1,57.7500017623902,2|0,0:0|0:0,0:0:0:0:
318,113,74632,2,0,L|324:182,1,57.7500017623902,2|0,0:0|0:0,0:0:0:0:
271,247,74912,1,8,0:0:0:0:
411,367,75193,1,8,0:1:0:0:
404,274,75333,2,0,B|350:287|350:287|326:319|326:319|275:334,1,144.375004405975,8|0,0:0|0:0,0:0:0:0:
262,339,75753,6,0,P|208:321|133:301,1,115.50000352478,12|0,0:0|0:0,0:0:0:0:
64,272,76174,1,8,0:0:0:0:
115,195,76314,2,0,P|169:177|244:157,1,115.50000352478,8|8,0:1|0:0,0:0:0:0:
386,252,76875,1,0,0:0:0:0:
485,96,77155,2,0,P|485:61|472:30,1,57.7500017623902,10|0,0:0|0:0,0:0:0:0:
394,11,77436,1,10,0:1:0:0:
394,11,77576,2,0,B|360:3|330:31|330:41|328:50|312:84|248:65,1,144.375004405975,8|0,0:0|0:0,0:0:0:0:
253,68,77996,6,0,P|283:96|294:174,1,115.50000352478,8|0,0:0|0:0,0:0:0:0:
207,155,78417,1,8,0:0:0:0:
207,155,78557,1,8,0:1:0:0:
22,155,78837,2,0,P|6:189|5:214,1,57.7500017623902,2|0,0:0|0:0,0:0:0:0:
65,280,79118,1,2,0:0:0:0:
65,280,79258,1,2,0:0:0:0:
2,346,79398,1,8,0:0:0:0:
183,309,79679,1,8,0:1:0:0:
246,371,79819,2,0,B|218:350|211:288|253:259|296:287,1,144.375004405975,8|0,0:0|0:0,0:0:0:0:
304,292,80239,6,0,P|368:289|420:253,1,115.50000352478,12|2,0:0|0:0,0:0:0:0:
479,199,80660,1,8,0:0:0:0:
401,158,80800,1,8,0:1:0:0:
401,158,80940,1,8,0:0:0:0:
466,93,81080,2,0,B|437:109|437:109|337:84,1,115.50000352478,8|2,0:0|0:0,0:0:0:0:
192,4,81641,1,8,0:0:0:0:
107,168,81921,1,10,0:1:0:0:
50,94,82062,2,0,B|90:88|118:72|118:72|141:94|194:114,1,144.375004405975,8|0,0:0|0:0,0:0:0:0:
224,97,82482,6,0,B|257:125|257:125|245:212,1,115.50000352478,14|0,0:0|0:0,0:0:0:0:
236,288,82903,1,8,0:0:0:0:
323,257,83043,2,0,P|362:249|390:259,1,57.7500017623902,8|0,0:1|0:0,0:0:0:0:
462,291,83323,2,0,L|472:234,1,57.7500017623902,2|0,0:0|0:0,0:0:0:0:
411,163,83604,2,0,L|399:96,1,57.7500017623902,2|0,0:0|0:0,0:0:0:0:
348,29,83884,1,8,0:0:0:0:
217,159,84164,1,8,0:1:0:0:
181,73,84305,2,0,B|218:47|260:54|260:54|269:79|300:98,1,144.375004405975,12|0,0:0|0:0,0:0:0:0:
314,117,84725,6,0,P|305:174|298:231,1,115.50000352478,12|0,0:0|0:0,0:0:0:0:
231,295,85146,1,8,0:0:0:0:
161,234,85286,2,0,P|111:255|115:309,1,115.50000352478,8|8,0:1|0:0,0:0:0:0:
290,372,85847,1,0,0:0:0:0:
389,216,86127,2,0,L|378:138,1,57.7500017623902,10|0,0:0|0:0,0:0:0:0:
328,82,86407,1,10,0:1:0:0:
243,121,86548,2,0,B|199:122|172:139|172:139|136:109|109:108,1,144.375004405975,8|0,0:0|0:0,0:0:0:0:
65,97,86968,6,0,P|87:139|66:208,1,115.50000352478,8|0,0:0|0:0,0:0:0:0:
17,279,87389,1,8,0:0:0:0:
17,279,87529,1,8,0:1:0:0:
201,271,87809,2,0,L|266:280,1,57.7500017623902,2|0,0:0|0:0,0:0:0:0:
336,338,88090,1,2,0:0:0:0:
336,338,88230,1,2,0:0:0:0:
250,373,88370,1,8,0:0:0:0:
352,219,88650,1,8,0:1:0:0:
420,281,88791,2,0,P|442:247|413:151,1,144.375004405975,12|0,0:0|0:0,0:0:0:0:
396,139,89211,6,0,P|338:132|281:127,1,115.50000352478,12|2,0:0|0:0,0:0:0:0:
202,76,89632,1,8,0:0:0:0:
172,163,89772,2,0,L|183:230,1,57.7500017623902,12|8,0:1|0:0,0:0:0:0:
255,274,90052,2,0,L|244:341,1,57.7500017623902,8|0,0:0|0:0,0:0:0:0:
166,379,90333,2,0,P|146:348|70:349,1,115.50000352478,8|10,0:0|0:0,0:0:0:0:
66,161,90893,1,10,0:1:0:0:
2,232,91034,2,0,B|41:229|83:253|83:253|114:242|128:216,1,144.375004405975,8|0,0:0|0:0,0:0:0:0:
139,202,91454,6,0,B|168:186|168:186|175:294,1,115.50000352478,2|2,0:0|0:0,0:0:0:0:
