osu file format v14

[General]
AudioFilename: audio.mp3
AudioLeadIn: 0
PreviewTime: 37502
Countdown: 0
SampleSet: Soft
StackLeniency: 0.7
Mode: 0
LetterboxInBreaks: 0
WidescreenStoryboard: 1

[Editor]
Bookmarks: 19138,37642,55586,73530,91474
DistanceSpacing: 1.3
BeatDivisor: 4
GridSize: 32
TimelineZoom: 1.5

[Metadata]
Title:Min the end
TitleUnicode:Min the end
Artist:Linkin Park vs. Sally
ArtistUnicode:Linkin Park vs. Sally
Creator:Seto Kousuke
Version:One Light Insane Thing
Source:
Tags:chata 茶太 ~眠~ 東方神霊廟 ~ Ten Desires. 東方 ZUN Team Shanghai Alice NSY shuriken 門前の妖怪小娘 Youkai Girl at the Gate comiket 80 c80 Kyouko kasodani sleep nemuri サリーdoujin touhou pop rock english maemi no yume chester bennington akayume iceluin shirahane suou melwoine faito hypercyte hypercute
BeatmapID:2769652
BeatmapSetID:1336972

[Difficulty]
HPDrainRate:5
CircleSize:4
OverallDifficulty:7
ApproachRate:8.7
SliderMultiplier:1.8
SliderTickRate:1

[Events]
//Background and Video events
0,0,"seto_linkin_park_min_bg.jpg",0,0
//Break Periods
//Storyboard Layer 0 (Background)
//Storyboard Layer 1 (Fail)
//Storyboard Layer 2 (Pass)
//Storyboard Layer 3 (Foreground)
//Storyboard Layer 4 (Overlay)
//Storyboard Sound Samples

[TimingPoints]
1174,560.747663551402,4,2,44,20,1,0
7903,-100,4,3,44,20,0,0
10146,-100,4,3,44,50,0,0
11268,-100,4,3,44,20,0,0
14632,-100,4,3,44,50,0,0
15754,-100,4,3,44,30,0,0
16875,-100,4,3,44,15,0,0
19118,-100,4,2,44,30,0,0
19678,560.747663551402,4,2,44,60,1,0
19678,-55.5555555555556,4,2,44,60,0,0
36500,-66.6666666666667,4,2,44,60,0,0
37201,-83.3333333333333,4,2,44,60,0,0
37621,-100,4,2,44,44,0,0
47154,-83.3333333333333,4,2,44,44,0,0
62294,-83.3333333333333,4,2,44,48,0,0
63416,-83.3333333333333,4,2,44,52,0,0
72949,-142.857142857143,4,2,44,52,0,0
73369,-142.857142857143,4,2,44,5,0,0
73509,-55.5555555555556,4,2,44,60,0,1
89771,-71.4285714285714,4,2,44,60,0,1
91453,-66.6666666666667,4,2,44,44,0,0
92014,-100,4,3,44,30,0,0

[Colours]
Combo1 : 230,154,76
Combo2 : 107,67,75
Combo3 : 97,122,126
Combo4 : 144,21,42

[HitObjects]
89,47,10145,5,8,0:0:0:0:
191,152,10286,1,8,0:0:0:0:
192,135,10566,5,8,0:0:0:0:
295,240,10707,1,8,0:0:0:0:
290,226,10987,5,8,0:0:0:0:
393,331,11128,1,8,0:0:0:0:
465,184,14631,5,4,0:0:0:0:
318,181,14772,1,4,0:0:0:0:
329,194,15052,5,4,0:0:0:0:
182,193,15193,1,4,0:0:0:0:
196,199,15473,5,4,0:0:0:0:
49,198,15614,1,4,0:0:0:0:
256,192,17435,12,0,18837,0:0:0:0:
337,58,19118,5,0,0:0:0:0:
443,94,19259,1,2,0:0:0:0:
482,180,19399,1,2,0:0:0:0:
478,258,19539,1,2,0:0:0:0:
463,281,19678,6,0,P|400:290|270:281,1,161.999995056153,14|0,0:0|0:0,0:0:0:0:
92,352,20099,1,8,0:0:0:0:
92,352,20239,2,0,P|145:301|81:297,2,161.999995056153,8|2|0,0:1|0:0|0:0,0:0:0:0:
43,86,21080,1,8,0:0:0:0:
422,120,21361,1,8,0:0:0:0:
255,37,21501,2,0,P|216:116|243:198,1,161.999995056153,12|0,0:0|0:0,0:0:0:0:
275,36,21921,6,0,P|190:8|99:46,1,161.999995056153,14|0,0:0|0:0,0:0:0:0:
12,109,22342,1,8,0:0:0:0:
12,109,22482,2,0,P|9:201|17:291,2,161.999995056153,8|2|0,0:1|0:0|0:0,0:0:0:0:
137,342,23323,1,10,0:0:0:0:
318,133,23604,1,8,0:1:0:0:
318,133,23744,2,0,P|308:240|321:323,1,161.999995056153,10|0,0:0|0:0,0:0:0:0:
323,328,24164,6,0,P|323:275|272:340,1,161.999995056153,10|0,0:0|0:0,0:0:0:0:
75,285,24585,2,0,P|89:336|121:260,1,161.999995056153,10|0,0:0|0:0,0:0:0:0:
29,200,25006,2,0,P|124:176|203:206,2,161.999995056153,2|0|10,0:0|0:0|0:0,0:0:0:0:
12,33,25847,1,8,0:1:0:0:
12,33,25987,2,0,P|105:43|205:33,1,161.999995056153,2|0,0:0|0:0,0:0:0:0:
358,25,26407,6,0,P|305:28|370:76,1,161.999995056153,10|0,0:0|0:0,0:0:0:0:
315,273,26828,2,0,P|364:260|290:226,1,161.999995056153,10|0,0:0|0:0,0:0:0:0:
258,349,27249,2,0,P|384:365|437:330,1,161.999995056153,10|0,0:0|0:0,0:0:0:0:
478,217,27669,1,0,0:0:0:0:
478,217,27809,2,0,P|472:164|464:118,1,80.9999975280763,10|0,0:0|0:0,0:0:0:0:
309,258,28090,1,8,0:1:0:0:
201,107,28230,2,0,L|166:286,1,161.999995056153,12|0,0:0|0:0,0:0:0:0:
76,346,28650,6,0,P|172:311|237:378,1,161.999995056153,14|0,0:0|0:0,0:0:0:0:
390,349,29071,1,8,0:0:0:0:
390,349,29211,2,0,P|367:265|395:160,2,161.999995056153,8|2|0,0:1|0:0|0:0,0:0:0:0:
454,108,30052,1,10,0:0:0:0:
138,181,30333,1,8,0:1:0:0:
225,61,30473,2,0,P|109:34|44:62,1,161.999995056153,12|0,0:0|0:0,0:0:0:0:
229,76,30893,6,0,P|346:48|410:77,1,161.999995056153,14|0,0:0|0:0,0:0:0:0:
487,181,31314,1,8,0:0:0:0:
487,181,31454,2,0,P|492:315|483:362,2,161.999995056153,8|2|0,0:1|0:0|0:0,0:0:0:0:
306,360,32295,1,10,0:0:0:0:
209,145,32576,1,8,0:1:0:0:
209,145,32716,2,0,P|106:143|16:153,1,161.999995056153,10|0,0:0|0:0,0:0:0:0:
12,168,33136,6,0,P|65:222|47:226,1,161.999995056153,10|0,0:0|0:0,0:0:0:0:
118,377,33557,2,0,P|87:305|110:309,1,161.999995056153,10|0,0:0|0:0,0:0:0:0:
248,210,33978,2,0,P|358:208|447:213,2,161.999995056153,2|0|10,0:0|0:0|0:0,0:0:0:0:
414,90,34819,1,8,0:1:0:0:
414,90,34959,2,0,P|323:84|235:87,1,161.999995056153,2|0,0:0|0:0,0:0:0:0:
136,0,35379,6,0,P|115:85|139:173,1,161.999995056153,10|0,0:0|0:0,0:0:0:0:
61,313,35800,1,10,0:0:0:0:
61,313,35940,2,0,P|146:291|234:316,1,161.999995056153,8|10,0:1|0:0,0:0:0:0:
306,353,36361,1,0,0:0:0:0:
377,311,36501,6,0,L|383:231,1,67.5000025749208,2|0,0:0|0:0,0:0:0:0:
268,102,36781,2,0,L|282:257,1,135.000005149842,12|10,0:0|0:1,0:0:0:0:
490,160,37202,6,0,L|382:145,1,107.999996704102,12|0,0:0|0:0,0:0:0:0:
176,194,37622,5,10,0:0:0:0:
160,214,37903,5,10,0:0:0:0:
141,237,38183,6,0,L|39:242,1,90,8|0,0:1|0:0,0:0:0:0:
22,351,38604,1,2,0:0:0:0:
22,351,38744,2,0,L|132:343,2,90,2|10|10,0:0|0:0|0:1,0:0:0:0:
51,241,39445,2,0,L|141:237,1,90,8|2,0:0|0:0,0:0:0:0:
213,297,39865,5,10,0:0:0:0:
247,313,40006,1,2,0:0:0:0:
282,225,40146,1,10,0:0:0:0:
248,209,40285,1,2,0:0:0:0:
331,295,40426,2,0,L|398:295,1,45,10|2,0:1|0:0,0:0:0:0:
362,166,40707,2,0,L|362:230,1,45,2|0,0:0|0:0,0:0:0:0:
453,239,40987,6,0,L|450:124,1,90,2|8,0:0|0:0,0:0:0:0:
280,52,41407,2,0,L|277:141,1,90,2|8,0:0|0:0,0:0:0:0:
208,188,41828,1,0,0:0:0:0:
145,137,41968,6,0,L|46:138,2,90,2|2|2,0:0|0:0|0:0,0:0:0:0:
208,188,42669,2,0,L|205:284,1,90,10|2,0:1|0:0,0:0:0:0:
283,306,43090,1,2,0:0:0:0:
331,231,43230,2,0,L|318:177,2,45,2|0|8,0:0|0:0|0:0,0:0:0:0:
392,303,43650,2,0,L|502:306,1,90,2|8,0:0|0:0,0:0:0:0:
497,168,44071,2,0,L|492:196,1,22.5,2|0,0:0|0:0,0:0:0:0:
483,200,44211,6,0,L|481:86,1,90,2|0,0:0|0:0,0:0:0:0:
394,44,44632,2,0,L|396:116,1,45,10|0,0:0|0:0,0:0:0:0:
332,166,44912,2,0,P|265:178|208:157,1,90,10|0,0:1|0:0,0:0:0:0:
6,27,45473,6,0,P|77:81|13:152,2,180,2|10|14,0:0|0:1|0:0,0:0:0:0:
22,334,47155,5,10,0:1:0:0:
37,351,47436,1,2,0:0:0:0:
101,303,47576,1,2,0:0:0:0:
52,234,47716,2,0,L|-24:239,2,53.9999983520508,2|2|10,0:0|0:0|0:0,0:0:0:0:
125,315,48136,2,0,L|294:308,1,161.999995056153,2|0,0:0|0:0,0:0:0:0:
373,164,48697,6,0,P|365:221|384:293,1,107.999996704102,2|0,0:0|0:0,0:0:0:0:
463,241,49118,2,0,P|465:213|450:174,1,53.9999983520508,10|0,0:0|0:0,0:0:0:0:
424,79,49398,2,0,L|280:77,1,107.999996704102,10|2,0:1|0:0,0:0:0:0:
237,24,49819,1,2,0:0:0:0:
189,93,49959,2,0,L|199:161,2,53.9999983520508,2|2|10,0:0|0:0|0:0,0:0:0:0:
114,40,50379,1,2,0:0:0:0:
48,101,50520,2,0,L|40:220,1,107.999996704102,8|0,0:1|0:0,0:0:0:0:
6,331,50940,6,0,P|80:301|109:338,1,107.999996704102,2|2,0:0|0:0,0:0:0:0:
188,235,51361,2,0,L|187:303,1,53.9999983520508,10|0,0:0|0:0,0:0:0:0:
284,336,51641,2,0,L|274:186,1,107.999996704102,10|2,0:1|0:0,0:0:0:0:
322,152,52062,1,2,0:0:0:0:
408,186,52202,1,2,0:0:0:0:
410,209,52342,1,2,0:0:0:0:
489,143,52482,1,10,0:0:0:0:
423,56,52622,6,0,L|291:62,1,107.999996704102,2|10,0:0|0:0,0:0:0:0:
93,58,53043,2,0,L|225:64,2,107.999996704102,2|10|10,0:0|0:0|0:0,0:0:0:0:
127,235,53744,1,0,0:0:0:0:
183,150,53884,2,0,L|76:146,1,107.999996704102,10|0,0:1|0:0,0:0:0:0:
22,247,54305,1,0,0:0:0:0:
29,368,54445,6,0,P|95:314|207:377,2,215.999993408203,2|10|14,0:0|0:1|0:0,0:0:0:0:
471,357,56127,5,10,0:1:0:0:
490,332,56407,1,2,0:0:0:0:
508,308,56688,2,0,L|505:186,1,107.999996704102,2|10,0:0|0:0,0:0:0:0:
331,346,57108,2,0,P|401:323|384:251,1,161.999995056153,2|0,0:0|0:0,0:0:0:0:
399,120,57669,6,0,L|272:117,1,107.999996704102,2|0,0:0|0:0,0:0:0:0:
176,30,58090,2,0,L|171:116,1,53.9999983520508,10|0,0:0|0:0,0:0:0:0:
55,126,58370,2,0,L|22:-18,1,107.999996704102,10|2,0:1|0:0,0:0:0:0:
244,203,58791,2,0,L|229:330,1,107.999996704102,2|2,0:0|0:0,0:0:0:0:
5,334,59211,2,0,L|3:280,1,53.9999983520508,10|0,0:0|0:0,0:0:0:0:
113,200,59492,2,0,L|116:344,1,107.999996704102,10|0,0:1|0:0,0:0:0:0:
311,368,59912,6,0,P|387:354|461:369,1,107.999996704102,2|0,0:0|0:0,0:0:0:0:
487,222,60333,2,0,P|441:212|394:210,1,53.9999983520508,10|0,0:0|0:0,0:0:0:0:
256,129,60613,2,0,P|316:112|369:113,1,107.999996704102,10|0,0:1|0:0,0:0:0:0:
236,262,61034,1,2,0:0:0:0:
125,175,61174,2,0,L|135:97,2,53.9999983520508,2|0|10,0:0|0:0|0:0,0:0:0:0:
32,262,61594,1,0,0:0:0:0:
16,62,61735,2,0,L|18:213,1,107.999996704102,10|2,0:1|0:0,0:0:0:0:
69,339,62155,6,0,L|19:359,1,53.9999983520508,2|8,0:0|0:0,0:0:0:0:
129,256,62436,2,0,L|251:263,1,107.999996704102,2|2,0:0|0:0,0:0:0:0:
323,349,62856,2,0,P|356:289|323:213,1,107.999996704102,10|2,0:1|0:0,0:0:0:0:
484,9,63417,6,0,P|449:75|505:208,2,215.999993408203,2|10|14,0:0|0:1|0:0,0:0:0:0:
418,355,64959,5,2,0:0:0:0:
345,304,65099,2,0,L|280:303,1,53.9999983520508,10|0,0:1|0:0,0:0:0:0:
216,368,65379,1,2,0:0:0:0:
146,307,65520,1,2,0:0:0:0:
220,237,65660,2,0,L|221:116,1,107.999996704102,2|10,0:0|0:0,0:0:0:0:
41,129,66080,2,0,L|41:236,1,107.999996704102,2|10,0:0|0:0,0:0:0:0:
130,222,66501,1,2,0:0:0:0:
128,131,66641,1,0,0:0:0:0:
126,39,66781,6,0,L|4:40,1,107.999996704102,10|10,0:0|0:0,0:0:0:0:
214,129,67202,2,0,L|413:124,1,161.999995056153,2|0,0:0|0:0,0:0:0:0:
441,38,67763,1,2,0:0:0:0:
494,171,67903,2,0,P|498:238|491:301,1,107.999996704102,2|10,0:0|0:0,0:0:0:0:
321,315,68323,1,2,0:0:0:0:
404,287,68464,2,0,P|405:322|382:382,1,53.9999983520508,10|8,0:1|0:0,0:0:0:0:
242,344,68744,2,0,P|238:317|240:290,1,53.9999983520508
364,140,69024,5,10,0:0:0:0:
288,200,69164,1,2,0:0:0:0:
198,146,69305,1,10,0:0:0:0:
115,233,69445,1,2,0:0:0:0:
28,140,69585,2,0,L|25:51,1,53.9999983520508,10|0,0:1|0:0,0:0:0:0:
113,16,69865,2,0,L|114:69,1,53.9999983520508,2|2,0:0|0:0,0:0:0:0:
115,233,70146,5,2,0:0:0:0:
198,146,70286,1,2,0:0:0:0:
288,200,70426,2,0,L|290:273,1,53.9999983520508,10|0,0:0|0:0,0:0:0:0:
393,105,70707,2,0,L|394:51,1,53.9999983520508,10|10,0:1|0:0,0:0:0:0:
481,254,70987,5,2,0:0:0:0:
487,137,71127,1,2,0:0:0:0:
378,245,71267,2,0,P|378:302|387:369,1,107.999996704102,10|10,0:0|0:0,0:0:0:0:
186,285,71688,1,2,0:0:0:0:
281,237,71828,2,0,P|281:291|276:345,1,107.999996704102,10|2,0:1|0:0,0:0:0:0:
101,224,72249,1,0,0:0:0:0:
273,98,72389,6,0,P|332:97|393:110,1,107.999996704102,10|0,0:1|0:0,0:0:0:0:
207,12,72809,1,8,0:0:0:0:
81,139,72949,6,0,P|128:124|105:68,1,110.249996635437,10|0,0:0|0:0,0:0:0:0:
97,70,73510,6,0,P|57:174|114:318,1,242.999992584229,14|8,0:0|0:0,0:0:0:0:
271,182,74071,6,0,B|215:182|215:182|264:211,1,80.9999975280763,8|0,0:1|0:0,0:0:0:0:
347,255,74351,2,0,L|343:78,2,161.999995056153,2|2|8,0:0|0:0|0:0,0:0:0:0:
448,97,75052,2,0,L|450:268,1,161.999995056153,2|8,0:0|0:0,0:0:0:0:
389,24,75473,2,0,P|354:8|294:26,1,80.9999975280763,2|0,0:0|0:0,0:0:0:0:
145,184,75753,6,0,P|219:107|130:48,1,242.999992584229,12|8,0:0|0:0,0:0:0:0:
12,160,76314,2,0,P|6:247|20:321,2,161.999995056153,8|8|0,0:1|0:0|0:0,0:0:0:0:
185,354,77155,1,10,0:0:0:0:
244,53,77435,1,10,0:1:0:0:
244,53,77576,2,0,P|329:72|335:156,1,161.999995056153,8|0,0:0|0:0,0:0:0:0:
362,285,77996,6,0,B|236:323|247:223|124:268,1,242.999992584229,8|8,0:0|0:0,0:0:0:0:
14,363,78557,2,0,P|30:341|21:261,1,80.9999975280763,8|0,0:1|0:0,0:0:0:0:
26,73,78837,2,0,P|14:97|36:174,1,80.9999975280763,2|0,0:0|0:0,0:0:0:0:
175,164,79118,1,2,0:0:0:0:
241,89,79258,1,2,0:0:0:0:
177,12,79398,2,0,P|136:8|79:14,1,80.9999975280763,10|0,0:0|0:0,0:0:0:0:
257,104,79679,1,10,0:1:0:0:
343,18,79819,2,0,P|406:69|385:170,1,161.999995056153,8|0,0:0|0:0,0:0:0:0:
459,262,80239,6,0,P|351:248|292:267,1,161.999995056153,12|2,0:0|0:0,0:0:0:0:
53,269,80660,1,8,0:0:0:0:
53,269,80800,2,0,P|161:255|220:274,1,161.999995056153,8|8,0:1|0:0,0:0:0:0:
455,101,81361,6,0,P|362:124|249:27,1,242.999992584229,2|0,0:0|0:0,0:0:0:0:
51,101,81921,2,0,P|144:124|257:27,1,242.999992584229,10|0,0:1|0:0,0:0:0:0:
250,31,82482,6,0,P|228:118|252:248,1,161.999995056153,14|0,0:0|0:0,0:0:0:0:
370,318,82903,1,8,0:0:0:0:
370,318,83043,2,0,P|259:300|203:323,1,161.999995056153,8|2,0:1|0:0,0:0:0:0:
0,118,83604,2,0,P|57:133|37:226,1,161.999995056153,2|8,0:0|0:0,0:0:0:0:
388,81,84164,1,8,0:1:0:0:
216,23,84305,2,0,P|197:113|232:202,1,161.999995056153,12|0,0:0|0:0,0:0:0:0:
133,282,84725,6,0,P|233:271|342:296,1,161.999995056153,12|0,0:0|0:0,0:0:0:0:
450,351,85146,1,8,0:0:0:0:
450,351,85286,2,0,L|448:155,2,161.999995056153,8|8|0,0:1|0:0|0:0,0:0:0:0:
448,42,86127,1,10,0:0:0:0:
189,209,86407,1,10,0:1:0:0:
189,209,86548,2,0,P|104:197|12:214,1,161.999995056153,8|0,0:0|0:0,0:0:0:0:
19,229,86968,6,0,P|62:153|37:58,1,161.999995056153,8|0,0:0|0:0,0:0:0:0:
206,19,87389,1,8,0:0:0:0:
206,19,87529,2,0,P|302:15|397:25,1,161.999995056153,8|2,0:1|0:0,0:0:0:0:
482,222,88090,1,2,0:0:0:0:
490,112,88230,1,2,0:0:0:0:
485,247,88370,2,0,L|492:329,1,80.9999975280763,10|0,0:0|0:0,0:0:0:0:
284,166,88650,2,0,L|296:61,1,80.9999975280763,10|12,0:1|0:0,0:0:0:0:
361,334,88931,6,0,P|264:288|58:351,1,323.999990112305,2|2,0:0|0:0,0:0:0:0:
11,48,89772,1,12,0:1:0:0:
11,48,90052,2,0,B|105:12|157:64|197:109|175:184|175:184|168:194|168:194|151:191|151:191|145:202|145:202|128:197|128:197|127:211|127:211|108:204|108:204|99:228,1,377.999988464356,8|10,0:0|0:1,0:0:0:0:
446,46,91454,6,0,B|470:18|470:18|471:145,1,135.000005149842,2|0,0:0|0:0,0:0:0:0:
