osu file format v14

[General]
AudioFilename: audio.mp3
AudioLeadIn: 0
PreviewTime: 37502
Countdown: 0
SampleSet: Soft
StackLeniency: 0.7
Mode: 0
LetterboxInBreaks: 0
WidescreenStoryboard: 0

[Editor]
Bookmarks: 19138,37642,73530,91474
DistanceSpacing: 0.5
BeatDivisor: 4
GridSize: 32
TimelineZoom: 1

[Metadata]
Title:Min the end
TitleUnicode:Min the end
Artist:Linkin Park vs. Sally
ArtistUnicode:Linkin Park vs. Sally
Creator:Seto Kousuke
Version:Melwoine's One Expert Thing
Source:
Tags:chata 茶太 ~眠~ 東方神霊廟 ~ Ten Desires. 東方 ZUN Team Shanghai Alice NSY shuriken 門前の妖怪小娘 Youkai Girl at the Gate comiket 80 c80 Kyouko kasodani sleep nemuri サリーdoujin touhou pop rock english maemi no yume chester bennington akayume iceluin shirahane suou melwoine faito hypercyte hypercute
BeatmapID:2769651
BeatmapSetID:1336972

[Difficulty]
HPDrainRate:5
CircleSize:4
OverallDifficulty:9
ApproachRate:9
SliderMultiplier:2.4
SliderTickRate:1

[Events]
//Background and Video events
0,0,"seto_linkin_park_min_bg.jpg",0,0
//Break Periods
//Storyboard Layer 0 (Background)
//Storyboard Layer 1 (Fail)
//Storyboard Layer 2 (Pass)
//Storyboard Layer 3 (Foreground)
//Storyboard Layer 4 (Overlay)
//Storyboard Sound Samples

[TimingPoints]
1174,560.747663551402,4,2,44,20,1,0
7902,-166.666666666667,4,3,44,20,0,0
10146,-166.666666666667,4,3,44,50,0,0
11268,-166.666666666667,4,3,44,20,0,0
14632,-166.666666666667,4,3,44,50,0,0
15754,-166.666666666667,4,3,44,30,0,0
16875,-166.666666666667,4,3,44,15,0,0
19118,-166.666666666667,4,2,44,30,0,0
19678,560.747663551402,4,2,44,60,1,0
19678,-66.6666666666667,4,2,44,60,0,0
21920,-58.8235294117647,4,2,44,60,0,0
23322,-100,4,2,44,60,0,0
24163,-66.6666666666667,4,2,44,60,0,0
25986,-100,4,2,44,60,0,0
26406,-58.8235294117647,4,2,44,60,0,0
29771,-100,4,2,44,60,0,0
30051,-66.6666666666667,4,2,44,60,0,0
30472,-55.5555555555556,4,2,44,60,0,0
32294,-66.6666666666667,4,2,44,60,0,0
34537,-100,4,2,44,60,0,0
35378,-50,4,2,44,60,0,0
35939,-58.8235294117647,4,2,44,60,0,0
37201,-200,4,2,44,60,0,0
37621,-125,4,2,44,44,0,0
62294,-125,4,2,44,48,0,0
63416,-125,4,2,44,52,0,0
73509,-52.6315789473684,4,2,44,60,0,0
74631,-66.6666666666667,4,2,44,60,0,0
75752,-55.5555555555556,4,2,44,60,0,0
76874,-100,4,2,44,60,0,0
77435,-66.6666666666667,4,2,44,60,0,0
77995,-55.5555555555556,4,2,44,60,0,0
78836,-100,4,2,44,60,0,0
79397,-55.5555555555556,4,2,44,60,0,0
81360,-76.9230769230769,4,2,44,60,0,0
82481,-55.5555555555556,4,2,44,60,0,0
83883,-100,4,2,44,60,0,0
84304,-55.5555555555556,4,2,44,60,0,0
85846,-71.4285714285714,4,2,44,60,0,0
86126,-55.5555555555556,4,2,44,60,0,0
91453,-55.5555555555556,4,2,44,44,0,0
92014,-55.5555555555556,4,3,44,30,0,0

[Colours]
Combo1 : 230,154,76
Combo2 : 107,67,75
Combo3 : 97,122,126
Combo4 : 144,21,42

[HitObjects]
251,185,7902,5,0,0:0:0:0:
251,185,8043,1,0,0:0:0:0:
251,185,8183,1,0,0:0:0:0:
251,185,8323,1,0,0:0:0:0:
308,133,8463,2,0,L|386:121,2,71.9999978027344,8|0|0,0:1|0:0|0:0,0:0:0:0:
246,78,9164,1,0,0:0:0:0:
246,78,9304,2,0,L|253:7,2,71.9999978027344,8|8|0,0:2|0:1|0:0,0:0:0:0:
141,230,10145,5,8,0:0:0:0:
111,77,10286,1,8,0:0:0:0:
0,316,10565,5,8,0:0:0:0:
30,164,10706,1,8,0:0:0:0:
180,369,10987,5,8,0:0:0:0:
155,215,11127,2,0,L|165:166,1,35.9999989013672,8|0,0:0|0:0,0:0:0:0:
226,252,11407,1,0,0:0:0:0:
226,252,11547,2,0,L|301:262,2,71.9999978027344,8|8|0,0:2|0:1|0:0,0:0:0:0:
363,193,12388,6,0,L|431:202,1,35.9999989013672
457,267,12669,1,0,0:0:0:0:
457,267,12809,1,0,0:0:0:0:
457,267,12949,2,0,L|508:241,1,35.9999989013672,8|0,0:1|0:0,0:0:0:0:
512,179,13230,1,0,0:0:0:0:
425,58,13510,1,0,0:0:0:0:
425,58,13650,1,0,0:0:0:0:
425,58,13790,2,0,P|423:97|429:143,1,71.9999978027344,8|8,0:2|0:1,0:0:0:0:
276,159,14351,1,0,0:0:0:0:
385,9,14631,5,4,0:0:0:0:
246,50,14772,1,4,0:0:0:0:
367,211,15052,5,4,0:0:0:0:
334,75,15192,1,4,0:0:0:0:
90,119,15473,5,4,0:0:0:0:
282,174,15613,2,0,L|241:177,1,35.9999989013672,4|0,0:0|0:0,0:0:0:0:
183,213,15893,1,0,0:0:0:0:
183,213,16033,2,0,P|187:258|193:308,2,71.9999978027344,8|8|0,0:2|0:1|0:0,0:0:0:0:
172,107,17015,1,0,0:0:0:0:
172,107,17155,1,0,0:0:0:0:
234,59,17435,1,0,0:0:0:0:
234,59,17575,1,0,0:0:0:0:
312,54,17856,1,0,0:0:0:0:
312,54,17996,1,0,0:0:0:0:
387,76,18276,1,0,0:0:0:0:
387,76,18416,1,0,0:0:0:0:
443,135,18697,1,0,0:0:0:0:
443,135,18837,1,0,0:0:0:0:
450,223,19117,5,0,0:0:0:0:
397,275,19258,1,2,0:0:0:0:
349,270,19398,1,2,0:0:0:0:
329,256,19538,1,2,0:0:0:0:
355,363,19678,6,0,P|374:251|322:138,1,180.000006866455,14|0,0:0|0:0,0:0:0:0:
367,94,20099,1,8,0:0:0:0:
270,309,20239,2,0,P|335:346|409:358,1,90.0000034332277,8|0,0:1|0:0,0:0:0:0:
243,147,20520,2,0,P|201:164|164:189,1,90.0000034332277,2|0,0:0|0:0,0:0:0:0:
83,326,20800,1,0,0:0:0:0:
371,102,21080,6,0,P|411:103|490:118,1,90.0000034332277,8|0,0:0|0:0,0:0:0:0:
512,177,21361,1,8,0:0:0:0:
167,37,21501,2,0,P|346:19|408:21,1,180.000006866455,12|0,0:0|0:0,0:0:0:0:
507,187,21921,6,0,P|468:319|380:324,1,204.000003890991,14|0,0:0|0:0,0:0:0:0:
306,368,22342,1,8,0:0:0:0:
433,238,22482,2,0,P|425:137|434:27,2,204.000003890991,8|2|0,0:1|0:0|0:0,0:0:0:0:
327,273,23183,1,0,0:0:0:0:
327,273,23323,2,0,L|240:282,1,60,10|0,0:0|0:0,0:0:0:0:
308,195,23604,1,8,0:1:0:0:
87,345,23744,2,0,L|201:384,1,120,10|0,0:0|0:0,0:0:0:0:
153,113,24164,6,0,P|181:268|191:341,1,180.000006866455,10|0,0:0|0:0,0:0:0:0:
99,254,24585,1,10,0:0:0:0:
250,140,24725,2,0,P|258:103|215:25,1,90.0000034332277,8|0,0:1|0:0,0:0:0:0:
41,128,25006,2,0,P|149:62|145:-12,1,180.000006866455,2|0,0:0|0:0,0:0:0:0:
329,273,25566,6,0,P|457:260|485:270,1,90.0000034332277,10|0,0:0|0:0,0:0:0:0:
470,313,25847,1,8,0:1:0:0:
374,172,25987,2,0,P|434:160|495:125,1,120,2|0,0:0|0:0,0:0:0:0:
221,111,26407,6,0,P|358:66|446:79,1,204.000003890991,10|0,0:0|0:0,0:0:0:0:
510,37,26828,1,10,0:0:0:0:
367,163,26968,2,0,P|358:225|374:326,1,102.000001945496,8|0,0:1|0:0,0:0:0:0:
245,384,27249,2,0,P|214:343|192:298,1,102.000001945496,10|0,0:0|0:0,0:0:0:0:
263,191,27529,5,0,0:0:0:0:
87,273,27669,1,0,0:0:0:0:
86,93,27809,2,0,P|142:145|167:205,1,102.000001945496,10|0,0:0|0:0,0:0:0:0:
177,309,28090,1,8,0:1:0:0:
0,184,28230,2,0,P|62:78|77:-26,1,204.000003890991,12|0,0:0|0:0,0:0:0:0:
249,109,28650,6,0,B|223:54|223:54|81:94,1,204.000003890991,14|0,0:0|0:0,0:0:0:0:
305,9,29071,1,8,0:0:0:0:
247,225,29211,2,0,B|348:277|348:277|421:79,1,306.000005836487,8|0,0:1|0:0,0:0:0:0:
420,106,29772,2,0,P|390:109|362:123,1,60
435,317,30052,2,0,P|445:270|511:202,1,90.0000034332277,10|0,0:0|0:0,0:0:0:0:
499,162,30333,1,8,0:1:0:0:
268,356,30473,2,0,P|204:225|95:196,1,215.999993408203,12|0,0:0|0:0,0:0:0:0:
109,362,30893,6,0,P|188:268|121:160,1,215.999993408203,14|0,0:0|0:0,0:0:0:0:
239,97,31314,1,8,0:0:0:0:
91,270,31454,2,0,P|39:261|0:225,1,107.999996704102,8|0,0:1|0:0,0:0:0:0:
0,134,31735,1,2,0:0:0:0:
322,48,32015,1,0,0:0:0:0:
108,30,32295,6,0,L|195:1,1,90.0000034332277,10|0,0:0|0:0,0:0:0:0:
391,104,32576,1,8,0:1:0:0:
247,198,32716,2,0,L|325:9,1,180.000006866455,10|0,0:0|0:0,0:0:0:0:
397,190,33136,6,0,L|442:374,1,180.000006866455,10|0,0:0|0:0,0:0:0:0:
506,225,33557,1,10,0:0:0:0:
423,356,33697,2,0,L|515:369,1,90.0000034332277,8|0,0:1|0:0,0:0:0:0:
313,319,33978,2,0,L|180:345,1,90.0000034332277,2|0,0:0|0:0,0:0:0:0:
138,352,34258,1,0,0:0:0:0:
138,352,34398,1,0,0:0:0:0:
14,194,34538,6,0,P|43:200|71:210,1,60,10|0,0:0|0:0,0:0:0:0:
118,269,34819,1,8,0:1:0:0:
99,85,34959,2,0,P|131:154|149:209,1,120,2|0,0:0|0:0,0:0:0:0:
226,316,35379,6,0,B|352:251|358:397|476:350,1,240,10|0,0:0|0:0,0:0:0:0:
512,291,35800,1,10,0:0:0:0:
387,237,35940,2,0,P|368:184|243:9,2,204.000003890991,8|10|2,0:1|0:0|0:0,0:0:0:0:
321,291,36641,1,0,0:0:0:0:
233,122,36781,2,0,P|230:177|217:248,1,102.000001945496,12|0,0:0|0:0,0:0:0:0:
146,251,37062,1,10,0:1:0:0:
87,60,37202,2,0,P|123:63|138:81,1,60,12|0,0:0|0:0,0:0:0:0:
109,156,37622,5,10,0:0:0:0:
109,156,37903,1,10,0:0:0:0:
13,163,38183,2,0,L|118:155,1,96,8|0,0:1|0:0,0:0:0:0:
265,137,38604,1,2,0:0:0:0:
237,214,38744,2,0,L|256:275,1,48,2|0,0:0|0:0,0:0:0:0:
213,333,39024,2,0,L|232:394,1,48,10|0,0:0|0:0,0:0:0:0:
456,362,39305,2,0,L|344:335,1,96,10|0,0:1|0:0,0:0:0:0:
373,234,39725,1,2,0:0:0:0:
465,267,39865,5,10,0:0:0:0:
481,231,40006,1,2,0:0:0:0:
465,151,40146,1,10,0:0:0:0:
388,133,40286,1,2,0:0:0:0:
266,197,40426,2,0,P|266:223|261:279,2,48,10|2|2,0:1|0:0|0:0,0:0:0:0:
234,124,40847,1,0,0:0:0:0:
234,124,40987,2,0,P|266:44|297:7,1,96,2|8,0:0|0:0,0:0:0:0:
390,0,41407,1,2,0:0:0:0:
351,48,41548,2,0,P|419:47|468:28,1,96,8|0,0:1|0:0,0:0:0:0:
480,132,42108,6,0,P|479:181|483:231,1,96,8|8,0:0|0:0,0:0:0:0:
448,303,42529,1,2,0:0:0:0:
296,237,42669,2,0,P|285:313|272:353,1,96,10|2,0:1|0:0,0:0:0:0:
170,314,43090,1,2,0:0:0:0:
170,314,43230,2,0,P|144:331|108:350,1,48,2|0,0:0|0:0,0:0:0:0:
55,348,43510,1,8,0:0:0:0:
188,178,43791,1,8,0:1:0:0:
188,178,43931,2,0,P|214:180|256:187,2,48,8|2|2,0:0|0:0|0:0,0:0:0:0:
161,88,44351,5,8,0:0:0:0:
161,88,44492,1,0,0:0:0:0:
0,201,44772,1,0,0:0:0:0:
59,104,44912,2,0,P|51:51|36:-8,2,96,10|0|2,0:1|0:0|0:0,0:0:0:0:
208,227,45753,1,8,0:0:0:0:
426,119,46034,1,10,0:1:0:0:
351,128,46174,1,8,0:0:0:0:
316,179,46314,1,0,0:0:0:0:
310,215,46454,1,0,0:0:0:0:
384,300,46594,6,0,P|389:222|390:68,1,192,14|10,0:0|0:1,0:0:0:0:
295,44,47436,1,2,0:0:0:0:
295,44,47576,1,2,0:0:0:0:
295,44,47716,2,0,L|366:33,1,48,2|2,0:0|0:0,0:0:0:0:
469,59,47996,1,10,0:0:0:0:
170,77,48277,2,0,P|222:7|239:-35,1,96,8|0,0:1|0:0,0:0:0:0:
225,150,48697,1,2,0:0:0:0:
225,150,48837,6,0,P|233:228|237:232,1,48,8|0,0:0|0:0,0:0:0:0:
313,178,49118,1,10,0:0:0:0:
258,330,49398,2,0,P|339:317|396:318,1,96,10|2,0:1|0:0,0:0:0:0:
435,365,49819,1,2,0:0:0:0:
444,346,49959,1,2,0:0:0:0:
450,327,50099,1,2,0:0:0:0:
503,315,50239,2,0,L|483:237,1,48,10|2,0:0|0:0,0:0:0:0:
421,220,50520,5,8,0:1:0:0:
256,344,50800,1,0,0:0:0:0:
65,222,51080,6,0,L|145:212,1,48,8|2,0:0|0:0,0:0:0:0:
124,305,51361,2,0,L|171:310,1,48,10|0,0:0|0:0,0:0:0:0:
44,237,51641,1,10,0:1:0:0:
211,143,51921,1,2,0:0:0:0:
211,110,52062,1,2,0:0:0:0:
223,76,52202,1,2,0:0:0:0:
246,53,52342,1,2,0:0:0:0:
143,12,52482,1,10,0:0:0:0:
143,12,52622,1,2,0:0:0:0:
257,61,52763,2,0,P|283:59|308:55,1,48,8|10,0:1|0:0,0:0:0:0:
367,12,53043,1,2,0:0:0:0:
364,224,53323,6,0,P|394:220|442:208,1,48,10|0,0:0|0:0,0:0:0:0:
461,152,53604,2,0,P|491:148|539:136,1,48,10|0,0:0|0:0,0:0:0:0:
285,221,53884,1,10,0:1:0:0:
285,221,54024,2,0,P|282:306|284:346,1,96,2|0,0:0|0:0,0:0:0:0:
408,384,54445,2,0,P|337:316|259:311,1,144,2|0,0:0|0:0,0:0:0:0:
185,275,55006,2,0,P|158:294|120:314,1,48,10|8,0:1|0:0,0:0:0:0:
132,379,55286,1,0,0:0:0:0:
112,120,55566,6,0,P|117:215|125:249,1,96,14|8,0:0|0:0,0:0:0:0:
29,344,56127,1,10,0:1:0:0:
29,344,56267,1,2,0:0:0:0:
29,344,56407,1,2,0:0:0:0:
187,113,56688,1,2,0:0:0:0:
22,197,56968,1,10,0:0:0:0:
15,120,57108,1,2,0:0:0:0:
15,120,57249,2,0,P|75:120|135:154,1,96,8|0,0:1|0:0,0:0:0:0:
197,267,57669,1,2,0:0:0:0:
197,267,57809,5,8,0:0:0:0:
232,158,58090,1,10,0:0:0:0:
45,31,58370,1,10,0:1:0:0:
304,88,58650,1,2,0:0:0:0:
304,88,58791,2,0,L|313:182,1,48,2|0,0:0|0:0,0:0:0:0:
422,162,59071,1,2,0:0:0:0:
328,162,59211,2,0,L|312:242,1,48,10|0,0:0|0:0,0:0:0:0:
187,287,59492,2,0,L|247:395,1,96,10|0,0:1|0:0,0:0:0:0:
340,312,59912,1,2,0:0:0:0:
340,312,60052,6,0,P|245:283|176:280,1,144,8|0,0:0|0:0,0:0:0:0:
89,311,60613,2,0,P|87:231|96:181,1,96,10|0,0:1|0:0,0:0:0:0:
165,188,61034,1,2,0:0:0:0:
165,188,61174,1,2,0:0:0:0:
165,188,61314,1,0,0:0:0:0:
242,167,61454,2,0,P|240:137|229:108,1,48,10|0,0:0|0:0,0:0:0:0:
136,66,61735,1,10,0:1:0:0:
243,24,61875,2,0,P|228:66|226:131,1,96,8|2,0:0|0:0,0:0:0:0:
334,91,62295,6,0,P|356:90|418:78,1,48,8|2,0:0|0:0,0:0:0:0:
435,10,62576,2,0,P|457:9|519:-3,1,48,8|2,0:0|0:0,0:0:0:0:
327,85,62856,2,0,P|349:86|411:98,1,48,10|0,0:1|0:0,0:0:0:0:
428,166,63136,1,2,0:0:0:0:
428,166,63277,2,0,P|450:167|512:179,2,48,2|2|0,0:0|0:0|0:0,0:0:0:0:
359,217,63697,1,8,0:0:0:0:
152,81,63978,1,10,0:1:0:0:
204,138,64118,2,0,P|198:213|201:252,1,96,8|0,0:0|0:0,0:0:0:0:
106,384,64538,6,0,P|125:292|20:82,1,336,14|2,0:0|0:0,0:0:0:0:
29,103,65660,2,0,P|27:131|31:173,1,48,2|0,0:0|0:0,0:0:0:0:
138,36,65940,1,10,0:0:0:0:
138,36,66080,1,2,0:0:0:0:
182,101,66221,2,0,L|231:115,1,48,8|10,0:1|0:0,0:0:0:0:
295,154,66501,1,2,0:0:0:0:
295,154,66641,1,0,0:0:0:0:
179,110,66781,6,0,P|255:73|312:49,1,144,10|2,0:0|0:0,0:0:0:0:
404,4,67342,2,0,L|392:68,1,48,8|0,0:1|0:0,0:0:0:0:
431,129,67622,1,0,0:0:0:0:
257,302,67903,2,0,P|253:274|250:216,1,48,2|0,0:0|0:0,0:0:0:0:
333,327,68183,1,10,0:0:0:0:
333,327,68323,1,2,0:0:0:0:
424,258,68464,1,10,0:1:0:0:
353,338,68604,2,0,P|343:288|336:235,1,96,8|0,0:0|0:0,0:0:0:0:
264,137,69024,5,10,0:0:0:0:
465,191,69305,1,10,0:0:0:0:
144,313,69585,2,0,P|82:285|50:211,1,144,10|2,0:1|0:0,0:0:0:0:
68,208,70146,2,0,L|88:132,1,48,2|2,0:0|0:0,0:0:0:0:
153,117,70426,1,10,0:0:0:0:
233,363,70707,2,0,P|231:328|219:286,1,48,10|10,0:1|0:0,0:0:0:0:
280,179,70987,1,2,0:0:0:0:
184,220,71127,1,2,0:0:0:0:
287,190,71267,2,0,P|367:208|388:210,1,96,10|10,0:0|0:0,0:0:0:0:
257,96,71828,6,0,P|290:95|331:81,1,48,10|0,0:1|0:0,0:0:0:0:
360,27,72108,2,0,P|393:26|434:12,1,48,2|0,0:0|0:0,0:0:0:0:
211,159,72389,2,0,P|178:158|137:144,1,48,10|8,0:1|0:0,0:0:0:0:
60,85,72669,2,0,P|84:90|108:90,1,48,0|8,0:0|0:0,0:0:0:0:
301,194,72950,5,10,0:0:0:0:
168,288,73090,1,0,0:0:0:0:
74,271,73230,2,0,L|103:220,1,48,12|0,0:1|0:0,0:0:0:0:
318,348,73510,6,0,B|382:313|382:313|289:137,1,227.999993911743,14|0,0:0|0:0,0:0:0:0:
350,19,73931,1,8,0:0:0:0:
505,147,74071,2,0,B|495:176|495:176|305:130,1,113.999996955872,8|0,0:1|0:0,0:0:0:0:
184,177,74351,2,0,L|220:59,1,113.999996955872,2|0,0:0|0:0,0:0:0:0:
465,293,74632,2,0,L|346:315,1,90.0000034332277,2|0,0:0|0:0,0:0:0:0:
209,370,74912,6,0,P|214:328|209:264,1,90.0000034332277,8|2,0:0|0:0,0:0:0:0:
267,190,75193,1,8,0:1:0:0:
35,342,75333,1,8,0:0:0:0:
35,342,75473,2,0,P|79:345|149:341,1,90.0000034332277,2|0,0:0|0:0,0:0:0:0:
357,176,75753,6,0,P|319:76|236:9,1,215.999993408203,12|0,0:0|0:0,0:0:0:0:
68,116,76174,1,8,0:0:0:0:
198,282,76314,2,0,P|192:229|193:151,1,107.999996704102,8|0,0:1|0:0,0:0:0:0:
33,30,76594,2,0,P|147:68|166:117,1,107.999996704102,8|0,0:0|0:0,0:0:0:0:
48,203,76875,2,0,L|25:263,1,60
0,337,77155,1,10,0:0:0:0:
0,337,77295,1,0,0:0:0:0:
121,288,77436,2,0,L|144:406,1,90.0000034332277,10|8,0:1|0:0,0:0:0:0:
290,185,77716,2,0,L|232:74,1,90.0000034332277,2|0,0:0|0:0,0:0:0:0:
504,0,77996,6,0,L|429:237,1,215.999993408203,8|0,0:0|0:0,0:0:0:0:
495,304,78417,1,8,0:0:0:0:
369,134,78557,2,0,P|457:217|463:292,1,107.999996704102,8|0,0:1|0:0,0:0:0:0:
474,384,78837,2,0,P|434:375|396:362,1,60,2|0,0:0|0:0,0:0:0:0:
206,312,79118,5,2,0:0:0:0:
366,221,79258,1,2,0:0:0:0:
300,384,79398,2,0,P|297:330|300:231,1,107.999996704102,10|0,0:0|0:0,0:0:0:0:
312,69,79679,1,10,0:1:0:0:
91,189,79819,2,0,P|92:248|105:340,2,107.999996704102,8|2|0,0:0|0:0|0:0,0:0:0:0:
2,41,80239,6,0,P|107:31|193:93,1,215.999993408203,12|2,0:0|0:0,0:0:0:0:
250,140,80660,1,8,0:0:0:0:
0,192,80800,2,0,P|92:94|144:81,1,107.999996704102,8|8,0:1|0:0,0:0:0:0:
258,152,81080,1,8,0:0:0:0:
258,152,81221,1,0,0:0:0:0:
146,272,81361,6,0,L|241:279,1,77.9999964294435,2|0,0:0|0:0,0:0:0:0:
322,338,81641,2,0,L|399:322,1,77.9999964294435,8|0,0:0|0:0,0:0:0:0:
106,192,81921,1,10,0:1:0:0:
290,239,82062,1,8,0:0:0:0:
219,362,82202,2,0,L|217:269,1,77.9999964294435
481,65,82482,6,0,B|458:173|458:173|234:93,1,323.999990112305,14|8,0:0|0:0,0:0:0:0:
512,285,83043,2,0,B|492:258|492:258|371:303,1,107.999996704102,8|0,0:1|0:0,0:0:0:0:
427,384,83323,2,0,L|404:278,1,107.999996704102,2|0,0:0|0:0,0:0:0:0:
201,183,83604,2,0,L|94:199,1,107.999996704102,2|0,0:0|0:0,0:0:0:0:
0,270,83884,2,0,L|76:315,1,60,8|2,0:0|0:0,0:0:0:0:
94,374,84164,1,8,0:1:0:0:
11,146,84305,2,0,P|127:22|256:47,1,215.999993408203,12|0,0:0|0:0,0:0:0:0:
333,171,84725,6,0,P|321:278|339:386,1,215.999993408203,12|0,0:0|0:0,0:0:0:0:
229,306,85146,1,8,0:0:0:0:
433,164,85286,2,0,P|421:101|391:39,1,107.999996704102,8|0,0:1|0:0,0:0:0:0:
316,14,85566,1,8,0:0:0:0:
117,176,85847,2,0,L|234:186,1,83.9999974365235
476,360,86127,2,0,P|338:258|316:256,1,107.999996704102,10|0,0:0|0:0,0:0:0:0:
202,339,86407,1,10,0:1:0:0:
440,171,86548,1,8,0:0:0:0:
440,171,86688,2,0,P|414:252|425:323,1,107.999996704102,2|0,0:0|0:0,0:0:0:0:
13,275,86968,6,0,P|153:229|214:162,1,215.999993408203,8|0,0:0|0:0,0:0:0:0:
287,102,87389,1,8,0:0:0:0:
58,9,87529,2,0,P|64:62|77:115,1,107.999996704102,8|0,0:1|0:0,0:0:0:0:
311,337,87809,2,0,P|267:328|176:327,1,107.999996704102,2|0,0:0|0:0,0:0:0:0:
124,274,88090,1,2,0:0:0:0:
391,384,88230,1,2,0:0:0:0:
280,245,88370,2,0,P|282:296|289:355,1,107.999996704102,10|0,0:0|0:0,0:0:0:0:
208,108,88650,1,10,0:1:0:0:
484,205,88791,2,0,P|377:199|279:244,1,215.999993408203,12|0,0:0|0:0,0:0:0:0:
415,350,89211,6,0,P|387:245|394:138,1,215.999993408203,12|2,0:0|0:0,0:0:0:0:
456,53,89632,1,8,0:0:0:0:
288,137,89772,1,12,0:1:0:0:
288,137,89912,2,0,L|267:12,2,107.999996704102,8|8|0,0:0|0:0|0:0,0:0:0:0:
220,315,90333,2,0,P|92:344|33:367,1,107.999996704102,8|0,0:0|0:0,0:0:0:0:
40,378,90613,1,10,0:0:0:0:
177,200,90753,1,2,0:0:0:0:
13,287,90893,6,0,P|145:317|233:326,2,215.999993408203,10|0|2,0:1|0:0|0:0,0:0:0:0:
283,384,91735,1,2,0:0:0:0:
