osu file format v14

[General]
AudioFilename: audio.mp3
AudioLeadIn: 0
PreviewTime: 37502
Countdown: 0
SampleSet: Soft
StackLeniency: 0.7
Mode: 0
LetterboxInBreaks: 0
WidescreenStoryboard: 1

[Editor]
Bookmarks: 19699,28670,37642,46614,55586,64558,73530,82502,91474
DistanceSpacing: 1.3
BeatDivisor: 4
GridSize: 32
TimelineZoom: 1.4

[Metadata]
Title:Min the end
TitleUnicode:Min the end
Artist:Linkin Park vs. Sally
ArtistUnicode:Linkin Park vs. Sally
Creator:Seto Kousuke
Version:Iceyume's One Normal Thing
Source:
Tags:chata 茶太 ~眠~ 東方神霊廟 ~ Ten Desires. 東方 ZUN Team Shanghai Alice NSY shuriken 門前の妖怪小娘 Youkai Girl at the Gate comiket 80 c80 Kyouko kasodani sleep nemuri サリーdoujin touhou pop rock english maemi no yume chester bennington akayume iceluin shirahane suou melwoine faito hypercyte hypercute
BeatmapID:2769650
BeatmapSetID:1336972

[Difficulty]
HPDrainRate:3
CircleSize:3
OverallDifficulty:4
ApproachRate:5
SliderMultiplier:1.6
SliderTickRate:1

[Events]
//Background and Video events
0,0,"seto_linkin_park_min_bg.jpg",0,0
//Break Periods
//Storyboard Layer 0 (Background)
//Storyboard Layer 1 (Fail)
//Storyboard Layer 2 (Pass)
//Storyboard Layer 3 (Foreground)
//Storyboard Layer 4 (Overlay)
//Storyboard Sound Samples

[TimingPoints]
1174,560.747663551402,4,2,44,20,1,0
7903,-100,4,3,44,20,0,0
10146,-100,4,3,44,50,0,0
11268,-100,4,3,44,20,0,0
14632,-100,4,3,44,50,0,0
15754,-100,4,3,44,30,0,0
16875,-100,4,3,44,15,0,0
19118,-100,4,2,44,30,0,0
19678,560.747663551402,4,2,44,60,1,0
37621,-100,4,2,44,44,0,0
62294,-100,4,2,44,48,0,0
63416,-100,4,2,44,52,0,0
73509,-100,4,2,44,60,0,0
91453,-100,4,2,44,44,0,0
92014,-100,4,3,44,30,0,0

[Colours]
Combo1 : 230,154,76
Combo2 : 107,67,75
Combo3 : 97,122,126
Combo4 : 144,21,42

[HitObjects]
160,328,19678,6,0,L|160:168,1,160,14|8,0:0|0:1,0:0:0:0:
284,1,20799,1,0,0:0:0:0:
345,84,21079,1,8,0:0:0:0:
412,5,21360,1,8,0:1:0:0:
412,5,21500,2,0,B|448:-13|448:-13|486:6,1,80,12|0,0:0|0:0,0:0:0:0:
503,52,21920,6,0,L|503:214,1,160,14|8,0:0|0:1,0:0:0:0:
382,382,23041,1,0,0:0:0:0:
321,299,23321,1,8,0:0:0:0:
254,378,23602,1,8,0:1:0:0:
254,378,23742,1,8,0:0:0:0:
239,223,24163,6,0,L|239:69,1,120,10|10,0:0|0:0,0:0:0:0:
239,50,24724,1,8,0:1:0:0:
134,50,25005,2,0,L|134:203,1,120,10|2,0:0|0:0,0:0:0:0:
134,223,25564,1,8,0:0:0:0:
34,224,25846,1,8,0:1:0:0:
34,224,25986,1,10,0:0:0:0:
134,343,26406,6,0,P|189:360|245:340,1,120,10|10,0:0|0:0,0:0:0:0:
280,301,26967,1,8,0:1:0:0:
368,356,27248,2,0,P|385:300|365:244,1,120,10|10,0:0|0:0,0:0:0:0:
326,210,27807,1,8,0:1:0:0:
375,120,28089,1,8,0:1:0:0:
375,120,28229,2,0,L|463:120,1,80,12|0,0:0|0:0,0:0:0:0:
499,146,28649,6,0,P|466:68|504:-21,1,160,14|8,0:0|0:1,0:0:0:0:
297,85,29770,1,0,0:0:0:0:
231,4,30050,1,10,0:0:0:0:
152,71,30331,1,8,0:1:0:0:
152,71,30471,2,0,B|126:114|153:155,1,80,12|0,0:0|0:0,0:0:0:0:
189,179,30892,6,0,P|90:154|31:179,1,160,14|8,0:0|0:1,0:0:0:0:
10,380,32014,1,0,0:0:0:0:
112,367,32293,1,10,0:0:0:0:
175,285,32574,1,8,0:1:0:0:
175,285,32714,1,10,0:0:0:0:
310,363,33135,6,0,B|312:307|312:307|310:303|310:303|313:240,1,120,10|10,0:0|0:0,0:0:0:0:
342,200,33695,1,8,0:1:0:0:
292,108,33977,2,0,B|347:105|347:105|351:108|351:108|414:104,1,120,10|10,0:0|0:0,0:0:0:0:
455,76,34537,1,8,0:0:0:0:
507,172,34817,1,8,0:1:0:0:
507,172,34957,1,10,0:0:0:0:
453,318,35378,6,0,P|397:338|336:313,1,120,10|10,0:0|0:0,0:0:0:0:
305,282,35938,1,8,0:1:0:0:
291,178,36220,2,0,P|235:157|174:182,1,120,10|10,0:0|0:0,0:0:0:0:
143,214,36780,1,12,0:0:0:0:
147,321,37060,1,10,0:1:0:0:
147,321,37200,2,0,L|67:321,1,80,12|0,0:0|0:0,0:0:0:0:
14,319,37621,6,0,L|14:239,1,80,10|10,0:0|0:0,0:0:0:0:
14,134,38182,1,8,0:1:0:0:
190,24,38743,2,0,P|229:14|267:24,1,80,2|10,0:0|0:0,0:0:0:0:
339,99,39304,1,10,0:1:0:0:
411,25,39584,1,0,0:0:0:0:
482,99,39864,6,0,L|482:259,1,160,10|10,0:0|0:1,0:0:0:0:
420,343,40706,1,2,0:0:0:0:
357,259,40986,2,0,L|267:259,1,80,2|8,0:0|0:0,0:0:0:0:
172,259,41547,1,8,0:1:0:0:
172,50,42107,6,0,P|97:26|23:51,1,160,8|10,0:0|0:1,0:0:0:0:
98,124,42949,1,2,0:0:0:0:
23,195,43229,2,0,L|23:274,1,80,2|8,0:0|0:0,0:0:0:0:
98,347,43790,1,8,0:1:0:0:
172,274,44070,1,2,0:0:0:0:
245,347,44350,6,0,L|325:347,1,80,8|10,0:0|0:0,0:0:0:0:
325,242,44911,2,0,L|416:242,1,80,8|10,0:1|0:0,0:0:0:0:
481,312,45472,2,0,P|448:241|481:170,1,160,2|10,0:0|0:1,0:0:0:0:
301,65,46593,6,0,P|229:86|146:59,1,160,14|10,0:0|0:1,0:0:0:0:
64,2,47435,1,2,0:0:0:0:
9,90,47715,2,0,P|1:120|-1:171,1,80,2|10,0:0|0:0,0:0:0:0:
76,237,48276,1,8,0:1:0:0:
11,318,48556,1,0,0:0:0:0:
95,377,48836,6,0,L|265:361,1,160,8|10,0:0|0:1,0:0:0:0:
316,278,49678,1,2,0:0:0:0:
404,331,49958,2,0,L|411:238,1,80,2|10,0:0|0:0,0:0:0:0:
347,168,50519,1,8,0:1:0:0:
160,260,51079,6,0,P|119:269|2:244,1,160,8|10,0:0|0:1,0:0:0:0:
45,149,51921,1,2,0:0:0:0:
2,54,52201,2,0,P|40:43|80:51,1,80,2|10,0:0|0:0,0:0:0:0:
171,3,52762,1,8,0:1:0:0:
221,94,53043,1,2,0:0:0:0:
228,197,53322,6,0,P|277:179|304:152,1,80,10|10,0:0|0:0,0:0:0:0:
377,227,53883,2,0,P|399:179|399:141,1,80,10|2,0:1|0:0,0:0:0:0:
438,55,54444,2,0,P|489:95|500:200,1,160,2|10,0:0|0:1,0:0:0:0:
352,326,55565,6,0,P|293:273|284:196,1,160,14|10,0:0|0:1,0:0:0:0:
359,122,56407,1,2,0:0:0:0:
284,49,56687,2,0,L|204:49,1,80,2|10,0:0|0:0,0:0:0:0:
138,129,57248,1,8,0:1:0:0:
71,49,57528,1,0,0:0:0:0:
5,129,57808,6,0,B|5:251|5:251|32:284,1,160,8|10,0:0|0:1,0:0:0:0:
109,347,58650,1,2,0:0:0:0:
188,280,58930,2,0,B|225:265|225:265|261:280,1,80,0|10,0:0|0:0,0:0:0:0:
342,347,59491,1,10,0:1:0:0:
511,226,60051,6,0,B|478:154|478:154|512:80,1,160,8|10,0:0|0:1,0:0:0:0:
439,6,60893,1,0,0:0:0:0:
366,80,61173,2,0,L|286:80,1,80,2|10,0:0|0:0,0:0:0:0:
212,153,61734,1,10,0:1:0:0:
286,228,62015,1,2,0:0:0:0:
213,301,62294,6,0,L|133:301,1,80,10|10,0:0|0:0,0:0:0:0:
57,228,62855,2,0,L|57:148,1,80,10|2,0:1|0:0,0:0:0:0:
57,43,63416,2,0,B|122:43|122:43|145:28|145:28|212:28,1,160,2|8,0:0|0:1,0:0:0:0:
217,236,64537,6,0,B|287:241|287:241|292:237|292:237|388:241,1,160,14|10,0:0|0:1,0:0:0:0:
442,160,65379,1,2,0:0:0:0:
507,240,65659,2,0,L|513:336,1,80,2|10,0:0|0:0,0:0:0:0:
423,374,66220,1,8,0:1:0:0:
327,333,66500,1,2,0:0:0:0:
234,381,66780,6,0,B|198:306|198:306|232:221,1,160,10|8,0:0|0:1,0:0:0:0:
281,145,67622,1,0,0:0:0:0:
215,63,67902,2,0,P|174:54|133:63,1,80,2|10,0:0|0:0,0:0:0:0:
54,125,68463,1,10,0:1:0:0:
148,309,69023,6,0,P|223:339|302:315,1,160,10|10,0:0|0:1,0:0:0:0:
383,377,69865,1,2,0:0:0:0:
464,312,70145,2,0,L|474:227,1,80,2|10,0:0|0:0,0:0:0:0:
394,166,70706,1,10,0:1:0:0:
475,101,70986,1,2,0:0:0:0:
402,26,71266,6,0,P|358:17|318:20,1,80,10|10,0:0|0:0,0:0:0:0:
280,114,71827,2,0,P|236:122|196:119,1,80,10|10,0:1|0:0,0:0:0:0:
154,27,72388,2,0,B|111:4|78:27|78:27|35:50|-21:16,1,160,10|10,0:1|0:1,0:0:0:0:
1,235,73509,6,0,P|38:224|76:236,1,80,14|8,0:0|0:0,0:0:0:0:
162,294,74070,1,8,0:1:0:0:
248,236,74350,1,2,0:0:0:0:
334,294,74631,2,0,B|317:331|317:331|335:365,1,80,2|8,0:0|0:0,0:0:0:0:
439,365,75192,1,8,0:1:0:0:
439,365,75332,2,0,B|456:328|456:328|437:293,1,80,10|0,0:0|0:0,0:0:0:0:
426,242,75752,6,0,B|426:125|426:125|395:91,1,160,12|8,0:0|0:1,0:0:0:0:
305,145,76593,2,0,B|305:262|305:262|333:293,1,160,12|8,0:0|0:0,0:0:0:0:
245,349,77435,1,10,0:1:0:0:
245,349,77575,2,0,L|165:349,1,80,8|0,0:0|0:0,0:0:0:0:
113,349,77995,6,0,B|92:306|92:306|122:249|122:249|105:204,1,160,8|8,0:0|0:1,0:0:0:0:
33,129,78836,1,2,0:0:0:0:
105,54,79117,2,0,L|105:14,2,40,2|2|10,0:0|0:0|0:0,0:0:0:0:
177,129,79678,1,10,0:1:0:0:
177,129,79818,2,0,L|257:129,1,80,8|0,0:0|0:0,0:0:0:0:
308,129,80238,6,0,B|340:205|275:205|306:282,1,160,12|8,0:0|0:1,0:0:0:0:
391,343,81079,1,8,0:0:0:0:
476,283,81360,2,0,P|486:245|475:207,1,80,2|8,0:0|0:0,0:0:0:0:
406,129,81920,1,10,0:1:0:0:
406,129,82061,2,0,L|406:49,1,80,8|0,0:0|0:0,0:0:0:0:
370,11,82481,6,0,P|331:0|290:11,1,80,14|0,0:0|0:0,0:0:0:0:
218,82,83042,1,8,0:1:0:0:
131,24,83322,1,2,0:0:0:0:
52,92,83603,2,0,P|41:131|52:172,1,80,2|8,0:0|0:0,0:0:0:0:
132,231,84163,1,8,0:1:0:0:
132,231,84304,2,0,P|143:270|132:311,1,80,14|0,0:0|0:0,0:0:0:0:
109,353,84724,6,0,B|185:351|185:351|190:355|190:355|271:355,1,160,12|8,0:0|0:1,0:0:0:0:
364,316,85565,2,0,P|403:247|389:168,1,160,8|10,0:0|0:0,0:0:0:0:
435,78,86407,1,10,0:1:0:0:
435,78,86547,2,0,P|403:66|358:64,1,80,8|0,0:0|0:0,0:0:0:0:
315,94,86967,6,0,B|240:128|240:128|135:83,1,160,8|8,0:0|0:1,0:0:0:0:
96,22,87808,1,2,0:0:0:0:
35,106,88089,2,0,L|-6:126,2,40,2|2|10,0:0|0:0|0:0,0:0:0:0:
106,189,88650,1,10,0:1:0:0:
106,189,88790,2,0,P|115:228|106:270,1,80,12|0,0:0|0:0,0:0:0:0:
92,316,89210,6,0,B|170:254|254:317,1,160,12|8,0:0|0:1,0:0:0:0:
333,260,90051,1,8,0:0:0:0:
424,310,90332,2,0,P|437:279|434:231,1,80,8|2,0:0|0:0,0:0:0:0:
394,143,90892,1,10,0:1:0:0:
394,143,91033,1,8,0:0:0:0:
241,111,91453,6,0,B|256:121|256:121|256:192,1,80,2|2,0:0|0:0,0:0:0:0:
