osu file format v14

[General]
AudioFilename: audio.mp3
AudioLeadIn: 0
PreviewTime: 37502
Countdown: 0
SampleSet: Soft
StackLeniency: 0.4
Mode: 0
LetterboxInBreaks: 0
WidescreenStoryboard: 0

[Editor]
Bookmarks: 19138,37642,73530,91474
DistanceSpacing: 1.3
BeatDivisor: 4
GridSize: 8
TimelineZoom: 1.1

[Metadata]
Title:Min the end
TitleUnicode:Min the end
Artist:Linkin Park vs. Sally
ArtistUnicode:Linkin Park vs. Sally
Creator:Seto Kousuke
Version:Faito's One Expert Thing
Source:
Tags:chata 茶太 ~眠~ 東方神霊廟 ~ Ten Desires. 東方 ZUN Team Shanghai Alice NSY shuriken 門前の妖怪小娘 Youkai Girl at the Gate comiket 80 c80 Kyouko kasodani sleep nemuri サリーdoujin touhou pop rock english maemi no yume chester bennington akayume iceluin shirahane suou melwoine faito hypercyte hypercute
BeatmapID:2769648
BeatmapSetID:1336972

[Difficulty]
HPDrainRate:5
CircleSize:3
OverallDifficulty:8
ApproachRate:9.2
SliderMultiplier:3.3
SliderTickRate:1

[Events]
//Background and Video events
0,0,"seto_linkin_park_min_bg.jpg",0,0
//Break Periods
//Storyboard Layer 0 (Background)
//Storyboard Layer 1 (Fail)
//Storyboard Layer 2 (Pass)
//Storyboard Layer 3 (Foreground)
//Storyboard Layer 4 (Overlay)
//Storyboard Sound Samples

[TimingPoints]
1174,560.747663551402,4,2,44,20,1,0
1175,-200,4,2,44,20,0,0
7903,-200,4,3,44,20,0,0
8463,-117.647058823529,4,3,44,20,0,0
10146,-117.647058823529,4,3,44,50,0,0
11268,-117.647058823529,4,3,44,20,0,0
14632,-117.647058823529,4,3,44,50,0,0
15754,-117.647058823529,4,3,44,30,0,0
16875,-117.647058823529,4,3,44,15,0,0
19117,-500,4,2,44,30,0,0
19609,-500,4,2,44,5,0,0
19678,560.747663551402,4,2,44,60,1,0
19678,-90.9090909090909,4,2,44,60,0,0
27808,-57.1428571428571,4,2,44,60,0,0
28649,-90.9090909090909,4,2,44,60,0,0
37481,-90.9090909090909,4,2,44,5,0,0
37621,-90.9090909090909,4,2,44,44,0,0
38743,-117.647058823529,4,2,44,44,0,0
62294,-117.647058823529,4,2,44,48,0,0
63416,-117.647058823529,4,2,44,52,0,0
73439,-117.647058823529,4,2,44,5,0,0
73509,-80,4,2,44,60,0,0
82061,-250,4,2,44,60,0,0
82411,-250,4,2,44,5,0,0
82481,-80,4,2,44,60,0,0
91453,-200,4,2,44,44,0,0
92014,-200,4,3,44,30,0,0

[Colours]
Combo1 : 230,154,76
Combo2 : 107,67,75
Combo3 : 97,122,126
Combo4 : 144,21,42

[HitObjects]
413,384,1314,5,0,0:0:0:0:
403,373,1454,2,0,P|409:349|422:317,1,41.25,2|0,0:0|0:0,0:0:0:0:
336,312,1734,1,0,0:0:0:0:
332,297,1874,2,0,P|349:280|376:258,1,41.25,2|0,0:0|0:0,0:0:0:0:
305,211,2155,1,0,0:0:0:0:
309,196,2295,2,0,P|332:190|366:185,1,41.25,2|0,0:0|0:0,0:0:0:0:
328,108,2576,1,0,0:0:0:0:
339,97,2716,2,0,P|362:103|394:116,1,41.25,2|0,0:0|0:0,0:0:0:0:
399,30,2996,1,0,0:0:0:0:
414,26,3136,2,0,P|430:43|452:70,1,41.25,2|0,0:0|0:0,0:0:0:0:
99,384,5800,5,0,0:0:0:0:
109,373,5940,2,0,P|102:349|89:317,1,41.25,2|0,0:0|0:0,0:0:0:0:
176,312,6220,1,0,0:0:0:0:
180,297,6360,2,0,P|162:280|135:258,1,41.25,2|0,0:0|0:0,0:0:0:0:
207,211,6641,1,0,0:0:0:0:
203,196,6781,2,0,P|179:190|145:185,1,41.25,2|0,0:0|0:0,0:0:0:0:
184,108,7062,1,0,0:0:0:0:
173,97,7202,2,0,P|149:103|117:116,1,41.25,2|0,0:0|0:0,0:0:0:0:
113,30,7482,1,0,0:0:0:0:
98,26,7622,2,0,P|81:43|59:70,1,41.25,2|0,0:0|0:0,0:0:0:0:
22,191,7902,5,0,0:0:0:0:
93,246,8043,1,0,0:0:0:0:
93,246,8183,2,0,L|80:300,1,41.25
4,315,8463,2,0,P|71:324|148:346,1,140.250002675056,8|0,0:1|0:0,0:0:0:0:
190,275,8884,1,0,0:0:0:0:
190,275,9024,1,0,0:0:0:0:
253,339,9164,1,0,0:0:0:0:
322,251,9304,2,0,P|337:315|370:397,2,140.250002675056,8|8|0,0:2|0:1|0:0,0:0:0:0:
368,51,10145,5,8,0:0:0:0:
197,129,10286,1,8,0:0:0:0:
115,96,10566,5,8,0:0:0:0:
391,205,10707,1,8,0:0:0:0:
465,164,10986,5,8,0:0:0:0:
112,317,11127,1,8,0:0:0:0:
23,245,11407,5,0,0:0:0:0:
83,182,11547,2,0,P|133:189|232:206,1,140.250002675056,8|8,0:2|0:1,0:0:0:0:
473,60,12108,1,0,0:0:0:0:
512,150,12248,1,0,0:0:0:0:
512,150,12318,1,0,0:0:0:0:
512,150,12388,2,0,L|482:235,1,70.1250013375282
392,226,12669,2,0,L|343:363,2,140.250002675056,0|8|0,0:0|0:1|0:0,0:0:0:0:
284,264,13370,5,0,0:0:0:0:
284,264,13510,1,0,0:0:0:0:
223,186,13650,1,0,0:0:0:0:
153,253,13790,2,0,P|130:327|75:392,2,140.250002675056,8|8|0,0:2|0:1|0:0,0:0:0:0:
114,0,14631,5,4,0:0:0:0:
81,160,14772,1,4,0:0:0:0:
0,142,15052,5,4,0:0:0:0:
280,202,15192,1,4,0:0:0:0:
262,290,15473,5,4,0:0:0:0:
340,0,15613,1,4,0:0:0:0:
417,59,15893,5,0,0:0:0:0:
445,144,16033,2,0,P|439:192|409:291,2,140.250002675056,8|8|0,0:2|0:1|0:0,0:0:0:0:
417,59,16734,1,0,0:0:0:0:
97,292,19117,6,0,P|115:332|126:348,1,57.75
123,344,19678,6,0,P|190:263|134:178,1,181.500005538941,14|0,0:0|0:0,0:0:0:0:
278,317,20098,1,8,0:0:0:0:
234,112,20239,2,0,B|265:53|366:66|366:66|432:185|366:251|302:276,1,363.000011077881,8|0,0:1|0:0,0:0:0:0:
275,191,20940,1,0,0:0:0:0:
339,256,21080,2,0,P|389:266|434:320,1,90.7500027694703,8|0,0:0|0:0,0:0:0:0:
380,384,21360,1,8,0:1:0:0:
151,265,21501,2,0,P|167:207|293:208,1,181.500005538941,12|0,0:0|0:0,0:0:0:0:
181,354,21921,6,0,L|-12:366,1,181.500005538941,14|0,0:0|0:0,0:0:0:0:
181,354,22342,1,8,0:0:0:0:
275,190,22482,2,0,B|200:111|191:39|191:39|77:67|77:67|40:162,1,363.000011077881,8|0,0:1|0:0,0:0:0:0:
149,186,23183,1,0,0:0:0:0:
275,190,23323,2,0,P|299:136|343:119,1,90.7500027694703,10|0,0:0|0:0,0:0:0:0:
434,104,23603,1,8,0:1:0:0:
382,298,23744,2,0,P|299:273|275:190,1,181.500005538941,10|0,0:0|0:0,0:0:0:0:
195,319,24164,6,0,P|116:360|0:348,1,181.500005538941,10|0,0:0|0:0,0:0:0:0:
6,232,24585,1,10,0:0:0:0:
154,154,24725,2,0,P|150:198|170:239,1,90.7500027694703,8|0,0:1|0:0,0:0:0:0:
38,141,25005,2,0,P|45:113|192:43,1,181.500005538941,2|0,0:0|0:0,0:0:0:0:
252,63,25426,1,0,0:0:0:0:
170,239,25566,2,0,P|155:215|156:149,1,90.7500027694703,10|0,0:0|0:0,0:0:0:0:
32,244,25846,1,8,0:1:0:0:
195,319,25987,6,0,B|290:292|254:360|400:322,1,181.500005538941,2|0,0:0|0:0,0:0:0:0:
473,169,26406,2,0,P|436:131|372:129,1,90.7500027694703,10|0,0:0|0:0,0:0:0:0:
310,117,26687,1,0,0:0:0:0:
230,164,26827,1,10,0:0:0:0:
462,351,26967,1,8,0:1:0:0:
446,268,27107,1,0,0:0:0:0:
473,169,27248,2,0,B|367:160|401:230|287:218,1,181.500005538941,10|0,0:0|0:0,0:0:0:0:
246,283,27668,1,0,0:0:0:0:
14,156,27808,6,0,B|37:78|153:31|153:31|191:66|195:117,1,288.750002753735,10|8,0:0|0:1,0:0:0:0:
135,295,28229,2,0,B|104:331|52:337|52:337|-13:231|13:155,1,288.750002753735,12|0,0:0|0:0,0:0:0:0:
276,49,28650,6,0,P|361:34|406:123,1,181.500005538941,14|0,0:0|0:0,0:0:0:0:
384,242,29071,1,8,0:0:0:0:
292,347,29211,2,0,P|256:299|427:110,1,363.000011077881,8|0,0:1|0:0,0:0:0:0:
467,178,29912,1,0,0:0:0:0:
292,347,30052,2,0,P|281:284|308:234,1,90.7500027694703,10|0,0:0|0:0,0:0:0:0:
458,314,30332,1,8,0:1:0:0:
162,177,30473,2,0,P|253:185|286:279,1,181.500005538941,12|0,0:0|0:0,0:0:0:0:
34,364,30893,6,0,P|45:274|59:150,1,181.500005538941,14|0,0:0|0:0,0:0:0:0:
4,89,31314,1,8,0:0:0:0:
201,254,31454,2,0,P|269:194|95:101,1,363.000011077881,8|0,0:1|0:0,0:0:0:0:
55,183,32155,1,0,0:0:0:0:
201,254,32295,2,0,P|256:240|329:240,1,90.7500027694703,10|0,0:0|0:0,0:0:0:0:
375,306,32575,1,8,0:1:0:0:
511,172,32716,2,0,P|456:158|299:159,1,181.500005538941,10|0,0:0|0:0,0:0:0:0:
189,340,33135,6,0,P|124:290|158:182,1,181.500005538941,10|0,0:0|0:0,0:0:0:0:
205,126,33556,1,10,0:0:0:0:
51,215,33696,2,0,P|136:199|169:219,1,90.7500027694703,8|0,0:1|0:0,0:0:0:0:
189,340,33977,2,0,P|205:262|375:261,1,272.250008308411,2|0,0:0|0:0,0:0:0:0:
493,375,34537,2,0,L|371:359,1,90.7500027694703,10|0,0:0|0:0,0:0:0:0:
381,153,34818,1,8,0:1:0:0:
283,308,34958,2,0,L|86:282,1,181.500005538941,2|0,0:0|0:0,0:0:0:0:
11,76,35379,6,0,P|132:56|156:177,1,272.250008308411,10|10,0:0|0:0,0:0:0:0:
67,361,35940,1,8,0:1:0:0:
72,144,36080,1,8,0:0:0:0:
0,247,36220,6,0,L|179:270,1,181.500005538941,10|2,0:0|0:0,0:0:0:0:
265,350,36641,1,0,0:0:0:0:
306,93,36781,2,0,P|369:90|419:115,1,90.7500027694703,12|0,0:0|0:0,0:0:0:0:
210,124,37061,1,10,0:1:0:0:
478,145,37202,2,0,P|514:196|435:338,1,226.875006923676,12|0,0:0|0:0,0:0:0:0:
423,324,37621,5,10,0:0:0:0:
281,291,37902,1,10,0:0:0:0:
139,259,38182,1,8,0:1:0:0:
139,259,38603,5,2,0:0:0:0:
281,291,38743,2,0,P|288:235|270:195,1,70.1250013375282,2|0,0:0|0:0,0:0:0:0:
450,231,39023,2,0,P|437:175|406:144,1,70.1250013375282,10|0,0:0|0:0,0:0:0:0:
333,111,39304,5,10,0:1:0:0:
248,77,39444,1,8,0:0:0:0:
162,46,39584,1,0,0:0:0:0:
162,46,39864,6,0,P|124:105|119:127,1,70.1250013375282,10|2,0:0|0:0,0:0:0:0:
154,183,40145,1,10,0:0:0:0:
236,201,40285,1,2,0:0:0:0:
154,183,40425,6,0,P|88:208|71:223,1,70.1250013375282,10|2,0:1|0:0,0:0:0:0:
66,288,40706,1,2,0:0:0:0:
122,351,40846,1,0,0:0:0:0:
212,350,40986,2,0,L|378:334,1,140.250002675056,2|8,0:0|0:0,0:0:0:0:
431,369,41406,1,2,0:0:0:0:
407,179,41547,6,0,L|418:141,1,35.0625006687641,8|0,0:1|0:0,0:0:0:0:
424,130,41687,1,8,0:0:0:0:
451,209,41827,1,0,0:0:0:0:
479,288,41967,1,2,0:0:0:0:
268,161,42107,6,0,P|272:126|282:92,1,70.1250013375282,8|2,0:0|0:0,0:0:0:0:
224,255,42388,1,8,0:0:0:0:
327,224,42528,1,2,0:0:0:0:
167,165,42668,2,0,P|174:119|186:85,1,70.1250013375282,10|0,0:1|0:0,0:0:0:0:
100,40,42949,5,2,0:0:0:0:
100,40,43089,1,2,0:0:0:0:
0,127,43229,2,0,L|94:138,1,70.1250013375282,2|0,0:0|0:0,0:0:0:0:
0,43,43509,1,8,0:0:0:0:
91,136,43649,1,2,0:0:0:0:
0,214,43790,2,0,L|94:225,1,70.1250013375282,8|8,0:1|0:0,0:0:0:0:
111,308,44070,2,0,L|145:311,2,35.0625006687641,2|0|2,0:0|0:0|0:0,0:0:0:0:
9,379,44350,5,8,0:0:0:0:
246,350,44631,1,10,0:0:0:0:
482,322,44911,1,10,0:1:0:0:
482,322,45472,6,0,P|438:276|409:183,1,140.250002675056,2|8,0:0|0:0,0:0:0:0:
291,207,45892,1,0,0:0:0:0:
143,217,46033,2,0,P|187:171|216:78,1,140.250002675056,10|0,0:1|0:0,0:0:0:0:
333,97,46453,1,0,0:0:0:0:
482,322,46594,6,0,B|364:298|392:371|279:354,1,210.375004012585,14|0,0:0|0:0,0:0:0:0:
92,384,47155,1,10,0:1:0:0:
92,384,47435,2,0,P|95:315|109:287,1,70.1250013375282,2|2,0:0|0:0,0:0:0:0:
171,266,47716,1,2,0:0:0:0:
178,352,47856,1,2,0:0:0:0:
26,260,47996,2,0,P|87:228|118:226,1,70.1250013375282,10|2,0:0|0:0,0:0:0:0:
1,124,48276,5,8,0:1:0:0:
81,148,48416,1,8,0:0:0:0:
162,171,48556,2,0,P|191:132|215:117,1,70.1250013375282,0|2,0:0|0:0,0:0:0:0:
341,42,48836,5,8,0:0:0:0:
417,104,48977,1,0,0:0:0:0:
343,168,49117,1,10,0:0:0:0:
408,241,49257,1,0,0:0:0:0:
171,266,49397,6,0,L|329:249,1,140.250002675056,10|2,0:1|0:0,0:0:0:0:
270,374,49818,1,2,0:0:0:0:
186,332,49958,2,0,P|170:294|177:245,1,70.1250013375282,2|2,0:0|0:0,0:0:0:0:
90,221,50238,1,10,0:0:0:0:
35,296,50378,1,2,0:0:0:0:
7,154,50519,2,0,P|53:123|78:117,1,70.1250013375282,8|8,0:1|0:0,0:0:0:0:
100,37,50799,1,0,0:0:0:0:
16,0,50939,1,2,0:0:0:0:
184,74,51079,6,0,L|279:83,1,70.1250013375282,8|2,0:0|0:0,0:0:0:0:
285,174,51360,2,0,L|380:183,1,70.1250013375282,10|0,0:0|0:0,0:0:0:0:
512,288,51640,2,0,L|373:276,1,140.250002675056,10|2,0:1|0:0,0:0:0:0:
336,352,52061,1,2,0:0:0:0:
254,310,52201,1,2,0:0:0:0:
171,348,52341,1,2,0:0:0:0:
81,242,52481,1,10,0:0:0:0:
8,303,52621,1,2,0:0:0:0:
81,242,52762,6,0,L|176:255,1,70.1250013375282,8|10,0:1|0:0,0:0:0:0:
369,177,53042,1,2,0:0:0:0:
369,177,53322,2,0,L|274:190,1,70.1250013375282,10|0,0:0|0:0,0:0:0:0:
82,98,53603,1,10,0:0:0:0:
82,98,53883,1,10,0:1:0:0:
164,46,54023,2,0,L|316:70,1,140.250002675056,2|0,0:0|0:0,0:0:0:0:
512,168,54444,6,0,P|455:156|359:111,1,140.250002675056,2|8,0:0|0:0,0:0:0:0:
409,233,54864,1,0,0:0:0:0:
429,344,55005,2,0,P|365:315|296:299,1,140.250002675056,10|0,0:1|0:0,0:0:0:0:
290,187,55425,1,0,0:0:0:0:
181,373,55566,6,0,P|159:291|27:241,1,210.375004012585,14|0,0:0|0:0,0:0:0:0:
141,98,56127,2,0,P|140:132|129:165,1,70.1250013375282,10|2,0:1|0:0,0:0:0:0:
19,135,56407,2,0,P|19:100|30:67,1,70.1250013375282,2|0,0:0|0:0,0:0:0:0:
204,22,56688,1,2,0:0:0:0:
204,22,56967,6,0,P|301:45|311:51,1,70.1250013375282,10|2,0:0|0:0,0:0:0:0:
307,197,57248,1,8,0:1:0:0:
342,113,57388,1,8,0:0:0:0:
377,29,57528,2,0,P|474:52|484:58,1,70.1250013375282,0|2,0:0|0:0,0:0:0:0:
512,115,57808,5,8,0:0:0:0:
429,155,57949,1,0,0:0:0:0:
307,197,58089,5,10,0:0:0:0:
391,238,58230,1,0,0:0:0:0:
465,336,58369,6,0,P|401:343|333:353,1,70.1250013375282,10|0,0:1|0:0,0:0:0:0:
310,311,58649,1,2,0:0:0:0:
234,362,58790,2,0,P|170:369|102:379,1,70.1250013375282,2|0,0:0|0:0,0:0:0:0:
18,311,59070,1,2,0:0:0:0:
94,362,59211,2,0,P|158:369|226:379,1,70.1250013375282,10|0,0:0|0:0,0:0:0:0:
88,220,59491,5,10,0:1:0:0:
55,127,59631,1,8,0:0:0:0:
22,34,59771,2,0,L|110:42,1,70.1250013375282,0|2,0:0|0:0,0:0:0:0:
176,182,60051,2,0,P|201:114|195:89,1,70.1250013375282,8|0,0:0|0:0,0:0:0:0:
173,279,60332,1,10,0:0:0:0:
173,279,60612,6,0,B|234:291|234:291|249:287|249:287|322:302,1,140.250002675056,10|0,0:1|0:0,0:0:0:0:
403,250,61033,1,2,0:0:0:0:
378,163,61173,2,0,P|424:94|434:91,1,70.1250013375282,2|0,0:0|0:0,0:0:0:0:
276,130,61453,1,10,0:0:0:0:
297,217,61593,1,0,0:0:0:0:
322,53,61734,2,0,P|345:27|378:15,1,70.1250013375282,10|8,0:1|0:0,0:0:0:0:
214,62,62014,2,0,P|188:38|176:5,1,70.1250013375282,2|2,0:0|0:0,0:0:0:0:
28,39,62294,5,8,0:0:0:0:
43,206,62575,1,8,0:0:0:0:
58,373,62855,1,10,0:1:0:0:
58,373,63416,6,0,P|150:369|229:375,1,140.250002675056,2|8,0:0|0:0,0:0:0:0:
248,279,63836,1,0,0:0:0:0:
306,190,63977,2,0,P|398:186|477:192,1,140.250002675056,10|0,0:1|0:0,0:0:0:0:
406,286,64397,1,0,0:0:0:0:
495,26,64537,5,14,0:0:0:0:
257,16,64818,1,8,0:0:0:0:
20,6,65098,2,0,P|23:81|29:111,1,70.1250013375282,10|0,0:1|0:0,0:0:0:0:
109,101,65378,1,2,0:0:0:0:
196,127,65519,1,2,0:0:0:0:
369,75,65659,6,0,P|372:41|372:6,1,70.1250013375282,2|0,0:0|0:0,0:0:0:0:
283,101,65939,1,10,0:0:0:0:
196,127,66080,1,2,0:0:0:0:
25,227,66220,6,0,L|92:247,1,70.1250013375282,8|10,0:1|0:0,0:0:0:0:
202,287,66500,1,2,0:0:0:0:
111,358,66640,1,0,0:0:0:0:
202,287,66780,6,0,P|278:274|292:279,1,70.1250013375282,10|0,0:0|0:0,0:0:0:0:
314,177,67061,2,0,P|363:236|365:250,1,70.1250013375282,10|2,0:0|0:0,0:0:0:0:
417,381,67341,2,0,P|441:316|481:243,1,140.250002675056,8|0,0:1|0:0,0:0:0:0:
474,54,67762,1,2,0:0:0:0:
473,152,67902,2,0,P|415:129|398:115,1,70.1250013375282,2|0,0:0|0:0,0:0:0:0:
300,79,68182,1,10,0:0:0:0:
385,36,68322,1,2,0:0:0:0:
360,227,68463,2,0,P|317:181|307:161,1,70.1250013375282,10|8,0:1|0:0,0:0:0:0:
217,273,68743,2,0,P|202:212|204:190,1,70.1250013375282
54,117,69023,5,10,0:0:0:0:
54,117,69304,1,10,0:0:0:0:
114,6,69444,1,2,0:0:0:0:
75,237,69584,1,10,0:1:0:0:
75,237,69865,5,2,0:0:0:0:
185,255,70005,1,2,0:0:0:0:
295,274,70145,2,0,P|321:196|335:169,1,70.1250013375282,2|2,0:0|0:0,0:0:0:0:
479,256,70425,2,0,P|453:334|439:361,1,70.1250013375282,10|0,0:0|0:0,0:0:0:0:
413,140,70706,1,10,0:1:0:0:
483,81,70846,5,10,0:0:0:0:
371,66,70986,1,2,0:0:0:0:
259,51,71126,1,2,0:0:0:0:
171,144,71266,1,10,0:0:0:0:
171,144,71547,5,10,0:0:0:0:
371,66,71687,1,2,0:0:0:0:
171,144,71827,2,0,L|141:266,1,70.1250013375282,10|0,0:1|0:0,0:0:0:0:
51,350,72107,5,2,0:0:0:0:
51,350,72388,5,10,0:1:0:0:
366,348,72528,1,8,0:0:0:0:
55,242,72808,5,8,0:0:0:0:
370,240,72948,1,10,0:0:0:0:
290,297,73089,1,0,0:0:0:0:
371,66,73229,2,0,P|450:89|469:117,1,105.187502006292,12|0,0:1|0:0,0:0:0:0:
462,104,73509,6,0,P|343:117|307:202,1,206.25,14|0,0:0|0:0,0:0:0:0:
467,244,73930,1,8,0:0:0:0:
192,354,74070,2,0,P|178:332|167:249,1,103.125,8|0,0:1|0:0,0:0:0:0:
115,77,74350,6,0,P|91:122|88:173,1,103.125,2|0,0:0|0:0,0:0:0:0:
165,257,74631,2,0,P|193:299|346:333,1,206.25,2|8,0:0|0:0,0:0:0:0:
419,297,75051,1,2,0:0:0:0:
512,136,75192,1,8,0:1:0:0:
460,30,75332,1,8,0:0:0:0:
460,30,75752,6,0,B|360:62|363:35|247:67,1,206.25,12|0,0:0|0:0,0:0:0:0:
181,24,76173,1,8,0:0:0:0:
3,175,76313,2,0,B|103:207|100:180|216:212,2,206.25,8|8|0,0:1|0:0|0:0,0:0:0:0:
3,175,77154,6,0,P|78:145|120:146,1,103.125,10|0,0:0|0:0,0:0:0:0:
186,303,77435,1,10,0:1:0:0:
123,362,77575,2,0,P|48:332|86:231,1,206.25,8|0,0:0|0:0,0:0:0:0:
381,384,77995,6,0,B|427:281|383:259|434:149,1,206.25,8|0,0:0|0:0,0:0:0:0:
502,93,78416,1,8,0:0:0:0:
486,282,78556,2,0,P|395:304|326:216,1,206.25,8|2,0:1|0:0,0:0:0:0:
327,227,79117,5,2,0:0:0:0:
225,144,79257,1,2,0:0:0:0:
430,94,79397,2,0,L|318:123,1,103.125,10|0,0:0|0:0,0:0:0:0:
113,175,79678,1,10,0:1:0:0:
327,227,79818,2,0,P|335:133|441:97,1,206.25,8|0,0:0|0:0,0:0:0:0:
230,384,80238,2,0,P|227:324|213:157,1,206.25,12|2,0:0|0:0,0:0:0:0:
135,52,80659,1,8,0:0:0:0:
40,283,80799,2,0,P|78:281|184:272,1,103.125,8|8,0:1|0:0,0:0:0:0:
435,357,81079,6,0,P|398:321|372:276,1,103.125,8|0,0:0|0:0,0:0:0:0:
258,37,81360,1,2,0:0:0:0:
81,357,81640,6,0,P|117:321|143:276,1,103.125,8|0,0:0|0:0,0:0:0:0:
258,20,81921,1,10,0:1:0:0:
402,206,82061,6,0,P|372:176|339:152,1,82.5,8|0,0:0|0:0,0:0:0:0:
340,153,82481,6,0,P|374:74|503:35,1,206.25,14|0,0:0|0:0,0:0:0:0:
507,114,82902,1,8,0:0:0:0:
280,288,83042,2,0,P|239:256|218:180,1,103.125,8|0,0:1|0:0,0:0:0:0:
334,384,83322,6,0,P|368:320|375:274,1,103.125,2|0,0:0|0:0,0:0:0:0:
487,197,83603,2,0,P|473:147|316:76,1,206.25,2|8,0:0|0:0,0:0:0:0:
238,86,84023,1,2,0:0:0:0:
295,251,84163,1,8,0:1:0:0:
14,273,84304,6,0,B|131:281|84:218|221:220,1,206.25,12|0,0:0|0:0,0:0:0:0:
465,369,84724,2,0,B|493:297|493:297|424:250|373:289,1,206.25,12|0,0:0|0:0,0:0:0:0:
281,369,85145,1,8,0:0:0:0:
253,81,85285,1,8,0:1:0:0:
253,81,85565,6,0,P|260:147|302:172,1,103.125,8|0,0:0|0:0,0:0:0:0:
469,95,85846,2,0,P|461:28|419:3,1,103.125
286,167,86126,2,0,P|335:129|352:79,1,103.125,10|0,0:0|0:0,0:0:0:0:
150,32,86406,1,10,0:1:0:0:
350,93,86547,2,0,P|288:73|194:202,1,206.25,8|0,0:0|0:0,0:0:0:0:
266,372,86967,6,0,P|272:269|288:153,1,206.25,8|0,0:0|0:0,0:0:0:0:
366,231,87388,1,8,0:0:0:0:
175,300,87528,2,0,P|85:271|56:266,1,103.125,8|0,0:1|0:0,0:0:0:0:
7,70,87808,2,0,P|97:99|126:104,1,103.125,2|0,0:0|0:0,0:0:0:0:
311,67,88089,1,2,0:0:0:0:
204,48,88229,1,2,0:0:0:0:
422,84,88369,6,0,P|422:152|425:207,1,103.125,10|0,0:0|0:0,0:0:0:0:
339,384,88649,1,10,0:1:0:0:
329,294,88790,2,0,P|322:204|312:71,1,206.25,12|0,0:0|0:0,0:0:0:0:
0,22,89210,2,0,P|7:124|15:227,1,206.25,12|2,0:0|0:0,0:0:0:0:
16,329,89631,1,8,0:0:0:0:
235,177,89771,1,12,0:1:0:0:
108,148,89911,1,8,0:0:0:0:
313,88,90051,1,8,0:0:0:0:
313,88,90332,6,0,P|421:77|453:76,1,103.125,8|0,0:0|0:0,0:0:0:0:
169,58,90612,2,0,P|61:47|29:46,1,103.125,10|2,0:0|0:0,0:0:0:0:
309,116,90892,1,10,0:1:0:0:
108,148,91033,2,0,P|0:137|-32:136,2,103.125,8|0|0,0:0|0:0|0:0,0:0:0:0:
153,232,91453,5,2,0:0:0:0:
279,324,91734,2,0,L|327:314,1,41.25,2|0,0:0|0:0,0:0:0:0:
397,379,92014,2,0,L|445:369,1,41.25,8|0,0:1|0:0,0:0:0:0:
472,273,92294,2,0,L|520:263,2,41.25
394,294,92715,1,0,0:0:0:0:
326,229,92855,2,0,L|245:247,2,82.5,8|8|0,0:2|0:1|0:0,0:0:0:0:
319,315,93556,2,0,L|292:321,2,20.625
129,384,93836,5,0,0:0:0:0:
112,369,93977,2,0,P|114:338|117:318,1,41.25
39,301,94258,1,8,0:1:0:0:
35,278,94398,2,0,P|56:255|71:242,1,41.25
23,179,94678,1,0,0:0:0:0:
35,159,94818,2,0,P|65:155|86:155,1,41.25
89,75,95099,1,8,0:2:0:0:
111,67,95239,2,0,P|136:84|152:96,1,41.25,0|8,0:0|0:1,0:0:0:0:
206,38,95519,1,0,0:0:0:0:
228,45,95659,2,0,P|236:74|240:94,1,41.25
