osu file format v14

[General]
AudioFilename: 08 Waiting For The End.mp3
AudioLeadIn: 0
PreviewTime: 161025
Countdown: 0
SampleSet: Normal
StackLeniency: 0.7
Mode: 1
LetterboxInBreaks: 0
WidescreenStoryboard: 0

[Editor]
DistanceSpacing: 1
BeatDivisor: 4
GridSize: 8
TimelineZoom: 1

[Metadata]
Title:Waiting For The End
TitleUnicode:Waiting For The End
Artist:Linkin Park
ArtistUnicode:Linkin Park
Creator:neonat
Version:Oni
Source:
Tags:A Thousand Suns Alternative Rock English
BeatmapID:1461906
BeatmapSetID:294118

[Difficulty]
HPDrainRate:5
CircleSize:4
OverallDifficulty:5.5
ApproachRate:7
SliderMultiplier:1.4
SliderTickRate:1

[Events]
//Background and Video events
0,0,"waiting_for_the_end_by_djnightmare9-d7b6jfz.jpg",0,0
//Break Periods
//Storyboard Layer 0 (Background)
//Storyboard Layer 1 (Fail)
//Storyboard Layer 2 (Pass)
//Storyboard Layer 3 (Foreground)
//Storyboard Layer 4 (Overlay)
//Storyboard Sound Samples

[TimingPoints]
84,352.941176470588,4,1,0,65,1,0
44731,-105.263157894737,4,1,0,65,0,0
44907,-108.695652173913,4,1,0,65,0,0
45083,-112.359550561798,4,1,0,65,0,0
45260,-116.279069767442,4,1,0,45,0,0
45436,-120.481927710843,4,1,0,45,0,0
45613,-125,4,1,0,45,0,0
66789,-117.647058823529,4,1,0,45,0,0
67142,-111.111111111111,4,1,0,45,0,0
67495,-105.263157894737,4,1,0,45,0,0
67848,-100,4,1,0,65,0,0
183613,-100,4,1,0,85,0,1
228789,-100,4,1,0,65,0,0

[Colours]
Combo1 : 136,250,253
Combo2 : 199,232,121
Combo3 : 135,197,241
Combo4 : 244,147,193

[HitObjects]
264,176,6436,5,8,0:0:0:0:
264,176,7495,1,8,0:0:0:0:
264,176,7848,1,8,0:0:0:0:
264,176,8907,1,8,0:0:0:0:
264,176,9260,1,8,0:0:0:0:
264,176,9966,1,8,0:0:0:0:
264,176,10142,1,0,0:0:0:0:
264,176,10319,1,0,0:0:0:0:
264,176,10495,1,0,0:0:0:0:
264,176,10672,1,8,0:0:0:0:
264,176,10848,1,0,0:0:0:0:
266,180,10936,1,0,0:0:0:0:
264,176,11025,1,0,0:0:0:0:
264,176,11201,1,0,0:0:0:0:
264,176,11378,1,12,0:0:0:0:
264,176,11731,1,0,0:0:0:0:
264,176,12083,1,8,0:0:0:0:
264,176,12436,1,0,0:0:0:0:
264,176,12613,1,8,0:0:0:0:
264,176,12966,1,0,0:0:0:0:
264,176,13142,1,0,0:0:0:0:
264,176,13319,1,0,0:0:0:0:
264,176,13495,1,8,0:0:0:0:
264,176,13849,1,0,0:0:0:0:
264,176,13936,1,0,0:0:0:0:
264,176,14026,1,0,0:0:0:0:
264,176,14201,1,0,0:0:0:0:
264,176,14554,1,8,0:0:0:0:
264,176,14907,1,8,0:0:0:0:
264,176,15260,1,0,0:0:0:0:
264,176,15436,1,8,0:0:0:0:
264,176,15789,1,0,0:0:0:0:
264,176,15966,1,8,0:0:0:0:
264,176,16142,1,0,0:0:0:0:
264,176,16319,1,8,0:0:0:0:
264,176,16495,1,0,0:0:0:0:
264,176,16848,1,0,0:0:0:0:
264,176,17025,1,0,0:0:0:0:
264,176,17378,1,0,0:0:0:0:
264,176,17731,1,8,0:0:0:0:
264,176,18083,1,0,0:0:0:0:
264,176,18260,1,8,0:0:0:0:
264,176,18613,1,0,0:0:0:0:
264,176,18789,1,0,0:0:0:0:
264,176,18966,1,0,0:0:0:0:
264,176,19142,1,8,0:0:0:0:
264,176,19495,1,8,0:0:0:0:
264,176,19583,1,8,0:0:0:0:
264,176,19672,1,8,0:0:0:0:
264,176,19848,1,0,0:0:0:0:
264,176,20201,1,8,0:0:0:0:
264,176,20554,1,8,0:0:0:0:
264,176,20907,1,0,0:0:0:0:
264,176,21083,1,8,0:0:0:0:
264,176,21436,1,0,0:0:0:0:
264,176,21613,1,8,0:0:0:0:
264,176,21789,1,0,0:0:0:0:
264,176,21878,1,0,0:0:0:0:
264,176,21966,1,8,0:0:0:0:
264,176,22142,1,0,0:0:0:0:
264,176,22319,1,0,0:0:0:0:
264,176,22495,1,0,0:0:0:0:
264,176,22672,1,4,0:0:0:0:
264,176,23025,1,8,0:0:0:0:
264,176,23201,1,0,0:0:0:0:
264,176,23378,1,8,0:0:0:0:
264,176,23731,1,0,0:0:0:0:
264,176,23907,1,8,0:0:0:0:
264,176,23995,1,8,0:0:0:0:
264,176,24083,1,0,0:0:0:0:
264,176,24260,1,0,0:0:0:0:
264,176,24436,1,0,0:0:0:0:
264,176,24613,1,8,0:0:0:0:
264,176,24789,1,0,0:0:0:0:
264,176,25142,1,0,0:0:0:0:
264,176,25231,1,0,0:0:0:0:
264,176,25319,1,0,0:0:0:0:
264,176,25495,1,0,0:0:0:0:
264,176,25848,1,8,0:0:0:0:
264,176,26025,1,0,0:0:0:0:
264,176,26201,1,8,0:0:0:0:
264,176,26378,1,0,0:0:0:0:
264,176,26554,1,8,0:0:0:0:
304,176,26731,1,8,0:0:0:0:
264,176,26819,1,8,0:0:0:0:
264,176,26907,1,0,0:0:0:0:
264,176,27083,1,0,0:0:0:0:
224,160,27260,1,0,0:0:0:0:
224,160,27436,1,8,0:0:0:0:
224,160,27613,1,8,0:0:0:0:
224,160,27789,1,0,0:0:0:0:
224,160,28142,1,0,0:0:0:0:
224,160,28319,1,8,0:0:0:0:
224,160,28495,1,0,0:0:0:0:
224,160,28583,1,0,0:0:0:0:
264,176,28672,1,8,0:0:0:0:
224,160,28848,1,0,0:0:0:0:
224,160,29025,1,8,0:0:0:0:
224,160,29378,1,8,0:0:0:0:
224,160,29554,1,8,0:0:0:0:
224,160,29731,1,0,0:0:0:0:
224,160,29907,1,0,0:0:0:0:
224,160,29995,1,0,0:0:0:0:
184,144,30083,1,0,0:0:0:0:
184,144,30260,1,8,0:0:0:0:
184,144,30436,1,8,0:0:0:0:
184,144,30613,1,8,0:0:0:0:
184,144,30789,1,0,0:0:0:0:
184,144,30966,1,0,0:0:0:0:
184,144,31054,1,0,0:0:0:0:
184,144,31142,1,8,0:0:0:0:
184,144,31495,1,8,0:0:0:0:
184,144,31848,1,8,0:0:0:0:
184,144,32025,1,0,0:0:0:0:
184,144,32201,1,8,0:0:0:0:
184,144,32378,1,8,0:0:0:0:
184,144,32466,1,0,0:0:0:0:
184,144,32554,1,8,0:0:0:0:
184,144,32731,1,0,0:0:0:0:
184,144,32907,1,0,0:0:0:0:
177,144,33083,1,0,0:0:0:0:
184,144,33172,1,0,0:0:0:0:
184,144,33260,1,8,0:0:0:0:
184,144,33436,1,0,0:0:0:0:
184,144,33613,1,0,0:0:0:0:
152,144,33789,1,0,0:0:0:0:
184,144,33966,1,12,0:0:0:0:
184,144,34495,1,0,0:0:0:0:
184,144,34672,1,8,0:0:0:0:
184,144,35025,1,8,0:0:0:0:
184,144,35201,1,8,0:0:0:0:
184,144,35289,1,8,0:0:0:0:
184,144,35378,1,8,0:0:0:0:
184,144,35554,1,0,0:0:0:0:
184,144,35731,1,0,0:0:0:0:
184,144,35907,1,0,0:0:0:0:
280,144,36083,1,8,0:0:0:0:
280,144,36436,1,0,0:0:0:0:
280,144,36525,1,0,0:0:0:0:
280,144,36613,1,0,0:0:0:0:
280,144,36789,1,8,0:0:0:0:
280,144,36966,1,0,0:0:0:0:
280,144,37142,1,8,0:0:0:0:
224,56,37319,1,0,0:0:0:0:
184,144,37495,1,8,0:0:0:0:
184,144,37672,1,0,0:0:0:0:
184,144,37848,1,8,0:0:0:0:
184,144,38025,1,8,0:0:0:0:
184,144,38113,1,8,0:0:0:0:
184,144,38201,1,0,0:0:0:0:
184,144,38378,1,0,0:0:0:0:
184,144,38554,1,0,0:0:0:0:
184,144,38731,1,8,0:0:0:0:
184,144,38907,1,8,0:0:0:0:
184,144,39083,1,0,0:0:0:0:
184,144,39436,1,0,0:0:0:0:
184,144,39613,1,0,0:0:0:0:
184,144,39789,1,0,0:0:0:0:
184,144,39966,1,8,0:0:0:0:
184,144,40142,1,0,0:0:0:0:
256,192,40231,1,0,0:0:0:0:
184,144,40319,1,8,0:0:0:0:
256,192,40495,1,0,0:0:0:0:
304,144,40672,1,8,0:0:0:0:
312,200,40848,1,8,0:0:0:0:
264,264,41025,1,0,0:0:0:0:
192,128,41201,1,0,0:0:0:0:
184,224,41378,1,0,0:0:0:0:
184,224,41554,1,8,0:0:0:0:
216,216,41731,1,8,0:0:0:0:
184,224,42083,1,8,0:0:0:0:
184,224,42172,1,8,0:0:0:0:
184,224,42260,1,8,0:0:0:0:
248,144,42436,1,0,0:0:0:0:
248,144,42613,1,0,0:0:0:0:
184,224,42966,1,0,0:0:0:0:
184,224,43142,1,8,0:0:0:0:
216,216,43319,1,0,0:0:0:0:
216,216,43495,1,8,0:0:0:0:
184,224,43672,1,8,0:0:0:0:
184,224,43760,1,8,0:0:0:0:
184,224,43848,1,8,0:0:0:0:
184,224,44025,1,0,0:0:0:0:
184,224,44201,1,0,0:0:0:0:
184,224,44378,1,0,0:0:0:0:
184,224,44732,1,0,0:0:0:0:
184,224,44908,1,0,0:0:0:0:
184,224,45083,1,0,0:0:0:0:
184,224,45261,1,0,0:0:0:0:
184,224,45613,1,8,0:0:0:0:
184,224,45966,1,8,0:0:0:0:
184,224,47025,1,8,0:0:0:0:
184,224,47378,1,8,0:0:0:0:
184,224,48436,1,8,0:0:0:0:
184,224,48790,1,8,0:0:0:0:
184,224,49495,1,0,0:0:0:0:
184,224,49848,1,8,0:0:0:0:
184,224,50201,1,8,0:0:0:0:
184,224,50907,1,0,0:0:0:0:
184,224,51260,1,8,0:0:0:0:
184,224,51613,1,8,0:0:0:0:
184,224,52672,1,8,0:0:0:0:
184,224,53025,1,8,0:0:0:0:
184,224,54083,1,8,0:0:0:0:
184,224,54436,1,8,0:0:0:0:
184,224,55142,1,0,0:0:0:0:
184,224,55495,1,8,0:0:0:0:
184,224,55848,1,8,0:0:0:0:
184,224,56201,1,0,0:0:0:0:
184,224,56554,1,0,0:0:0:0:
184,224,56907,1,8,0:0:0:0:
184,224,57260,1,8,0:0:0:0:
184,224,58319,1,8,0:0:0:0:
184,224,58672,1,8,0:0:0:0:
184,224,59731,1,8,0:0:0:0:
184,224,60083,1,8,0:0:0:0:
184,224,60436,1,0,0:0:0:0:
184,224,60789,1,0,0:0:0:0:
184,224,61142,1,8,0:0:0:0:
184,224,61495,1,8,0:0:0:0:
184,224,62554,1,8,0:0:0:0:
184,224,62907,1,8,0:0:0:0:
184,224,63966,1,8,0:0:0:0:
184,224,64319,1,8,0:0:0:0:
184,224,65378,1,8,0:0:0:0:
184,224,65731,1,8,0:0:0:0:
184,224,66789,1,8,0:0:0:0:
184,224,67142,1,8,0:0:0:0:
184,224,67495,1,8,0:0:0:0:
184,224,67848,1,4,0:0:0:0:
184,224,68201,1,0,0:0:0:0:
184,224,68378,1,0,0:0:0:0:
184,224,68554,1,8,0:0:0:0:
184,224,68907,1,0,0:0:0:0:
184,224,69083,1,8,0:0:0:0:
184,224,69436,1,0,0:0:0:0:
184,224,69613,1,0,0:0:0:0:
184,224,69789,1,0,0:0:0:0:
184,224,69966,1,8,0:0:0:0:
184,224,70319,1,0,0:0:0:0:
184,224,70407,1,0,0:0:0:0:
184,224,70495,1,0,0:0:0:0:
184,224,70672,1,0,0:0:0:0:
184,224,71025,1,8,0:0:0:0:
184,224,71201,1,0,0:0:0:0:
184,224,71378,1,8,0:0:0:0:
216,224,71731,1,0,0:0:0:0:
216,224,71907,1,8,0:0:0:0:
184,224,72260,1,0,0:0:0:0:
184,224,72436,1,0,0:0:0:0:
184,224,72613,1,0,0:0:0:0:
184,224,72789,1,8,0:0:0:0:
184,224,72966,1,0,0:0:0:0:
184,224,73319,1,0,0:0:0:0:
184,224,73495,1,0,0:0:0:0:
184,224,73848,1,8,0:0:0:0:
184,224,74025,1,0,0:0:0:0:
184,224,74201,1,8,0:0:0:0:
184,224,74378,1,0,0:0:0:0:
184,224,74554,1,0,0:0:0:0:
184,224,74731,1,8,0:0:0:0:
184,224,75083,1,0,0:0:0:0:
184,224,75260,1,0,0:0:0:0:
184,224,75436,1,0,0:0:0:0:
184,224,75613,1,8,0:0:0:0:
184,224,75966,1,8,0:0:0:0:
184,224,76054,1,8,0:0:0:0:
184,224,76142,1,8,0:0:0:0:
184,224,76319,1,0,0:0:0:0:
184,224,76672,1,8,0:0:0:0:
184,224,76848,1,0,0:0:0:0:
184,224,77025,1,8,0:0:0:0:
184,224,77378,1,0,0:0:0:0:
184,224,77554,1,8,0:0:0:0:
184,224,77907,1,0,0:0:0:0:
184,224,78083,1,8,0:0:0:0:
184,224,78260,1,0,0:0:0:0:
184,224,78436,1,8,0:0:0:0:
184,224,78613,1,0,0:0:0:0:
184,224,78789,1,0,0:0:0:0:
184,224,78966,1,0,0:0:0:0:
184,224,79142,1,0,0:0:0:0:
184,224,79495,1,0,0:0:0:0:
184,224,79672,1,0,0:0:0:0:
184,224,79848,1,8,0:0:0:0:
184,224,80201,1,0,0:0:0:0:
184,224,80378,1,8,0:0:0:0:
184,224,80731,1,0,0:0:0:0:
184,224,80907,1,0,0:0:0:0:
184,224,81083,1,0,0:0:0:0:
184,224,81260,1,8,0:0:0:0:
184,224,81613,1,0,0:0:0:0:
184,224,81701,1,0,0:0:0:0:
184,224,81789,1,0,0:0:0:0:
184,224,81966,1,0,0:0:0:0:
184,224,82319,1,8,0:0:0:0:
184,224,82495,1,0,0:0:0:0:
184,224,82672,1,8,0:0:0:0:
184,224,83025,1,0,0:0:0:0:
184,224,83201,1,8,0:0:0:0:
184,224,83554,1,0,0:0:0:0:
184,224,83731,1,0,0:0:0:0:
184,224,83907,1,0,0:0:0:0:
184,224,84083,1,8,0:0:0:0:
184,224,84260,1,0,0:0:0:0:
184,224,84613,1,0,0:0:0:0:
184,224,84789,1,0,0:0:0:0:
184,224,85142,1,8,0:0:0:0:
184,224,85495,1,8,0:0:0:0:
184,224,85672,1,0,0:0:0:0:
184,224,85848,1,0,0:0:0:0:
184,224,86025,1,8,0:0:0:0:
184,224,86378,1,0,0:0:0:0:
184,224,86554,1,0,0:0:0:0:
184,224,86731,1,0,0:0:0:0:
184,224,86907,1,8,0:0:0:0:
152,224,87260,1,8,0:0:0:0:
184,224,87348,1,8,0:0:0:0:
184,224,87436,1,8,0:0:0:0:
184,224,87613,1,0,0:0:0:0:
184,224,87966,1,8,0:0:0:0:
152,224,88142,1,0,0:0:0:0:
152,224,88319,1,8,0:0:0:0:
184,224,88672,1,0,0:0:0:0:
184,224,88848,1,8,0:0:0:0:
184,224,89201,1,0,0:0:0:0:
184,224,89378,1,0,0:0:0:0:
184,224,89554,1,0,0:0:0:0:
184,224,89731,1,8,0:0:0:0:
184,224,89907,1,0,0:0:0:0:
184,224,90260,1,8,0:0:0:0:
184,224,90436,1,4,0:0:0:0:
184,224,90789,1,0,0:0:0:0:
184,224,90966,1,0,0:0:0:0:
184,224,91054,1,0,0:0:0:0:
184,224,91142,1,8,0:0:0:0:
184,224,91319,1,0,0:0:0:0:
184,224,91495,1,0,0:0:0:0:
184,224,91672,1,8,0:0:0:0:
184,224,92025,1,0,0:0:0:0:
184,224,92201,1,0,0:0:0:0:
184,224,92378,1,0,0:0:0:0:
184,224,92554,1,8,0:0:0:0:
184,224,92907,1,0,0:0:0:0:
184,224,92995,1,0,0:0:0:0:
184,224,93083,1,0,0:0:0:0:
184,224,93260,1,0,0:0:0:0:
184,224,93613,1,0,0:0:0:0:
184,224,93789,1,0,0:0:0:0:
184,224,93966,1,8,0:0:0:0:
184,224,94142,1,8,0:0:0:0:
184,224,94231,1,8,0:0:0:0:
184,224,94319,1,0,0:0:0:0:
184,224,94495,1,8,0:0:0:0:
184,224,94848,1,0,0:0:0:0:
184,224,95025,1,0,0:0:0:0:
184,224,95201,1,0,0:0:0:0:
184,224,95289,1,0,0:0:0:0:
184,224,95378,1,8,0:0:0:0:
184,224,95554,1,0,0:0:0:0:
184,224,95907,1,0,0:0:0:0:
184,224,96083,1,0,0:0:0:0:
184,224,96436,1,8,0:0:0:0:
184,224,96613,1,0,0:0:0:0:
184,224,96701,1,0,0:0:0:0:
184,224,96789,1,8,0:0:0:0:
184,224,96966,1,0,0:0:0:0:
184,224,97142,1,0,0:0:0:0:
184,224,97319,1,8,0:0:0:0:
184,224,97672,1,0,0:0:0:0:
184,224,97848,1,0,0:0:0:0:
184,224,98025,1,0,0:0:0:0:
184,224,98201,1,8,0:0:0:0:
184,224,98554,1,8,0:0:0:0:
184,224,98642,1,8,0:0:0:0:
184,224,98731,1,8,0:0:0:0:
184,224,98907,1,0,0:0:0:0:
184,224,99260,1,8,0:0:0:0:
184,224,99436,1,0,0:0:0:0:
184,224,99613,1,8,0:0:0:0:
184,224,99789,1,0,0:0:0:0:
184,224,99878,1,0,0:0:0:0:
184,224,99966,1,0,0:0:0:0:
184,224,100142,1,8,0:0:0:0:
184,224,100495,1,0,0:0:0:0:
184,224,100672,1,0,0:0:0:0:
184,224,100848,1,0,0:0:0:0:
184,224,101025,1,8,0:0:0:0:
184,224,101201,1,0,0:0:0:0:
184,224,101378,1,0,0:0:0:0:
184,224,101466,1,0,0:0:0:0:
184,224,101554,1,0,0:0:0:0:
184,224,101731,1,4,0:0:0:0:
184,224,102083,1,8,0:0:0:0:
184,224,102260,1,0,0:0:0:0:
184,224,102348,1,0,0:0:0:0:
184,224,102436,1,8,0:0:0:0:
184,224,102613,1,0,0:0:0:0:
184,224,102789,1,0,0:0:0:0:
184,224,102966,1,8,0:0:0:0:
184,224,103319,1,0,0:0:0:0:
184,224,103495,1,0,0:0:0:0:
184,224,103672,1,0,0:0:0:0:
184,224,103848,1,8,0:0:0:0:
184,224,104201,1,0,0:0:0:0:
184,224,104289,1,0,0:0:0:0:
184,224,104378,1,0,0:0:0:0:
184,224,104554,1,0,0:0:0:0:
184,224,104907,1,8,0:0:0:0:
184,224,105083,1,0,0:0:0:0:
184,224,105260,1,8,0:0:0:0:
184,224,105436,1,8,0:0:0:0:
184,224,105525,1,8,0:0:0:0:
184,224,105613,1,0,0:0:0:0:
184,224,105789,1,8,0:0:0:0:
184,224,106142,1,0,0:0:0:0:
184,224,106319,1,0,0:0:0:0:
184,224,106495,1,0,0:0:0:0:
184,224,106672,1,8,0:0:0:0:
184,224,106848,1,0,0:0:0:0:
184,224,107201,1,0,0:0:0:0:
184,224,107378,1,0,0:0:0:0:
184,224,107731,1,0,0:0:0:0:
184,224,107907,1,0,0:0:0:0:
184,224,107995,1,0,0:0:0:0:
184,224,108083,1,8,0:0:0:0:
184,224,108260,1,0,0:0:0:0:
184,224,108436,1,0,0:0:0:0:
184,224,108613,1,8,0:0:0:0:
184,224,108966,1,0,0:0:0:0:
184,224,109142,1,0,0:0:0:0:
184,224,109319,1,0,0:0:0:0:
184,224,109495,1,8,0:0:0:0:
184,224,109672,1,0,0:0:0:0:
184,224,109848,1,8,0:0:0:0:
184,224,109936,1,8,0:0:0:0:
184,224,110025,1,8,0:0:0:0:
184,224,110201,1,0,0:0:0:0:
184,224,110554,1,8,0:0:0:0:
184,224,110731,1,0,0:0:0:0:
184,224,110907,1,8,0:0:0:0:
184,224,111083,1,0,0:0:0:0:
184,224,111172,1,0,0:0:0:0:
184,224,111260,1,0,0:0:0:0:
184,224,111436,1,8,0:0:0:0:
184,224,111789,1,0,0:0:0:0:
184,224,111966,1,0,0:0:0:0:
184,224,112142,1,0,0:0:0:0:
187,219,112231,1,0,0:0:0:0:
184,224,112319,1,8,0:0:0:0:
184,224,112495,1,0,0:0:0:0:
184,224,112672,1,0,0:0:0:0:
184,224,112760,1,0,0:0:0:0:
184,224,112848,1,0,0:0:0:0:
184,224,113025,1,12,0:0:0:0:
184,224,114436,1,0,0:0:0:0:
184,224,114789,1,0,0:0:0:0:
184,224,114966,1,0,0:0:0:0:
184,224,115142,1,0,0:0:0:0:
184,224,115319,1,8,0:0:0:0:
184,224,115495,1,0,0:0:0:0:
184,224,115672,1,0,0:0:0:0:
184,224,115848,1,12,0:0:0:0:
184,224,116201,1,8,0:0:0:0:
184,224,116378,1,0,0:0:0:0:
184,224,116554,1,8,0:0:0:0:
184,224,116907,1,0,0:0:0:0:
184,224,117083,1,8,0:0:0:0:
184,224,117436,1,0,0:0:0:0:
184,224,117613,1,0,0:0:0:0:
184,224,117789,1,0,0:0:0:0:
184,224,117966,1,8,0:0:0:0:
184,224,118319,1,0,0:0:0:0:
184,224,118407,1,0,0:0:0:0:
184,224,118495,1,0,0:0:0:0:
184,224,118672,1,0,0:0:0:0:
184,224,119025,1,8,0:0:0:0:
184,224,119201,1,0,0:0:0:0:
184,224,119378,1,8,0:0:0:0:
184,224,119731,1,0,0:0:0:0:
184,224,119907,1,8,0:0:0:0:
184,224,120260,1,0,0:0:0:0:
184,224,120348,1,0,0:0:0:0:
184,224,120436,1,0,0:0:0:0:
184,224,120613,1,0,0:0:0:0:
184,224,120789,1,8,0:0:0:0:
184,224,120966,1,0,0:0:0:0:
184,224,121142,1,0,0:0:0:0:
184,224,121319,1,0,0:0:0:0:
184,224,121407,1,0,0:0:0:0:
184,224,121495,1,0,0:0:0:0:
184,224,121848,1,0,0:0:0:0:
184,224,122025,1,0,0:0:0:0:
184,224,122201,1,8,0:0:0:0:
184,224,122554,1,0,0:0:0:0:
184,224,122731,1,8,0:0:0:0:
184,224,123083,1,0,0:0:0:0:
184,224,123260,1,0,0:0:0:0:
184,224,123436,1,0,0:0:0:0:
184,224,123613,1,8,0:0:0:0:
184,224,123966,1,8,0:0:0:0:
184,224,124054,1,8,0:0:0:0:
184,224,124142,1,8,0:0:0:0:
184,224,124319,1,0,0:0:0:0:
184,224,124672,1,8,0:0:0:0:
184,224,124848,1,0,0:0:0:0:
184,224,125025,1,8,0:0:0:0:
184,224,125378,1,0,0:0:0:0:
184,224,125554,1,8,0:0:0:0:
184,224,125907,1,0,0:0:0:0:
184,224,125995,1,0,0:0:0:0:
184,224,126083,1,0,0:0:0:0:
184,224,126260,1,0,0:0:0:0:
184,224,126436,1,8,0:0:0:0:
184,224,126613,1,0,0:0:0:0:
184,224,126789,1,8,0:0:0:0:
184,224,126966,1,0,0:0:0:0:
184,224,127054,1,0,0:0:0:0:
184,224,127142,1,0,0:0:0:0:
184,224,127495,1,0,0:0:0:0:
184,224,127848,1,8,0:0:0:0:
184,224,128201,1,0,0:0:0:0:
184,224,128378,1,8,0:0:0:0:
184,224,128731,1,8,0:0:0:0:
144,224,128907,1,0,0:0:0:0:
184,224,129083,1,0,0:0:0:0:
184,224,129260,1,8,0:0:0:0:
184,224,129613,1,8,0:0:0:0:
184,224,129701,1,8,0:0:0:0:
184,224,129789,1,8,0:0:0:0:
184,224,129966,1,0,0:0:0:0:
144,224,130319,1,8,0:0:0:0:
144,224,130495,1,0,0:0:0:0:
184,224,130672,1,8,0:0:0:0:
184,224,131025,1,0,0:0:0:0:
184,224,131201,1,8,0:0:0:0:
184,224,131554,1,0,0:0:0:0:
184,224,131642,1,0,0:0:0:0:
184,224,131731,1,0,0:0:0:0:
184,224,131907,1,0,0:0:0:0:
184,224,132083,1,8,0:0:0:0:
184,224,132260,1,0,0:0:0:0:
184,224,132613,1,8,0:0:0:0:
184,224,132789,1,0,0:0:0:0:
184,224,133142,1,0,0:0:0:0:
184,224,133495,1,8,0:0:0:0:
184,224,133672,1,0,0:0:0:0:
184,224,133848,1,0,0:0:0:0:
184,224,134025,1,8,0:0:0:0:
184,224,134378,1,0,0:0:0:0:
184,224,134554,1,0,0:0:0:0:
152,224,134731,1,0,0:0:0:0:
184,224,134907,1,8,0:0:0:0:
184,224,135260,1,0,0:0:0:0:
184,224,135348,1,0,0:0:0:0:
184,224,135436,1,0,0:0:0:0:
184,224,135613,1,0,0:0:0:0:
184,224,135966,1,0,0:0:0:0:
184,224,136319,1,8,0:0:0:0:
184,224,136495,1,0,0:0:0:0:
184,224,136672,1,0,0:0:0:0:
184,224,136848,1,8,0:0:0:0:
184,224,137201,1,0,0:0:0:0:
184,224,137378,1,0,0:0:0:0:
184,224,137554,1,0,0:0:0:0:
184,224,137642,1,0,0:0:0:0:
184,224,137731,1,8,0:0:0:0:
184,224,137907,1,12,0:0:0:0:
184,224,138260,1,8,0:0:0:0:
184,224,138436,1,4,0:0:0:0:
184,224,138789,1,0,0:0:0:0:
184,224,139142,1,8,0:0:0:0:
184,224,139495,1,0,0:0:0:0:
184,224,139672,1,8,0:0:0:0:
184,224,140025,1,0,0:0:0:0:
152,216,140201,1,0,0:0:0:0:
152,216,140378,1,0,0:0:0:0:
184,224,140554,1,8,0:0:0:0:
184,224,140907,1,8,0:0:0:0:
184,224,140995,1,8,0:0:0:0:
184,224,141083,1,8,0:0:0:0:
184,224,141260,1,0,0:0:0:0:
184,224,141613,1,8,0:0:0:0:
152,216,141789,1,0,0:0:0:0:
152,216,141966,1,8,0:0:0:0:
152,216,142319,1,0,0:0:0:0:
152,216,142495,1,8,0:0:0:0:
184,224,142848,1,0,0:0:0:0:
184,224,143025,1,0,0:0:0:0:
184,224,143201,1,0,0:0:0:0:
184,224,143289,1,0,0:0:0:0:
152,216,143378,1,8,0:0:0:0:
184,224,143554,1,0,0:0:0:0:
184,224,143907,1,8,0:0:0:0:
184,224,144083,1,4,0:0:0:0:
184,224,144436,1,0,0:0:0:0:
184,224,144613,1,0,0:0:0:0:
184,224,144789,1,8,0:0:0:0:
184,224,145142,1,0,0:0:0:0:
184,224,145319,1,8,0:0:0:0:
184,224,145672,1,0,0:0:0:0:
184,224,145848,1,0,0:0:0:0:
184,224,146025,1,0,0:0:0:0:
184,224,146201,1,8,0:0:0:0:
184,224,146378,1,0,0:0:0:0:
184,224,146554,1,8,0:0:0:0:
184,224,146642,1,8,0:0:0:0:
184,224,146731,1,8,0:0:0:0:
184,224,146907,1,0,0:0:0:0:
184,224,147260,1,8,0:0:0:0:
184,224,147436,1,0,0:0:0:0:
184,224,147613,1,8,0:0:0:0:
184,224,147966,1,0,0:0:0:0:
184,224,148142,1,8,0:0:0:0:
184,224,148495,1,0,0:0:0:0:
184,224,148672,1,0,0:0:0:0:
184,224,148848,1,0,0:0:0:0:
184,224,148936,1,0,0:0:0:0:
184,224,149025,1,8,0:0:0:0:
184,224,149201,1,0,0:0:0:0:
184,224,149378,1,0,0:0:0:0:
184,224,149466,1,0,0:0:0:0:
184,224,149554,1,0,0:0:0:0:
184,224,149731,1,12,0:0:0:0:
184,224,150083,1,0,0:0:0:0:
184,224,150260,1,0,0:0:0:0:
184,224,150436,1,8,0:0:0:0:
184,224,150789,1,0,0:0:0:0:
184,224,150966,1,8,0:0:0:0:
184,224,151319,1,0,0:0:0:0:
184,224,151495,1,0,0:0:0:0:
184,224,151672,1,0,0:0:0:0:
184,224,151848,1,8,0:0:0:0:
184,224,152201,1,8,0:0:0:0:
184,224,152289,1,8,0:0:0:0:
184,224,152378,1,8,0:0:0:0:
144,224,152554,1,0,0:0:0:0:
184,224,152907,1,8,0:0:0:0:
184,224,153083,1,0,0:0:0:0:
184,224,153260,1,8,0:0:0:0:
184,224,153613,1,0,0:0:0:0:
184,224,153789,1,8,0:0:0:0:
184,224,154142,1,0,0:0:0:0:
184,224,154319,1,0,0:0:0:0:
184,224,154495,1,0,0:0:0:0:
184,224,154583,1,0,0:0:0:0:
184,224,154672,1,8,0:0:0:0:
184,224,154848,1,0,0:0:0:0:
184,224,155201,1,0,0:0:0:0:
184,224,155378,1,12,0:0:0:0:
184,224,155731,1,0,0:0:0:0:
184,224,156083,1,8,0:0:0:0:
184,224,156436,1,0,0:0:0:0:
184,224,156613,1,8,0:0:0:0:
184,224,156966,1,0,0:0:0:0:
184,224,157142,1,0,0:0:0:0:
184,224,157319,1,0,0:0:0:0:
184,224,157407,1,0,0:0:0:0:
184,224,157495,1,8,0:0:0:0:
184,224,157672,1,0,0:0:0:0:
184,224,157848,1,8,0:0:0:0:
184,224,157936,1,8,0:0:0:0:
184,224,158025,1,8,0:0:0:0:
152,232,158201,1,0,0:0:0:0:
192,152,158554,1,8,0:0:0:0:
192,152,158731,1,0,0:0:0:0:
192,152,158907,1,8,0:0:0:0:
192,152,159083,1,0,0:0:0:0:
192,152,159436,1,0,0:0:0:0:
192,152,159613,1,12,0:0:0:0:
192,152,159789,1,0,0:0:0:0:
192,152,160142,1,0,0:0:0:0:
192,152,160319,1,12,0:0:0:0:
192,152,160495,1,0,0:0:0:0:
248,160,160672,1,0,0:0:0:0:
248,160,160761,1,0,0:0:0:0:
192,152,160848,1,8,0:0:0:0:
248,160,161025,1,4,0:0:0:0:
248,160,161554,1,0,0:0:0:0:
248,160,161731,1,8,0:0:0:0:
248,160,162083,1,0,0:0:0:0:
248,160,162260,1,8,0:0:0:0:
248,160,162436,1,8,0:0:0:0:
248,160,162613,1,0,0:0:0:0:
248,160,162789,1,0,0:0:0:0:
248,160,162966,1,0,0:0:0:0:
248,160,163054,1,0,0:0:0:0:
248,160,163142,1,8,0:0:0:0:
248,160,163672,1,8,0:0:0:0:
248,160,163760,1,8,0:0:0:0:
248,160,163848,1,8,0:0:0:0:
248,160,164025,1,0,0:0:0:0:
248,160,164201,1,8,0:0:0:0:
248,160,164554,1,8,0:0:0:0:
248,160,164907,1,0,0:0:0:0:
248,160,165083,1,8,0:0:0:0:
248,160,165172,1,8,0:0:0:0:
248,160,165260,1,8,0:0:0:0:
248,160,165436,1,0,0:0:0:0:
248,160,165613,1,0,0:0:0:0:
248,160,165789,1,0,0:0:0:0:
248,160,165966,1,8,0:0:0:0:
248,160,166142,1,0,0:0:0:0:
248,160,166495,1,0,0:0:0:0:
248,160,166672,1,12,0:0:0:0:
248,160,167025,1,0,0:0:0:0:
216,160,167378,1,8,0:0:0:0:
248,160,167731,1,0,0:0:0:0:
248,160,167907,1,8,0:0:0:0:
248,160,167995,1,8,0:0:0:0:
248,160,168083,1,8,0:0:0:0:
216,160,168260,1,0,0:0:0:0:
216,160,168436,1,0,0:0:0:0:
216,160,168613,1,0,0:0:0:0:
216,160,168789,1,8,0:0:0:0:
248,160,168966,1,0,0:0:0:0:
248,160,169319,1,0,0:0:0:0:
248,168,169407,1,0,0:0:0:0:
248,160,169495,1,8,0:0:0:0:
248,160,169672,1,0,0:0:0:0:
216,160,169848,1,8,0:0:0:0:
216,160,170025,1,0,0:0:0:0:
248,160,170201,1,8,0:0:0:0:
248,160,170554,1,0,0:0:0:0:
248,160,170731,1,8,0:0:0:0:
248,160,170819,1,8,0:0:0:0:
248,160,170907,1,8,0:0:0:0:
248,160,171083,1,0,0:0:0:0:
248,160,171260,1,0,0:0:0:0:
216,160,171436,1,0,0:0:0:0:
248,160,171525,1,0,0:0:0:0:
216,160,171613,1,8,0:0:0:0:
248,160,171789,1,0,0:0:0:0:
248,160,171966,1,0,0:0:0:0:
248,160,172142,1,0,0:0:0:0:
248,160,172319,1,12,0:0:0:0:
248,160,172672,1,0,0:0:0:0:
248,160,172848,1,0,0:0:0:0:
248,160,173025,1,8,0:0:0:0:
216,160,173201,1,0,0:0:0:0:
184,160,173378,1,8,0:0:0:0:
248,160,173554,1,8,0:0:0:0:
248,160,173642,1,0,0:0:0:0:
248,160,173731,1,0,0:0:0:0:
248,160,173907,1,0,0:0:0:0:
248,160,174083,1,8,0:0:0:0:
248,160,174260,1,0,0:0:0:0:
248,160,174436,1,8,0:0:0:0:
248,160,174966,1,0,0:0:0:0:
248,160,175054,1,0,0:0:0:0:
248,160,175142,1,8,0:0:0:0:
248,160,175495,1,8,0:0:0:0:
248,160,175848,1,8,0:0:0:0:
248,160,176025,1,0,0:0:0:0:
248,160,176201,1,8,0:0:0:0:
248,160,176378,1,8,0:0:0:0:
248,160,176466,1,8,0:0:0:0:
248,160,176554,1,8,0:0:0:0:
248,160,176731,1,0,0:0:0:0:
248,160,176907,1,0,0:0:0:0:
248,160,177083,1,0,0:0:0:0:
248,160,177260,1,8,0:0:0:0:
248,160,177436,1,0,0:0:0:0:
248,160,177789,1,0,0:0:0:0:
248,160,177966,1,12,0:0:0:0:
248,160,178319,1,8,0:0:0:0:
248,160,178495,1,0,0:0:0:0:
248,160,178672,1,8,0:0:0:0:
216,176,178848,1,0,0:0:0:0:
216,176,179025,1,0,0:0:0:0:
216,176,179201,1,8,0:0:0:0:
248,168,179289,1,8,0:0:0:0:
248,160,179378,1,8,0:0:0:0:
240,168,179554,1,0,0:0:0:0:
248,160,179731,1,0,0:0:0:0:
248,160,179907,1,0,0:0:0:0:
248,160,179995,1,8,0:0:0:0:
248,160,180083,1,8,0:0:0:0:
248,152,180260,1,0,0:0:0:0:
216,176,180436,1,0,0:0:0:0:
248,160,180613,1,0,0:0:0:0:
248,160,180701,1,0,0:0:0:0:
248,160,180789,1,8,0:0:0:0:
256,192,180966,12,0,183260,0:0:0:0:
264,184,183613,5,4,0:0:0:0:
264,184,183966,5,8,0:0:0:0:
264,184,184142,1,0,0:0:0:0:
264,184,184319,1,8,0:0:0:0:
264,184,184672,1,0,0:0:0:0:
264,184,184848,1,0,0:0:0:0:
264,184,184936,1,0,0:0:0:0:
264,184,185025,1,8,0:0:0:0:
264,184,185201,1,0,0:0:0:0:
264,184,185378,1,8,0:0:0:0:
264,184,185554,1,8,0:0:0:0:
264,184,185731,1,0,0:0:0:0:
264,184,186083,1,8,0:0:0:0:
264,184,186260,1,0,0:0:0:0:
264,184,186348,1,0,0:0:0:0:
264,184,186436,1,0,0:0:0:0:
264,184,186789,1,8,0:0:0:0:
264,184,186966,1,0,0:0:0:0:
264,184,187142,1,8,0:0:0:0:
264,184,187495,1,0,0:0:0:0:
264,184,187672,1,8,0:0:0:0:
264,184,187760,1,8,0:0:0:0:
264,184,187848,1,8,0:0:0:0:
264,184,188025,1,0,0:0:0:0:
264,184,188201,1,8,0:0:0:0:
264,184,188378,1,0,0:0:0:0:
264,184,188554,1,8,0:0:0:0:
264,184,188731,1,0,0:0:0:0:
264,184,189083,1,0,0:0:0:0:
264,184,189260,1,4,0:0:0:0:
264,184,189613,1,8,0:0:0:0:
264,184,189789,1,0,0:0:0:0:
264,184,189966,1,8,0:0:0:0:
264,184,190319,1,0,0:0:0:0:
264,184,190495,1,0,0:0:0:0:
264,184,190583,1,0,0:0:0:0:
264,184,190672,1,8,0:0:0:0:
264,184,190848,1,0,0:0:0:0:
264,184,191025,1,8,0:0:0:0:
264,184,191201,1,0,0:0:0:0:
264,184,191378,1,8,0:0:0:0:
264,184,191554,1,8,0:0:0:0:
264,184,191731,1,0,0:0:0:0:
264,184,191907,1,8,0:0:0:0:
264,184,191995,1,0,0:0:0:0:
264,184,192083,1,8,0:0:0:0:
264,184,192436,1,0,0:0:0:0:
264,184,192613,1,0,0:0:0:0:
264,176,192701,1,0,0:0:0:0:
264,184,192789,1,8,0:0:0:0:
264,184,193142,1,0,0:0:0:0:
264,184,193319,1,8,0:0:0:0:
264,184,193407,1,0,0:0:0:0:
264,184,193495,1,8,0:0:0:0:
264,184,193672,1,0,0:0:0:0:
264,184,193848,1,0,0:0:0:0:
264,184,194025,1,0,0:0:0:0:
264,184,194201,1,8,0:0:0:0:
264,192,194289,1,0,0:0:0:0:
264,184,194378,1,0,0:0:0:0:
264,192,194466,1,0,0:0:0:0:
264,184,194554,1,8,0:0:0:0:
264,184,194731,1,0,0:0:0:0:
264,184,194907,1,4,0:0:0:0:
264,184,195260,1,8,0:0:0:0:
264,184,195436,1,0,0:0:0:0:
264,184,195613,1,8,0:0:0:0:
264,184,195966,1,0,0:0:0:0:
264,184,196142,1,0,0:0:0:0:
264,184,196231,1,0,0:0:0:0:
264,184,196319,1,8,0:0:0:0:
264,184,196495,1,0,0:0:0:0:
264,184,196672,1,0,0:0:0:0:
264,184,196848,1,8,0:0:0:0:
264,184,197025,1,8,0:0:0:0:
264,184,197378,1,0,0:0:0:0:
264,184,197466,1,0,0:0:0:0:
264,184,197554,1,0,0:0:0:0:
264,184,197731,1,0,0:0:0:0:
264,184,198083,1,0,0:0:0:0:
264,184,198260,1,0,0:0:0:0:
264,184,198436,1,8,0:0:0:0:
264,184,198789,1,0,0:0:0:0:
264,184,198966,1,8,0:0:0:0:
264,184,199054,1,8,0:0:0:0:
264,184,199142,1,8,0:0:0:0:
264,184,199319,1,0,0:0:0:0:
264,184,199495,1,0,0:0:0:0:
264,184,199672,1,0,0:0:0:0:
264,184,199848,1,8,0:0:0:0:
264,184,200025,1,0,0:0:0:0:
264,184,200378,1,8,0:0:0:0:
264,184,200554,1,4,0:0:0:0:
264,184,200907,1,8,0:0:0:0:
264,184,201083,1,0,0:0:0:0:
264,184,201260,1,8,0:0:0:0:
264,184,201613,1,0,0:0:0:0:
264,184,201789,1,0,0:0:0:0:
264,184,201878,1,0,0:0:0:0:
264,184,201966,1,8,0:0:0:0:
264,184,202142,1,0,0:0:0:0:
264,184,202319,1,0,0:0:0:0:
264,184,202495,1,0,0:0:0:0:
264,184,202672,1,8,0:0:0:0:
264,184,203025,1,0,0:0:0:0:
264,184,203113,1,0,0:0:0:0:
264,184,203201,1,0,0:0:0:0:
264,184,203378,1,0,0:0:0:0:
264,184,203731,1,0,0:0:0:0:
264,184,203907,1,0,0:0:0:0:
264,184,204083,1,8,0:0:0:0:
264,184,204437,1,8,0:0:0:0:
264,184,204613,1,0,0:0:0:0:
264,184,204701,1,0,0:0:0:0:
264,184,204790,1,8,0:0:0:0:
264,184,204966,1,4,0:0:0:0:
264,184,205319,1,0,0:0:0:0:
264,184,205407,1,0,0:0:0:0:
264,184,205495,1,8,0:0:0:0:
264,184,205672,1,4,0:0:0:0:
264,184,206025,1,8,0:0:0:0:
264,184,206201,1,4,0:0:0:0:
264,184,206554,1,8,0:0:0:0:
264,184,206731,1,0,0:0:0:0:
264,184,206907,1,8,0:0:0:0:
264,184,207260,1,0,0:0:0:0:
264,184,207437,1,0,0:0:0:0:
264,184,207525,1,0,0:0:0:0:
264,184,207613,1,8,0:0:0:0:
264,184,207790,1,0,0:0:0:0:
264,184,207966,1,0,0:0:0:0:
264,184,208143,1,0,0:0:0:0:
264,184,208319,1,8,0:0:0:0:
264,184,208672,1,0,0:0:0:0:
264,184,208848,1,0,0:0:0:0:
264,184,208936,1,0,0:0:0:0:
264,184,209025,1,8,0:0:0:0:
264,184,209378,1,8,0:0:0:0:
264,184,209554,1,0,0:0:0:0:
264,184,209731,1,8,0:0:0:0:
264,184,209907,1,0,0:0:0:0:
264,184,210084,1,8,0:0:0:0:
264,184,210260,1,8,0:0:0:0:
264,184,210348,1,8,0:0:0:0:
264,184,210437,1,0,0:0:0:0:
264,184,210613,1,0,0:0:0:0:
264,184,210790,1,0,0:0:0:0:
264,184,210966,1,8,0:0:0:0:
264,184,211054,1,8,0:0:0:0:
264,184,211143,1,8,0:0:0:0:
264,184,211319,1,0,0:0:0:0:
264,184,211672,1,8,0:0:0:0:
264,184,211848,1,4,0:0:0:0:
264,184,212201,1,8,0:0:0:0:
264,184,212378,1,0,0:0:0:0:
264,184,212554,1,8,0:0:0:0:
264,184,212907,1,0,0:0:0:0:
264,184,213083,1,0,0:0:0:0:
264,184,213172,1,0,0:0:0:0:
264,184,213260,1,8,0:0:0:0:
264,184,213436,1,0,0:0:0:0:
264,184,213613,1,0,0:0:0:0:
264,184,213789,1,0,0:0:0:0:
264,184,213966,1,8,0:0:0:0:
264,184,214142,1,0,0:0:0:0:
264,184,214319,1,8,0:0:0:0:
264,184,214495,1,0,0:0:0:0:
256,192,214583,1,0,0:0:0:0:
264,184,214672,1,0,0:0:0:0:
264,184,215025,1,0,0:0:0:0:
264,184,215378,1,8,0:0:0:0:
264,184,215554,1,0,0:0:0:0:
264,184,215731,1,8,0:0:0:0:
264,184,216083,1,8,0:0:0:0:
264,184,216260,1,0,0:0:0:0:
264,184,216348,1,0,0:0:0:0:
264,184,216436,1,0,0:0:0:0:
264,184,216613,1,0,0:0:0:0:
264,184,216789,1,8,0:0:0:0:
296,192,216966,1,0,0:0:0:0:
264,184,217142,1,8,0:0:0:0:
264,184,217231,1,0,0:0:0:0:
264,184,217319,1,0,0:0:0:0:
264,184,217495,1,12,0:0:0:0:
264,184,218025,1,0,0:0:0:0:
264,184,218201,1,8,0:0:0:0:
264,184,218554,1,8,0:0:0:0:
264,184,218731,1,0,0:0:0:0:
264,184,218819,1,0,0:0:0:0:
264,184,218907,1,8,0:0:0:0:
264,184,219083,1,0,0:0:0:0:
264,184,219260,1,0,0:0:0:0:
264,184,219436,1,8,0:0:0:0:
264,184,219613,1,8,0:0:0:0:
264,184,219966,1,0,0:0:0:0:
264,184,220142,1,8,0:0:0:0:
264,184,220231,1,8,0:0:0:0:
264,184,220319,1,8,0:0:0:0:
264,184,220495,1,0,0:0:0:0:
264,184,220672,1,8,0:0:0:0:
296,192,220848,1,0,0:0:0:0:
264,184,221025,1,8,0:0:0:0:
264,184,221378,1,8,0:0:0:0:
264,184,221554,1,8,0:0:0:0:
264,184,221642,1,8,0:0:0:0:
264,184,221731,1,0,0:0:0:0:
264,184,221907,1,0,0:0:0:0:
264,184,222083,1,0,0:0:0:0:
264,184,222260,1,8,0:0:0:0:
264,184,222436,1,8,0:0:0:0:
264,184,222613,1,0,0:0:0:0:
264,184,222966,1,8,0:0:0:0:
264,184,223142,1,4,0:0:0:0:
264,184,223495,1,0,0:0:0:0:
264,184,223672,1,0,0:0:0:0:
264,184,223848,1,8,0:0:0:0:
264,184,224201,1,8,0:0:0:0:
264,184,224378,1,0,0:0:0:0:
264,184,224466,1,0,0:0:0:0:
264,184,224554,1,8,0:0:0:0:
264,184,224731,1,0,0:0:0:0:
264,184,224907,1,0,0:0:0:0:
264,184,225083,1,0,0:0:0:0:
264,184,225260,1,8,0:0:0:0:
264,184,225436,1,0,0:0:0:0:
264,184,225613,1,8,0:0:0:0:
264,184,225701,1,0,0:0:0:0:
264,184,225789,1,0,0:0:0:0:
264,184,225878,1,0,0:0:0:0:
264,184,225966,1,0,0:0:0:0:
264,184,226319,1,8,0:0:0:0:
264,184,226495,1,0,0:0:0:0:
264,184,226583,1,0,0:0:0:0:
264,184,226672,1,8,0:0:0:0:
264,192,226848,1,0,0:0:0:0:
264,184,227025,1,8,0:0:0:0:
264,184,227201,1,8,0:0:0:0:
264,184,227289,1,0,0:0:0:0:
264,184,227378,1,8,0:0:0:0:
232,176,227554,1,0,0:0:0:0:
232,176,227731,1,0,0:0:0:0:
232,176,227907,1,0,0:0:0:0:
232,176,227995,1,0,0:0:0:0:
232,176,228083,1,8,0:0:0:0:
232,176,228260,1,0,0:0:0:0:
232,176,228613,1,0,0:0:0:0:
232,176,228789,1,0,0:0:0:0:
