osu file format v14

[General]
AudioFilename: 08 Waiting For The End.mp3
AudioLeadIn: 0
PreviewTime: 161025
Countdown: 0
SampleSet: Normal
StackLeniency: 0.7
Mode: 1
LetterboxInBreaks: 0
WidescreenStoryboard: 1

[Editor]
DistanceSpacing: 1
BeatDivisor: 4
GridSize: 8
TimelineZoom: 1

[Metadata]
Title:Waiting For The End
TitleUnicode:Waiting For The End
Artist:Linkin Park
ArtistUnicode:Linkin Park
Creator:neonat
Version:Muzukashii
Source:
Tags:A Thousand Suns Alternative Rock English
BeatmapID:661368
BeatmapSetID:294118

[Difficulty]
HPDrainRate:5
CircleSize:4
OverallDifficulty:5
ApproachRate:7
SliderMultiplier:1.4
SliderTickRate:1

[Events]
//Background and Video events
0,0,"waiting_for_the_end_by_djnightmare9-d7b6jfz.jpg",0,0
//Break Periods
//Storyboard Layer 0 (Background)
//Storyboard Layer 1 (Fail)
//Storyboard Layer 2 (Pass)
//Storyboard Layer 3 (Foreground)
//Storyboard Layer 4 (Overlay)
//Storyboard Sound Samples

[TimingPoints]
84,352.941176470588,4,1,0,65,1,0
44731,-105.263157894737,4,1,0,65,0,0
44907,-108.695652173913,4,1,0,65,0,0
45083,-112.359550561798,4,1,0,65,0,0
45260,-116.279069767442,4,1,0,45,0,0
45436,-120.481927710843,4,1,0,45,0,0
45613,-125,4,1,0,45,0,0
66789,-117.647058823529,4,1,0,45,0,0
67142,-111.111111111111,4,1,0,45,0,0
67495,-105.263157894737,4,1,0,45,0,0
67848,-100,4,1,0,65,0,0
183613,-100,4,1,0,85,0,1
228789,-100,4,1,0,65,0,0

[Colours]
Combo1 : 136,250,253
Combo2 : 199,232,121
Combo3 : 135,197,241
Combo4 : 244,147,193

[HitObjects]
256,192,6436,5,8,0:0:0:0:
256,192,7495,1,8,0:0:0:0:
256,192,7848,1,8,0:0:0:0:
256,192,8907,1,8,0:0:0:0:
256,192,9260,1,8,0:0:0:0:
256,192,9966,1,8,0:0:0:0:
256,192,10142,1,0,0:0:0:0:
256,192,10319,1,0,0:0:0:0:
256,192,10672,1,8,0:0:0:0:
256,192,10848,1,0,0:0:0:0:
256,192,11025,1,0,0:0:0:0:
256,192,11201,1,0,0:0:0:0:
256,192,11378,1,12,0:0:0:0:
256,192,11731,1,0,0:0:0:0:
256,192,12083,1,8,0:0:0:0:
256,192,12613,1,8,0:0:0:0:
256,192,12966,1,0,0:0:0:0:
256,192,13319,1,0,0:0:0:0:
256,192,13495,1,8,0:0:0:0:
264,184,14201,1,0,0:0:0:0:
256,192,14554,1,0,0:0:0:0:
256,192,14907,1,8,0:0:0:0:
256,192,15436,1,8,0:0:0:0:
256,192,15789,1,0,0:0:0:0:
256,192,15966,1,0,0:0:0:0:
256,192,16142,1,0,0:0:0:0:
256,192,16319,1,8,0:0:0:0:
256,192,16495,1,0,0:0:0:0:
256,192,16848,1,8,0:0:0:0:
256,192,17025,1,0,0:0:0:0:
256,192,17378,1,0,0:0:0:0:
256,192,17731,1,8,0:0:0:0:
256,192,18260,1,8,0:0:0:0:
256,192,18613,1,0,0:0:0:0:
256,192,18966,1,0,0:0:0:0:
256,192,19142,1,8,0:0:0:0:
256,192,19848,1,0,0:0:0:0:
256,192,20201,1,0,0:0:0:0:
256,192,20554,1,8,0:0:0:0:
256,192,21083,1,8,0:0:0:0:
256,192,21436,1,0,0:0:0:0:
256,192,21613,1,0,0:0:0:0:
256,192,21789,1,0,0:0:0:0:
256,192,21966,1,8,0:0:0:0:
256,192,22142,1,0,0:0:0:0:
256,192,22495,1,0,0:0:0:0:
256,192,22672,1,4,0:0:0:0:
256,192,23025,1,8,0:0:0:0:
256,192,23378,1,8,0:0:0:0:
256,192,23731,1,0,0:0:0:0:
256,192,24083,1,8,0:0:0:0:
256,192,24260,1,0,0:0:0:0:
256,192,24436,1,0,0:0:0:0:
256,192,24613,1,0,0:0:0:0:
256,192,24789,1,8,0:0:0:0:
256,192,25319,1,0,0:0:0:0:
256,192,25495,1,8,0:0:0:0:
264,192,25848,1,0,0:0:0:0:
256,192,26201,1,8,0:0:0:0:
256,192,26554,1,8,0:0:0:0:
256,192,26907,1,8,0:0:0:0:
256,192,27083,1,0,0:0:0:0:
256,192,27260,1,0,0:0:0:0:
256,192,27436,1,8,0:0:0:0:
256,192,27613,1,8,0:0:0:0:
256,192,27789,1,0,0:0:0:0:
256,192,28142,1,8,0:0:0:0:
256,192,28319,1,0,0:0:0:0:
256,192,28672,1,0,0:0:0:0:
256,192,29025,1,8,0:0:0:0:
256,192,29378,1,8,0:0:0:0:
264,192,29731,1,0,0:0:0:0:
264,192,29907,1,0,0:0:0:0:
256,192,30083,1,0,0:0:0:0:
256,192,30260,1,8,0:0:0:0:
264,192,30436,1,8,0:0:0:0:
264,200,30966,1,0,0:0:0:0:
264,200,31142,1,8,0:0:0:0:
264,192,31495,1,8,0:0:0:0:
264,192,31848,1,8,0:0:0:0:
264,192,32201,1,0,0:0:0:0:
264,192,32554,1,8,0:0:0:0:
264,192,32731,1,8,0:0:0:0:
264,192,32907,1,0,0:0:0:0:
264,192,33083,1,0,0:0:0:0:
264,192,33260,1,8,0:0:0:0:
264,192,33436,1,0,0:0:0:0:
264,192,33789,1,0,0:0:0:0:
264,192,33966,1,4,0:0:0:0:
256,192,34672,1,8,0:0:0:0:
256,192,35025,1,8,0:0:0:0:
256,192,35378,1,8,0:0:0:0:
256,192,35554,1,0,0:0:0:0:
256,192,35731,1,0,0:0:0:0:
256,192,35907,1,0,0:0:0:0:
256,192,36083,1,8,0:0:0:0:
256,192,36613,1,0,0:0:0:0:
256,192,36789,1,8,0:0:0:0:
256,192,37142,1,0,0:0:0:0:
256,192,37495,1,8,0:0:0:0:
256,192,37848,1,8,0:0:0:0:
256,192,38201,1,8,0:0:0:0:
256,192,38378,1,0,0:0:0:0:
256,192,38554,1,0,0:0:0:0:
256,192,38731,1,8,0:0:0:0:
256,192,38907,1,8,0:0:0:0:
256,192,39083,1,0,0:0:0:0:
256,192,39436,1,8,0:0:0:0:
256,192,39613,1,0,0:0:0:0:
256,192,39966,1,0,0:0:0:0:
256,192,40319,1,8,0:0:0:0:
256,192,40672,1,8,0:0:0:0:
256,192,41025,1,0,0:0:0:0:
256,192,41201,1,0,0:0:0:0:
256,192,41378,1,0,0:0:0:0:
256,192,41554,1,8,0:0:0:0:
256,192,41731,1,8,0:0:0:0:
256,192,42083,1,0,0:0:0:0:
256,192,42172,1,0,0:0:0:0:
256,192,42260,1,0,0:0:0:0:
256,192,42436,1,8,0:0:0:0:
256,192,42613,1,8,0:0:0:0:
256,192,43142,1,8,0:0:0:0:
256,192,43495,1,8,0:0:0:0:
256,192,43672,1,0,0:0:0:0:
256,192,43848,1,8,0:0:0:0:
256,192,44025,1,8,0:0:0:0:
256,192,44201,1,0,0:0:0:0:
256,192,44378,1,0,0:0:0:0:
256,192,44731,1,0,0:0:0:0:
256,192,44907,1,0,0:0:0:0:
256,192,45083,1,0,0:0:0:0:
256,192,45260,1,0,0:0:0:0:
256,192,45613,1,8,0:0:0:0:
256,192,45966,1,8,0:0:0:0:
256,192,47025,1,8,0:0:0:0:
256,192,47378,1,8,0:0:0:0:
256,192,48436,1,8,0:0:0:0:
256,192,48789,1,8,0:0:0:0:
256,192,49495,1,0,0:0:0:0:
256,192,49848,1,8,0:0:0:0:
256,192,50201,1,8,0:0:0:0:
256,192,50907,1,0,0:0:0:0:
256,192,51260,1,8,0:0:0:0:
256,192,51613,1,8,0:0:0:0:
256,192,52672,1,8,0:0:0:0:
256,192,53025,1,8,0:0:0:0:
256,192,54083,1,8,0:0:0:0:
256,192,54436,1,8,0:0:0:0:
256,192,55142,1,0,0:0:0:0:
256,192,55495,1,8,0:0:0:0:
256,192,55848,1,8,0:0:0:0:
256,192,56554,1,0,0:0:0:0:
256,192,56907,1,8,0:0:0:0:
256,192,57260,1,8,0:0:0:0:
256,192,58319,1,8,0:0:0:0:
256,192,58672,1,8,0:0:0:0:
256,184,59731,1,8,0:0:0:0:
256,184,60083,1,8,0:0:0:0:
256,184,60436,1,0,0:0:0:0:
256,184,60789,1,0,0:0:0:0:
256,184,61142,1,8,0:0:0:0:
256,184,61495,1,8,0:0:0:0:
256,184,62554,1,8,0:0:0:0:
256,184,62907,1,8,0:0:0:0:
256,184,63966,1,8,0:0:0:0:
256,184,64319,1,8,0:0:0:0:
256,192,65378,1,8,0:0:0:0:
256,192,65731,1,8,0:0:0:0:
256,184,66789,1,8,0:0:0:0:
256,184,67142,1,8,0:0:0:0:
256,192,67848,1,4,0:0:0:0:
256,192,68201,1,0,0:0:0:0:
256,192,68554,1,8,0:0:0:0:
256,192,68907,1,0,0:0:0:0:
256,192,69083,1,8,0:0:0:0:
264,192,69436,1,0,0:0:0:0:
264,192,69789,1,0,0:0:0:0:
264,192,69966,1,8,0:0:0:0:
264,192,70672,1,0,0:0:0:0:
264,192,71025,1,0,0:0:0:0:
264,192,71378,1,8,0:0:0:0:
264,192,71731,1,0,0:0:0:0:
264,192,71907,1,8,0:0:0:0:
264,192,72260,1,0,0:0:0:0:
264,192,72613,1,0,0:0:0:0:
264,192,72789,1,8,0:0:0:0:
264,192,72966,1,0,0:0:0:0:
264,192,73495,1,0,0:0:0:0:
264,192,73848,1,8,0:0:0:0:
264,192,74201,1,8,0:0:0:0:
264,192,74554,1,0,0:0:0:0:
264,192,74731,1,8,0:0:0:0:
264,192,75083,1,0,0:0:0:0:
264,192,75436,1,0,0:0:0:0:
264,192,75613,1,8,0:0:0:0:
256,192,76319,1,0,0:0:0:0:
256,192,76672,1,8,0:0:0:0:
256,192,77025,1,8,0:0:0:0:
256,192,77378,1,0,0:0:0:0:
256,192,77554,1,8,0:0:0:0:
256,192,77907,1,0,0:0:0:0:
256,192,78083,1,0,0:0:0:0:
256,192,78260,1,0,0:0:0:0:
256,192,78436,1,8,0:0:0:0:
256,192,78613,1,0,0:0:0:0:
256,192,79142,1,0,0:0:0:0:
256,192,79495,1,8,0:0:0:0:
256,192,79848,1,8,0:0:0:0:
256,192,80201,1,0,0:0:0:0:
256,192,80378,1,8,0:0:0:0:
256,192,80731,1,0,0:0:0:0:
256,192,81083,1,0,0:0:0:0:
256,192,81260,1,8,0:0:0:0:
256,192,81966,1,0,0:0:0:0:
256,192,82319,1,0,0:0:0:0:
256,192,82672,1,8,0:0:0:0:
256,192,83025,1,0,0:0:0:0:
256,192,83201,1,8,0:0:0:0:
256,192,83554,1,0,0:0:0:0:
256,192,83731,1,0,0:0:0:0:
256,192,83907,1,0,0:0:0:0:
256,192,84083,1,8,0:0:0:0:
256,192,84260,1,0,0:0:0:0:
256,192,84789,1,0,0:0:0:0:
256,192,85142,1,8,0:0:0:0:
256,192,85495,1,8,0:0:0:0:
256,192,85848,1,0,0:0:0:0:
256,192,86025,1,8,0:0:0:0:
256,192,86378,1,0,0:0:0:0:
256,192,86731,1,0,0:0:0:0:
256,192,86907,1,8,0:0:0:0:
256,192,87613,1,0,0:0:0:0:
256,192,87966,1,8,0:0:0:0:
256,192,88319,1,8,0:0:0:0:
256,192,88672,1,0,0:0:0:0:
256,192,88848,1,8,0:0:0:0:
256,192,89201,1,0,0:0:0:0:
256,192,89378,1,8,0:0:0:0:
256,192,89554,1,0,0:0:0:0:
248,192,89731,1,8,0:0:0:0:
248,192,89907,1,0,0:0:0:0:
248,192,90260,1,8,0:0:0:0:
248,192,90436,1,4,0:0:0:0:
248,192,90789,1,0,0:0:0:0:
248,192,91142,1,8,0:0:0:0:
248,192,91495,1,0,0:0:0:0:
248,192,91672,1,8,0:0:0:0:
248,192,92025,1,0,0:0:0:0:
248,192,92201,1,0,0:0:0:0:
248,192,92378,1,0,0:0:0:0:
248,192,92554,1,8,0:0:0:0:
256,184,93083,1,8,0:0:0:0:
256,192,93260,1,0,0:0:0:0:
248,184,93613,1,0,0:0:0:0:
256,192,93966,1,8,0:0:0:0:
256,192,94319,1,0,0:0:0:0:
256,192,94495,1,8,0:0:0:0:
256,192,94848,1,0,0:0:0:0:
256,192,95025,1,0,0:0:0:0:
256,192,95201,1,0,0:0:0:0:
256,192,95378,1,8,0:0:0:0:
248,192,95554,1,0,0:0:0:0:
256,192,95907,1,0,0:0:0:0:
256,192,96083,1,0,0:0:0:0:
256,192,96436,1,0,0:0:0:0:
256,192,96789,1,8,0:0:0:0:
256,192,97142,1,0,0:0:0:0:
256,192,97319,1,8,0:0:0:0:
256,192,97672,1,0,0:0:0:0:
256,192,97848,1,0,0:0:0:0:
256,192,98025,1,0,0:0:0:0:
256,192,98201,1,8,0:0:0:0:
256,192,98731,1,8,0:0:0:0:
256,192,98907,1,0,0:0:0:0:
256,192,99260,1,0,0:0:0:0:
256,192,99613,1,8,0:0:0:0:
256,192,99966,1,0,0:0:0:0:
256,192,100142,1,8,0:0:0:0:
256,192,100495,1,0,0:0:0:0:
256,192,100672,1,0,0:0:0:0:
256,192,100848,1,0,0:0:0:0:
256,192,101025,1,8,0:0:0:0:
256,192,101201,1,0,0:0:0:0:
256,192,101378,1,8,0:0:0:0:
256,192,101554,1,8,0:0:0:0:
256,192,101731,1,4,0:0:0:0:
256,192,102083,1,0,0:0:0:0:
256,192,102436,1,8,0:0:0:0:
256,192,102789,1,0,0:0:0:0:
256,192,102966,1,8,0:0:0:0:
256,192,103319,1,0,0:0:0:0:
256,192,103495,1,0,0:0:0:0:
256,192,103672,1,0,0:0:0:0:
256,192,103848,1,8,0:0:0:0:
256,192,104378,1,8,0:0:0:0:
256,192,104554,1,0,0:0:0:0:
248,192,104907,1,0,0:0:0:0:
248,192,105260,1,8,0:0:0:0:
248,192,105613,1,0,0:0:0:0:
248,192,105789,1,8,0:0:0:0:
248,192,106142,1,0,0:0:0:0:
248,192,106319,1,0,0:0:0:0:
248,192,106495,1,0,0:0:0:0:
248,192,106672,1,8,0:0:0:0:
248,192,106848,1,0,0:0:0:0:
256,192,107201,1,0,0:0:0:0:
248,192,107378,1,0,0:0:0:0:
256,192,107731,1,0,0:0:0:0:
256,192,108083,1,8,0:0:0:0:
256,192,108436,1,0,0:0:0:0:
256,192,108613,1,8,0:0:0:0:
256,192,108966,1,0,0:0:0:0:
256,192,109142,1,0,0:0:0:0:
256,192,109319,1,0,0:0:0:0:
256,192,109495,1,8,0:0:0:0:
256,192,109848,1,0,0:0:0:0:
256,192,109936,1,0,0:0:0:0:
256,192,110025,1,0,0:0:0:0:
256,192,110201,1,0,0:0:0:0:
256,192,110907,1,8,0:0:0:0:
256,192,111260,1,0,0:0:0:0:
256,192,111436,1,8,0:0:0:0:
256,192,111789,1,0,0:0:0:0:
256,192,111966,1,0,0:0:0:0:
256,192,112142,1,0,0:0:0:0:
256,192,112319,1,8,0:0:0:0:
256,192,112495,1,0,0:0:0:0:
256,192,112672,1,0,0:0:0:0:
256,192,112848,1,0,0:0:0:0:
256,192,113025,1,12,0:0:0:0:
256,192,114436,1,0,0:0:0:0:
256,192,114789,1,0,0:0:0:0:
256,192,115142,1,0,0:0:0:0:
256,192,115319,1,8,0:0:0:0:
256,192,115495,1,0,0:0:0:0:
256,192,115672,1,0,0:0:0:0:
256,192,115848,1,4,0:0:0:0:
256,192,116201,1,0,0:0:0:0:
256,192,116554,1,8,0:0:0:0:
256,192,117083,1,8,0:0:0:0:
256,192,117436,1,0,0:0:0:0:
256,192,117613,1,0,0:0:0:0:
256,192,117789,1,0,0:0:0:0:
256,192,117966,1,8,0:0:0:0:
256,192,118319,1,0,0:0:0:0:
256,192,118407,1,0,0:0:0:0:
256,192,118495,1,0,0:0:0:0:
256,192,118672,1,0,0:0:0:0:
256,192,119025,1,0,0:0:0:0:
256,192,119378,1,8,0:0:0:0:
256,192,119907,1,8,0:0:0:0:
256,192,120260,1,0,0:0:0:0:
256,192,120436,1,0,0:0:0:0:
256,192,120613,1,0,0:0:0:0:
264,192,120789,1,8,0:0:0:0:
264,192,120966,1,0,0:0:0:0:
264,192,121319,1,8,0:0:0:0:
264,192,121495,1,0,0:0:0:0:
264,192,121848,1,0,0:0:0:0:
264,192,122201,1,8,0:0:0:0:
264,192,122731,1,8,0:0:0:0:
264,192,123083,1,0,0:0:0:0:
264,192,123260,1,0,0:0:0:0:
264,192,123436,1,0,0:0:0:0:
256,192,123613,1,8,0:0:0:0:
256,184,123966,1,0,0:0:0:0:
256,184,124054,1,0,0:0:0:0:
256,184,124142,1,0,0:0:0:0:
256,184,124319,1,0,0:0:0:0:
256,184,124672,1,0,0:0:0:0:
256,184,125025,1,8,0:0:0:0:
256,184,125554,1,8,0:0:0:0:
256,184,125907,1,0,0:0:0:0:
256,184,126083,1,0,0:0:0:0:
256,184,126260,1,0,0:0:0:0:
256,184,126436,1,8,0:0:0:0:
256,184,126613,1,0,0:0:0:0:
256,184,126789,1,8,0:0:0:0:
256,184,126966,1,8,0:0:0:0:
256,184,127142,1,0,0:0:0:0:
256,184,127495,1,0,0:0:0:0:
256,184,127848,1,8,0:0:0:0:
256,184,128378,1,8,0:0:0:0:
256,184,128731,1,0,0:0:0:0:
256,184,128907,1,0,0:0:0:0:
256,184,129083,1,0,0:0:0:0:
256,184,129260,1,8,0:0:0:0:
256,184,129613,1,0,0:0:0:0:
256,184,129701,1,0,0:0:0:0:
256,184,129789,1,0,0:0:0:0:
256,184,129966,1,0,0:0:0:0:
256,184,130319,1,0,0:0:0:0:
256,184,130672,1,8,0:0:0:0:
256,184,131201,1,8,0:0:0:0:
256,184,131554,1,0,0:0:0:0:
256,184,131731,1,0,0:0:0:0:
256,184,131907,1,0,0:0:0:0:
256,184,132083,1,8,0:0:0:0:
240,192,132260,1,0,0:0:0:0:
240,192,132613,1,8,0:0:0:0:
240,192,132789,1,0,0:0:0:0:
240,192,133142,1,0,0:0:0:0:
240,192,133495,1,8,0:0:0:0:
240,192,134025,1,8,0:0:0:0:
240,192,134378,1,0,0:0:0:0:
240,192,134554,1,0,0:0:0:0:
240,192,134731,1,0,0:0:0:0:
240,192,134907,1,8,0:0:0:0:
240,192,135260,1,0,0:0:0:0:
240,192,135348,1,0,0:0:0:0:
240,192,135436,1,0,0:0:0:0:
240,192,135613,1,0,0:0:0:0:
240,192,135966,1,0,0:0:0:0:
240,192,136319,1,8,0:0:0:0:
248,192,136848,1,8,0:0:0:0:
248,192,137201,1,0,0:0:0:0:
248,192,137378,1,0,0:0:0:0:
248,192,137554,1,0,0:0:0:0:
248,192,137731,1,8,0:0:0:0:
248,192,137907,1,12,0:0:0:0:
248,192,138260,1,8,0:0:0:0:
248,192,138436,1,4,0:0:0:0:
248,192,138789,1,0,0:0:0:0:
248,192,139142,1,8,0:0:0:0:
248,192,139495,1,0,0:0:0:0:
248,192,139672,1,8,0:0:0:0:
248,192,140025,1,0,0:0:0:0:
248,192,140201,1,0,0:0:0:0:
248,192,140378,1,0,0:0:0:0:
248,192,140554,1,8,0:0:0:0:
240,192,140907,1,8,0:0:0:0:
240,192,140995,1,8,0:0:0:0:
248,192,141083,1,8,0:0:0:0:
248,192,141260,1,0,0:0:0:0:
248,192,141613,1,0,0:0:0:0:
248,192,141966,1,8,0:0:0:0:
248,192,142319,1,0,0:0:0:0:
248,192,142495,1,8,0:0:0:0:
248,192,142848,1,0,0:0:0:0:
248,192,143025,1,0,0:0:0:0:
248,192,143201,1,0,0:0:0:0:
248,192,143378,1,8,0:0:0:0:
248,192,143554,1,0,0:0:0:0:
248,192,143907,1,0,0:0:0:0:
248,192,144083,1,4,0:0:0:0:
248,192,144789,1,8,0:0:0:0:
248,192,145142,1,0,0:0:0:0:
248,192,145319,1,8,0:0:0:0:
248,192,145672,1,0,0:0:0:0:
248,192,145848,1,0,0:0:0:0:
248,192,146025,1,0,0:0:0:0:
248,192,146201,1,8,0:0:0:0:
248,192,146378,1,0,0:0:0:0:
248,192,146731,1,8,0:0:0:0:
248,192,146907,1,0,0:0:0:0:
248,192,147260,1,0,0:0:0:0:
248,192,147613,1,8,0:0:0:0:
248,192,147966,1,0,0:0:0:0:
248,192,148142,1,8,0:0:0:0:
248,192,148495,1,0,0:0:0:0:
248,192,148672,1,0,0:0:0:0:
248,192,148848,1,0,0:0:0:0:
248,192,149025,1,8,0:0:0:0:
248,192,149201,1,0,0:0:0:0:
248,192,149378,1,8,0:0:0:0:
248,192,149554,1,0,0:0:0:0:
248,192,149731,1,4,0:0:0:0:
248,192,150436,1,8,0:0:0:0:
248,192,150789,1,0,0:0:0:0:
248,192,150966,1,8,0:0:0:0:
248,192,151319,1,0,0:0:0:0:
248,192,151495,1,0,0:0:0:0:
248,192,151672,1,0,0:0:0:0:
248,192,151848,1,8,0:0:0:0:
248,192,152201,1,8,0:0:0:0:
248,192,152289,1,8,0:0:0:0:
248,192,152378,1,8,0:0:0:0:
248,192,152554,1,0,0:0:0:0:
248,192,152907,1,0,0:0:0:0:
248,192,153260,1,8,0:0:0:0:
248,192,153613,1,0,0:0:0:0:
248,192,153789,1,8,0:0:0:0:
248,192,154142,1,0,0:0:0:0:
248,192,154319,1,0,0:0:0:0:
248,192,154495,1,0,0:0:0:0:
248,192,154672,1,8,0:0:0:0:
248,192,154848,1,0,0:0:0:0:
248,192,155201,1,0,0:0:0:0:
248,192,155378,1,4,0:0:0:0:
248,192,156083,1,8,0:0:0:0:
248,192,156436,1,0,0:0:0:0:
248,192,156789,1,0,0:0:0:0:
248,192,156966,1,8,0:0:0:0:
248,192,157142,1,0,0:0:0:0:
248,192,157319,1,0,0:0:0:0:
248,192,157495,1,8,0:0:0:0:
248,192,157848,1,0,0:0:0:0:
248,192,157936,1,0,0:0:0:0:
248,192,158025,1,0,0:0:0:0:
256,192,158201,1,0,0:0:0:0:
248,192,158907,1,8,0:0:0:0:
248,192,159436,1,0,0:0:0:0:
256,184,159613,1,12,0:0:0:0:
256,184,159789,1,0,0:0:0:0:
256,184,160142,1,0,0:0:0:0:
256,184,160319,1,12,0:0:0:0:
256,184,160495,1,0,0:0:0:0:
256,184,160848,1,8,0:0:0:0:
256,184,161025,1,4,0:0:0:0:
256,184,161554,1,0,0:0:0:0:
256,184,161731,1,8,0:0:0:0:
256,184,162083,1,0,0:0:0:0:
256,184,162260,1,8,0:0:0:0:
256,184,162436,1,0,0:0:0:0:
256,184,162613,1,0,0:0:0:0:
256,184,162789,1,8,0:0:0:0:
256,184,163142,1,8,0:0:0:0:
256,184,163672,1,0,0:0:0:0:
256,184,163848,1,8,0:0:0:0:
280,184,164025,1,0,0:0:0:0:
280,184,164201,1,8,0:0:0:0:
280,184,164554,1,8,0:0:0:0:
280,184,164907,1,8,0:0:0:0:
280,184,165083,1,0,0:0:0:0:
280,184,165260,1,8,0:0:0:0:
280,184,165613,1,0,0:0:0:0:
280,184,165966,1,0,0:0:0:0:
280,184,166672,1,12,0:0:0:0:
280,184,167025,1,0,0:0:0:0:
280,184,167378,1,8,0:0:0:0:
288,184,167731,1,8,0:0:0:0:
288,184,167907,1,0,0:0:0:0:
288,184,168083,1,8,0:0:0:0:
288,184,168436,1,0,0:0:0:0:
288,184,168613,1,0,0:0:0:0:
288,184,168789,1,8,0:0:0:0:
288,184,169319,1,0,0:0:0:0:
288,184,169495,1,8,0:0:0:0:
256,192,169672,1,0,0:0:0:0:
256,192,169848,1,8,0:0:0:0:
256,192,170025,1,8,0:0:0:0:
256,192,170201,1,8,0:0:0:0:
256,192,170554,1,0,0:0:0:0:
256,192,170731,1,0,0:0:0:0:
256,192,170907,1,8,0:0:0:0:
256,192,171260,1,8,0:0:0:0:
256,192,171436,1,8,0:0:0:0:
256,192,171613,1,0,0:0:0:0:
256,192,172319,1,12,0:0:0:0:
256,192,172495,1,0,0:0:0:0:
256,192,172672,1,0,0:0:0:0:
256,192,172848,1,0,0:0:0:0:
256,192,173025,1,8,0:0:0:0:
256,192,173378,1,8,0:0:0:0:
256,192,173554,1,8,0:0:0:0:
256,184,173731,1,0,0:0:0:0:
256,184,174083,1,0,0:0:0:0:
256,184,174436,1,8,0:0:0:0:
256,184,174966,1,0,0:0:0:0:
256,192,175142,1,8,0:0:0:0:
256,192,175495,1,8,0:0:0:0:
256,192,175848,1,8,0:0:0:0:
256,192,176025,1,0,0:0:0:0:
256,192,176201,1,8,0:0:0:0:
256,192,176378,1,8,0:0:0:0:
256,192,176554,1,0,0:0:0:0:
256,192,176907,1,8,0:0:0:0:
256,192,177260,1,0,0:0:0:0:
256,192,177966,1,12,0:0:0:0:
256,192,178142,1,0,0:0:0:0:
256,192,178319,1,0,0:0:0:0:
256,192,178495,1,0,0:0:0:0:
256,192,178672,1,8,0:0:0:0:
256,184,178848,1,0,0:0:0:0:
256,184,179025,1,8,0:0:0:0:
256,184,179378,1,0,0:0:0:0:
256,184,179731,1,0,0:0:0:0:
256,184,179907,1,0,0:0:0:0:
256,184,180083,1,8,0:0:0:0:
264,184,180613,1,0,0:0:0:0:
264,184,180701,1,0,0:0:0:0:
264,184,180789,1,0,0:0:0:0:
256,192,180966,12,0,183260,0:0:0:0:
264,176,183613,5,4,0:0:0:0:
264,176,183966,1,8,0:0:0:0:
264,176,184142,1,0,0:0:0:0:
264,176,184319,1,8,0:0:0:0:
280,176,184672,1,0,0:0:0:0:
280,176,185025,1,8,0:0:0:0:
280,176,185201,1,0,0:0:0:0:
280,176,185378,1,8,0:0:0:0:
288,176,185554,1,8,0:0:0:0:
280,176,185731,1,0,0:0:0:0:
288,176,186260,1,0,0:0:0:0:
288,176,186436,1,0,0:0:0:0:
288,176,186789,1,8,0:0:0:0:
288,176,186966,1,0,0:0:0:0:
288,176,187142,1,8,0:0:0:0:
288,176,187495,1,0,0:0:0:0:
288,176,187848,1,8,0:0:0:0:
288,176,188025,1,0,0:0:0:0:
288,176,188201,1,8,0:0:0:0:
288,176,188378,1,0,0:0:0:0:
288,176,188554,1,8,0:0:0:0:
288,176,188731,1,0,0:0:0:0:
288,168,189083,1,8,0:0:0:0:
288,168,189260,1,4,0:0:0:0:
288,168,189613,1,8,0:0:0:0:
288,168,189789,1,0,0:0:0:0:
288,168,189966,1,8,0:0:0:0:
288,168,190319,1,0,0:0:0:0:
288,168,190672,1,8,0:0:0:0:
288,168,190848,1,0,0:0:0:0:
288,168,191025,1,8,0:0:0:0:
288,168,191201,1,0,0:0:0:0:
288,168,191378,1,0,0:0:0:0:
288,168,191907,1,8,0:0:0:0:
288,168,192083,1,0,0:0:0:0:
288,168,192436,1,0,0:0:0:0:
288,168,192789,1,8,0:0:0:0:
296,160,193319,1,8,0:0:0:0:
256,192,193672,1,0,0:0:0:0:
256,192,193848,1,8,0:0:0:0:
256,192,194025,1,0,0:0:0:0:
256,192,194201,1,8,0:0:0:0:
256,192,194378,1,0,0:0:0:0:
256,192,194554,1,0,0:0:0:0:
256,192,194731,1,0,0:0:0:0:
256,192,194907,1,4,0:0:0:0:
256,192,195613,1,8,0:0:0:0:
256,192,195966,1,0,0:0:0:0:
256,192,196142,1,8,0:0:0:0:
248,184,196495,1,0,0:0:0:0:
256,192,196672,1,0,0:0:0:0:
256,192,196848,1,0,0:0:0:0:
256,192,197025,1,8,0:0:0:0:
256,192,197378,1,8,0:0:0:0:
256,192,197554,1,0,0:0:0:0:
256,192,197731,1,0,0:0:0:0:
256,192,198083,1,0,0:0:0:0:
256,192,198260,1,0,0:0:0:0:
256,192,198436,1,8,0:0:0:0:
256,192,198789,1,0,0:0:0:0:
256,192,198966,1,8,0:0:0:0:
256,192,199319,1,0,0:0:0:0:
256,192,199495,1,0,0:0:0:0:
256,192,199672,1,0,0:0:0:0:
256,184,199848,1,8,0:0:0:0:
256,192,200025,1,0,0:0:0:0:
256,192,200378,1,0,0:0:0:0:
256,192,200554,1,4,0:0:0:0:
272,184,200907,1,0,0:0:0:0:
264,192,201083,1,0,0:0:0:0:
264,192,201260,1,8,0:0:0:0:
264,192,201613,1,0,0:0:0:0:
264,192,201966,1,0,0:0:0:0:
264,192,202142,1,8,0:0:0:0:
264,192,202319,1,0,0:0:0:0:
264,192,202495,1,0,0:0:0:0:
264,192,202672,1,8,0:0:0:0:
264,200,203025,1,0,0:0:0:0:
264,192,203201,1,0,0:0:0:0:
264,192,203289,1,0,0:0:0:0:
264,184,203378,1,0,0:0:0:0:
272,184,204083,1,8,0:0:0:0:
264,192,204613,1,0,0:0:0:0:
264,192,204789,1,12,0:0:0:0:
264,192,204966,1,0,0:0:0:0:
264,192,205319,1,0,0:0:0:0:
264,192,205495,1,12,0:0:0:0:
264,192,205672,1,0,0:0:0:0:
264,192,206025,1,8,0:0:0:0:
264,192,206201,1,4,0:0:0:0:
264,192,206907,1,8,0:0:0:0:
272,192,207260,1,0,0:0:0:0:
272,192,207436,1,0,0:0:0:0:
272,192,207613,1,8,0:0:0:0:
272,192,207789,1,0,0:0:0:0:
272,192,207966,1,0,0:0:0:0:
272,192,208142,1,8,0:0:0:0:
272,192,208319,1,8,0:0:0:0:
272,192,208848,1,0,0:0:0:0:
272,192,209025,1,8,0:0:0:0:
272,192,209378,1,8,0:0:0:0:
272,192,209554,1,0,0:0:0:0:
272,192,209731,1,8,0:0:0:0:
272,192,210083,1,8,0:0:0:0:
272,192,210260,1,0,0:0:0:0:
272,192,210436,1,8,0:0:0:0:
264,184,210613,1,8,0:0:0:0:
264,184,210789,1,0,0:0:0:0:
264,184,210966,1,0,0:0:0:0:
272,184,211142,1,8,0:0:0:0:
256,184,211319,1,0,0:0:0:0:
256,184,211848,1,4,0:0:0:0:
248,184,212201,1,8,0:0:0:0:
256,192,212378,1,0,0:0:0:0:
248,184,212554,1,8,0:0:0:0:
256,184,212907,1,0,0:0:0:0:
248,176,213083,1,0,0:0:0:0:
248,176,213260,1,8,0:0:0:0:
248,176,213436,1,8,0:0:0:0:
248,176,213613,1,0,0:0:0:0:
248,176,213789,1,8,0:0:0:0:
248,176,213966,1,8,0:0:0:0:
248,176,214319,1,8,0:0:0:0:
248,176,214495,1,0,0:0:0:0:
248,176,214583,1,0,0:0:0:0:
248,176,214672,1,0,0:0:0:0:
264,176,215378,1,8,0:0:0:0:
264,176,215731,1,8,0:0:0:0:
264,176,216083,1,8,0:0:0:0:
256,176,216260,1,0,0:0:0:0:
256,176,216436,1,0,0:0:0:0:
256,176,216613,1,0,0:0:0:0:
256,176,216789,1,8,0:0:0:0:
256,176,216966,1,0,0:0:0:0:
256,176,217142,1,0,0:0:0:0:
256,176,217319,1,0,0:0:0:0:
256,176,217495,1,4,0:0:0:0:
274,176,218025,1,0,0:0:0:0:
264,176,218201,1,8,0:0:0:0:
280,176,218554,1,8,0:0:0:0:
280,176,218907,1,8,0:0:0:0:
280,176,219083,1,0,0:0:0:0:
280,184,219260,1,0,0:0:0:0:
296,160,219436,1,0,0:0:0:0:
296,160,219613,1,8,0:0:0:0:
264,192,219966,1,0,0:0:0:0:
268,197,220142,1,0,0:0:0:0:
264,192,220319,1,8,0:0:0:0:
264,192,220672,1,8,0:0:0:0:
264,192,220848,1,0,0:0:0:0:
264,192,221025,1,8,0:0:0:0:
264,192,221378,1,8,0:0:0:0:
264,192,221554,1,8,0:0:0:0:
256,192,221731,1,0,0:0:0:0:
256,192,221907,1,0,0:0:0:0:
256,192,222083,1,0,0:0:0:0:
256,192,222260,1,8,0:0:0:0:
256,192,222436,1,8,0:0:0:0:
256,192,222613,1,0,0:0:0:0:
256,200,223142,1,4,0:0:0:0:
264,192,223495,1,8,0:0:0:0:
264,192,223672,1,0,0:0:0:0:
256,200,223848,1,8,0:0:0:0:
256,200,224201,1,0,0:0:0:0:
256,200,224554,1,0,0:0:0:0:
256,200,224731,1,8,0:0:0:0:
256,200,224907,1,0,0:0:0:0:
256,200,225083,1,0,0:0:0:0:
240,200,225260,1,8,0:0:0:0:
240,200,225613,1,8,0:0:0:0:
240,200,225789,1,0,0:0:0:0:
240,200,225878,1,0,0:0:0:0:
240,200,225966,1,0,0:0:0:0:
240,200,226495,1,0,0:0:0:0:
240,200,226672,1,8,0:0:0:0:
240,200,227201,1,0,0:0:0:0:
240,200,227378,1,8,0:0:0:0:
240,200,227554,1,0,0:0:0:0:
240,200,227907,1,0,0:0:0:0:
240,200,228083,1,8,0:0:0:0:
240,200,228260,1,0,0:0:0:0:
240,200,228613,1,0,0:0:0:0:
240,200,228789,1,0,0:0:0:0:
