osu file format v14

[General]
AudioFilename: 08 Waiting For The End.mp3
AudioLeadIn: 0
PreviewTime: 161025
Countdown: 0
SampleSet: Normal
StackLeniency: 0.7
Mode: 1
LetterboxInBreaks: 0
WidescreenStoryboard: 1

[Editor]
DistanceSpacing: 1
BeatDivisor: 4
GridSize: 8
TimelineZoom: 1

[Metadata]
Title:Waiting For The End
TitleUnicode:Waiting For The End
Artist:Linkin Park
ArtistUnicode:Linkin Park
Creator:neonat
Version:Futsuu
Source:
Tags:A Thousand Suns Alternative Rock English
BeatmapID:1317206
BeatmapSetID:294118

[Difficulty]
HPDrainRate:6
CircleSize:4
OverallDifficulty:4
ApproachRate:7
SliderMultiplier:1.4
SliderTickRate:1

[Events]
//Background and Video events
0,0,"waiting_for_the_end_by_djnightmare9-d7b6jfz.jpg",0,0
//Break Periods
//Storyboard Layer 0 (Background)
//Storyboard Layer 1 (Fail)
//Storyboard Layer 2 (Pass)
//Storyboard Layer 3 (Foreground)
//Storyboard Layer 4 (Overlay)
//Storyboard Sound Samples

[TimingPoints]
84,352.941176470588,4,1,0,65,1,0
45260,-100,4,1,0,45,0,0
67848,-100,4,1,0,65,0,0
183613,-100,4,1,0,85,0,1
228789,-100,4,1,0,65,0,0

[Colours]
Combo1 : 136,250,253
Combo2 : 199,232,121
Combo3 : 135,197,241
Combo4 : 244,147,193

[HitObjects]
256,168,6437,5,8,0:0:0:0:
256,192,7848,1,8,0:0:0:0:
256,192,9260,1,8,0:0:0:0:
256,192,9966,1,8,0:0:0:0:
256,192,10319,1,0,0:0:0:0:
256,192,10672,1,8,0:0:0:0:
256,192,11025,1,0,0:0:0:0:
256,192,11201,1,0,0:0:0:0:
256,192,11378,1,12,0:0:0:0:
256,192,12084,1,8,0:0:0:0:
256,192,12613,1,8,0:0:0:0:
256,192,13142,1,0,0:0:0:0:
256,192,13495,1,8,0:0:0:0:
256,192,13848,1,8,0:0:0:0:
256,192,14201,1,0,0:0:0:0:
256,192,14907,1,8,0:0:0:0:
256,192,15437,1,8,0:0:0:0:
256,192,15790,1,0,0:0:0:0:
256,192,16143,1,0,0:0:0:0:
256,192,16319,1,8,0:0:0:0:
256,192,16672,1,0,0:0:0:0:
256,192,17025,1,0,0:0:0:0:
256,192,17731,1,8,0:0:0:0:
256,192,18260,1,8,0:0:0:0:
256,192,18789,1,0,0:0:0:0:
256,192,19143,1,8,0:0:0:0:
256,192,19495,1,8,0:0:0:0:
256,192,19848,1,0,0:0:0:0:
256,192,20554,1,8,0:0:0:0:
256,192,21084,1,8,0:0:0:0:
256,192,21437,1,0,0:0:0:0:
256,192,21790,1,0,0:0:0:0:
256,192,21966,1,8,0:0:0:0:
256,192,22319,1,0,0:0:0:0:
256,192,22672,1,4,0:0:0:0:
256,192,23378,1,8,0:0:0:0:
256,192,23731,1,8,0:0:0:0:
256,192,24084,1,0,0:0:0:0:
256,192,24437,1,0,0:0:0:0:
256,192,24613,1,8,0:0:0:0:
256,192,24790,1,8,0:0:0:0:
256,192,25495,1,0,0:0:0:0:
256,192,26201,1,8,0:0:0:0:
256,192,26554,1,8,0:0:0:0:
256,192,26907,1,0,0:0:0:0:
256,192,27260,1,0,0:0:0:0:
256,192,27437,1,0,0:0:0:0:
256,192,27613,1,8,0:0:0:0:
256,192,28319,1,0,0:0:0:0:
256,192,29025,1,8,0:0:0:0:
256,192,29378,1,8,0:0:0:0:
256,192,29731,1,0,0:0:0:0:
256,192,30084,1,0,0:0:0:0:
256,192,30260,1,8,0:0:0:0:
256,192,30437,1,8,0:0:0:0:
256,192,31143,1,8,0:0:0:0:
256,192,31848,1,8,0:0:0:0:
256,192,32201,1,8,0:0:0:0:
256,192,32554,1,8,0:0:0:0:
256,192,32907,1,0,0:0:0:0:
256,192,33084,1,0,0:0:0:0:
256,192,33437,1,0,0:0:0:0:
256,192,33613,1,0,0:0:0:0:
256,192,33966,1,12,0:0:0:0:
256,192,34672,1,8,0:0:0:0:
256,192,35025,1,8,0:0:0:0:
256,192,35378,1,0,0:0:0:0:
256,192,35731,1,0,0:0:0:0:
256,192,35907,1,8,0:0:0:0:
256,192,36084,1,8,0:0:0:0:
256,192,36790,1,0,0:0:0:0:
256,192,37495,1,8,0:0:0:0:
256,192,37848,1,8,0:0:0:0:
256,192,38201,1,0,0:0:0:0:
256,192,38554,1,0,0:0:0:0:
256,192,38731,1,0,0:0:0:0:
256,192,38907,1,8,0:0:0:0:
256,192,39613,1,0,0:0:0:0:
256,192,40319,1,8,0:0:0:0:
256,192,40672,1,8,0:0:0:0:
256,192,41025,1,0,0:0:0:0:
256,192,41378,1,0,0:0:0:0:
256,192,41554,1,8,0:0:0:0:
256,192,41731,1,8,0:0:0:0:
256,192,42437,1,8,0:0:0:0:
256,192,42613,1,8,0:0:0:0:
256,192,43143,1,8,0:0:0:0:
256,192,43495,1,8,0:0:0:0:
256,192,43848,1,8,0:0:0:0:
256,192,44201,1,0,0:0:0:0:
256,192,44378,1,0,0:0:0:0:
256,192,44731,1,0,0:0:0:0:
256,192,45084,1,0,0:0:0:0:
256,192,45260,1,0,0:0:0:0:
256,192,45966,1,8,0:0:0:0:
256,192,47378,1,8,0:0:0:0:
256,192,48790,1,8,0:0:0:0:
256,192,50201,1,8,0:0:0:0:
256,192,51613,1,8,0:0:0:0:
256,192,53025,1,8,0:0:0:0:
256,192,54437,1,8,0:0:0:0:
256,192,55143,1,0,0:0:0:0:
256,192,55848,1,8,0:0:0:0:
256,192,57260,1,8,0:0:0:0:
256,192,58672,1,8,0:0:0:0:
256,192,60084,1,8,0:0:0:0:
256,192,60790,1,0,0:0:0:0:
256,192,61495,1,8,0:0:0:0:
256,192,62907,1,8,0:0:0:0:
256,192,64319,1,8,0:0:0:0:
256,192,65731,1,8,0:0:0:0:
256,192,67143,1,8,0:0:0:0:
256,192,67848,1,4,0:0:0:0:
256,192,68554,1,8,0:0:0:0:
256,192,69084,1,8,0:0:0:0:
256,192,69613,1,0,0:0:0:0:
256,192,69966,1,8,0:0:0:0:
256,192,70319,1,8,0:0:0:0:
256,192,70672,1,0,0:0:0:0:
256,192,71378,1,8,0:0:0:0:
256,192,71907,1,8,0:0:0:0:
256,192,72260,1,0,0:0:0:0:
256,192,72613,1,0,0:0:0:0:
256,192,72790,1,8,0:0:0:0:
256,192,73142,1,0,0:0:0:0:
256,192,73495,1,0,0:0:0:0:
256,192,74201,1,8,0:0:0:0:
256,192,74731,1,8,0:0:0:0:
256,192,75260,1,0,0:0:0:0:
256,192,75613,1,8,0:0:0:0:
256,192,75966,1,8,0:0:0:0:
256,192,76319,1,0,0:0:0:0:
256,192,77025,1,8,0:0:0:0:
256,192,77554,1,8,0:0:0:0:
256,192,77907,1,0,0:0:0:0:
256,192,78260,1,0,0:0:0:0:
256,192,78437,1,8,0:0:0:0:
256,192,78789,1,0,0:0:0:0:
256,192,79143,1,0,0:0:0:0:
256,192,79848,1,8,0:0:0:0:
256,192,80378,1,8,0:0:0:0:
256,192,80907,1,0,0:0:0:0:
256,192,81260,1,8,0:0:0:0:
256,192,81613,1,8,0:0:0:0:
256,192,81966,1,0,0:0:0:0:
256,192,82672,1,8,0:0:0:0:
256,192,83201,1,8,0:0:0:0:
256,192,83554,1,0,0:0:0:0:
256,192,83907,1,0,0:0:0:0:
256,192,84084,1,8,0:0:0:0:
256,192,84436,1,0,0:0:0:0:
256,192,84790,1,0,0:0:0:0:
256,192,85495,1,8,0:0:0:0:
256,192,86025,1,8,0:0:0:0:
256,192,86554,1,0,0:0:0:0:
256,192,86907,1,8,0:0:0:0:
256,192,87260,1,8,0:0:0:0:
256,192,87613,1,0,0:0:0:0:
256,192,88319,1,8,0:0:0:0:
256,192,88848,1,8,0:0:0:0:
256,192,89201,1,0,0:0:0:0:
256,192,89554,1,0,0:0:0:0:
256,192,89731,1,8,0:0:0:0:
256,192,90083,1,0,0:0:0:0:
256,192,90437,1,4,0:0:0:0:
256,192,91143,1,8,0:0:0:0:
256,192,91495,1,0,0:0:0:0:
256,192,91672,1,8,0:0:0:0:
256,192,92201,1,0,0:0:0:0:
256,192,92554,1,8,0:0:0:0:
256,192,92907,1,8,0:0:0:0:
256,192,93260,1,0,0:0:0:0:
256,192,93966,1,8,0:0:0:0:
256,192,94319,1,0,0:0:0:0:
256,192,94495,1,8,0:0:0:0:
256,192,94848,1,0,0:0:0:0:
256,192,95201,1,0,0:0:0:0:
256,192,95378,1,8,0:0:0:0:
256,192,95731,1,0,0:0:0:0:
256,192,96084,1,0,0:0:0:0:
256,192,96790,1,8,0:0:0:0:
256,192,97143,1,0,0:0:0:0:
256,192,97319,1,8,0:0:0:0:
256,192,97848,1,0,0:0:0:0:
256,192,98201,1,8,0:0:0:0:
256,192,98554,1,8,0:0:0:0:
256,192,98907,1,0,0:0:0:0:
256,192,99613,1,8,0:0:0:0:
256,192,99966,1,0,0:0:0:0:
256,192,100143,1,8,0:0:0:0:
256,192,100495,1,0,0:0:0:0:
256,192,100848,1,0,0:0:0:0:
256,192,101025,1,8,0:0:0:0:
256,192,101378,1,0,0:0:0:0:
256,192,101731,1,4,0:0:0:0:
256,192,102437,1,8,0:0:0:0:
256,192,102790,1,0,0:0:0:0:
256,192,102966,1,8,0:0:0:0:
256,192,103495,1,0,0:0:0:0:
256,192,103848,1,8,0:0:0:0:
256,192,104201,1,8,0:0:0:0:
256,192,104554,1,0,0:0:0:0:
256,192,105260,1,8,0:0:0:0:
256,192,105613,1,0,0:0:0:0:
256,192,105790,1,8,0:0:0:0:
256,192,106143,1,0,0:0:0:0:
256,192,106495,1,0,0:0:0:0:
256,192,106672,1,8,0:0:0:0:
256,192,107025,1,0,0:0:0:0:
256,192,107378,1,0,0:0:0:0:
256,192,108084,1,8,0:0:0:0:
256,192,108437,1,0,0:0:0:0:
256,192,108613,1,8,0:0:0:0:
256,192,109142,1,0,0:0:0:0:
256,192,109495,1,8,0:0:0:0:
256,192,109848,1,8,0:0:0:0:
256,192,110201,1,0,0:0:0:0:
256,192,110907,1,8,0:0:0:0:
256,192,111260,1,0,0:0:0:0:
256,192,111437,1,8,0:0:0:0:
256,192,111790,1,0,0:0:0:0:
256,192,112143,1,0,0:0:0:0:
256,192,112319,1,8,0:0:0:0:
256,192,112672,1,0,0:0:0:0:
256,192,113025,1,12,0:0:0:0:
256,192,115848,1,12,0:0:0:0:
256,192,116201,1,0,0:0:0:0:
256,192,116554,1,8,0:0:0:0:
256,192,117084,1,8,0:0:0:0:
256,192,117437,1,0,0:0:0:0:
256,192,117790,1,0,0:0:0:0:
256,192,117966,1,8,0:0:0:0:
256,192,118319,1,8,0:0:0:0:
256,192,118672,1,0,0:0:0:0:
256,192,119378,1,8,0:0:0:0:
256,192,119907,1,8,0:0:0:0:
256,192,120260,1,0,0:0:0:0:
256,192,120613,1,0,0:0:0:0:
256,192,120790,1,8,0:0:0:0:
256,192,121142,1,0,0:0:0:0:
256,192,121319,1,0,0:0:0:0:
256,192,121495,1,0,0:0:0:0:
256,192,122201,1,8,0:0:0:0:
256,192,122731,1,8,0:0:0:0:
256,192,123084,1,0,0:0:0:0:
264,192,123437,1,0,0:0:0:0:
256,192,123613,1,8,0:0:0:0:
256,192,123966,1,8,0:0:0:0:
256,192,124319,1,0,0:0:0:0:
256,192,125025,1,8,0:0:0:0:
256,192,125554,1,8,0:0:0:0:
256,192,125907,1,0,0:0:0:0:
256,192,126260,1,0,0:0:0:0:
256,192,126437,1,8,0:0:0:0:
256,192,126789,1,0,0:0:0:0:
256,192,126966,1,0,0:0:0:0:
256,192,127143,1,0,0:0:0:0:
256,192,127848,1,8,0:0:0:0:
256,192,128378,1,8,0:0:0:0:
256,192,128731,1,0,0:0:0:0:
256,192,129084,1,0,0:0:0:0:
256,192,129260,1,8,0:0:0:0:
256,192,129613,1,8,0:0:0:0:
256,192,129966,1,0,0:0:0:0:
256,192,130672,1,8,0:0:0:0:
256,192,131201,1,8,0:0:0:0:
256,192,131554,1,0,0:0:0:0:
256,192,131907,1,0,0:0:0:0:
256,192,132084,1,8,0:0:0:0:
256,192,132436,1,0,0:0:0:0:
253,197,132613,1,0,0:0:0:0:
256,192,132790,1,0,0:0:0:0:
256,192,133495,1,8,0:0:0:0:
256,192,134025,1,8,0:0:0:0:
256,192,134378,1,0,0:0:0:0:
256,192,134731,1,0,0:0:0:0:
256,192,134907,1,8,0:0:0:0:
256,192,135260,1,8,0:0:0:0:
256,192,135613,1,0,0:0:0:0:
256,192,136319,1,8,0:0:0:0:
256,192,136848,1,8,0:0:0:0:
256,192,137201,1,0,0:0:0:0:
256,192,137554,1,0,0:0:0:0:
256,192,137731,1,8,0:0:0:0:
256,192,138083,1,0,0:0:0:0:
256,192,138437,1,4,0:0:0:0:
256,192,139143,1,8,0:0:0:0:
256,192,139495,1,0,0:0:0:0:
256,192,139672,1,8,0:0:0:0:
256,192,140201,1,0,0:0:0:0:
264,192,140554,1,8,0:0:0:0:
256,192,140907,1,8,0:0:0:0:
256,192,141260,1,0,0:0:0:0:
256,192,141966,1,8,0:0:0:0:
263,195,142319,1,0,0:0:0:0:
256,192,142495,1,8,0:0:0:0:
256,192,142848,1,0,0:0:0:0:
256,192,143201,1,0,0:0:0:0:
256,192,143378,1,8,0:0:0:0:
256,192,143731,1,0,0:0:0:0:
256,192,144084,1,4,0:0:0:0:
256,192,144790,1,8,0:0:0:0:
248,184,145142,1,0,0:0:0:0:
256,192,145319,1,8,0:0:0:0:
256,184,145848,1,0,0:0:0:0:
256,184,146201,1,8,0:0:0:0:
256,184,146554,1,8,0:0:0:0:
256,184,146907,1,0,0:0:0:0:
256,184,147613,1,8,0:0:0:0:
253,178,147966,1,0,0:0:0:0:
256,184,148143,1,8,0:0:0:0:
256,184,148495,1,0,0:0:0:0:
256,184,148848,1,0,0:0:0:0:
256,184,149025,1,8,0:0:0:0:
256,184,149378,1,0,0:0:0:0:
256,184,149731,1,4,0:0:0:0:
256,192,150437,1,8,0:0:0:0:
256,192,150789,1,0,0:0:0:0:
256,192,150966,1,8,0:0:0:0:
256,192,151495,1,0,0:0:0:0:
256,192,151848,1,8,0:0:0:0:
256,192,152201,1,8,0:0:0:0:
248,192,152554,1,0,0:0:0:0:
256,192,153260,1,8,0:0:0:0:
253,182,153613,1,0,0:0:0:0:
256,192,153790,1,8,0:0:0:0:
256,192,154143,1,0,0:0:0:0:
256,192,154495,1,0,0:0:0:0:
256,192,154672,1,8,0:0:0:0:
256,192,155025,1,0,0:0:0:0:
256,192,155378,1,4,0:0:0:0:
256,192,156084,1,8,0:0:0:0:
256,192,156436,1,0,0:0:0:0:
256,192,156613,1,8,0:0:0:0:
256,192,157142,1,0,0:0:0:0:
256,192,157495,1,8,0:0:0:0:
256,192,157848,1,8,0:0:0:0:
256,192,158201,1,0,0:0:0:0:
256,192,158907,1,8,0:0:0:0:
256,192,159613,1,12,0:0:0:0:
256,192,159966,1,0,0:0:0:0:
256,192,160319,1,12,0:0:0:0:
256,192,160672,1,8,0:0:0:0:
256,192,161025,1,4,0:0:0:0:
256,192,161731,1,8,0:0:0:0:
256,192,162084,1,0,0:0:0:0:
256,184,162260,1,8,0:0:0:0:
256,192,162437,1,0,0:0:0:0:
256,192,162790,1,0,0:0:0:0:
256,192,163143,1,8,0:0:0:0:
256,192,163672,1,0,0:0:0:0:
256,192,163848,1,8,0:0:0:0:
256,192,164201,1,8,0:0:0:0:
256,192,164554,1,8,0:0:0:0:
256,192,165084,1,0,0:0:0:0:
256,192,165260,1,8,0:0:0:0:
256,192,165613,1,0,0:0:0:0:
256,192,165966,1,0,0:0:0:0:
256,192,166672,1,12,0:0:0:0:
256,192,167378,1,8,0:0:0:0:
256,192,167731,1,8,0:0:0:0:
256,192,167907,1,0,0:0:0:0:
256,192,168084,1,8,0:0:0:0:
256,192,168437,1,0,0:0:0:0:
256,192,168790,1,8,0:0:0:0:
256,192,169319,1,0,0:0:0:0:
256,192,169495,1,8,0:0:0:0:
256,192,169848,1,8,0:0:0:0:
256,192,170201,1,8,0:0:0:0:
256,192,170554,1,8,0:0:0:0:
256,192,170731,1,0,0:0:0:0:
256,192,170907,1,8,0:0:0:0:
256,192,171260,1,0,0:0:0:0:
256,192,171613,1,0,0:0:0:0:
256,192,172319,1,12,0:0:0:0:
248,192,173025,1,0,0:0:0:0:
248,192,173378,1,8,0:0:0:0:
248,192,173554,1,8,0:0:0:0:
248,192,173731,1,0,0:0:0:0:
248,192,174084,1,0,0:0:0:0:
248,192,174437,1,8,0:0:0:0:
248,192,174966,1,0,0:0:0:0:
248,192,175143,1,8,0:0:0:0:
248,192,175495,1,8,0:0:0:0:
248,192,175848,1,8,0:0:0:0:
248,192,176378,1,8,0:0:0:0:
248,192,176554,1,0,0:0:0:0:
248,192,176907,1,0,0:0:0:0:
256,192,177260,1,8,0:0:0:0:
256,192,177966,1,12,0:0:0:0:
248,192,178319,1,8,0:0:0:0:
248,192,178495,1,0,0:0:0:0:
256,192,178672,1,8,0:0:0:0:
256,192,179025,1,8,0:0:0:0:
256,192,179378,1,0,0:0:0:0:
256,192,179731,1,0,0:0:0:0:
256,192,180084,1,8,0:0:0:0:
256,192,180613,1,0,0:0:0:0:
256,192,180790,1,8,0:0:0:0:
256,192,183613,1,4,0:0:0:0:
256,192,183966,1,8,0:0:0:0:
256,192,184143,1,0,0:0:0:0:
256,192,184319,1,8,0:0:0:0:
256,192,184672,1,0,0:0:0:0:
256,192,185025,1,8,0:0:0:0:
256,192,185378,1,8,0:0:0:0:
256,192,185731,1,0,0:0:0:0:
256,192,186437,1,0,0:0:0:0:
256,192,186790,1,8,0:0:0:0:
256,192,186966,1,0,0:0:0:0:
256,192,187143,1,8,0:0:0:0:
256,192,187495,1,0,0:0:0:0:
256,192,187848,1,8,0:0:0:0:
256,192,188201,1,8,0:0:0:0:
256,192,188554,1,0,0:0:0:0:
256,192,189260,1,4,0:0:0:0:
256,192,189613,1,8,0:0:0:0:
256,192,189790,1,0,0:0:0:0:
256,192,189966,1,8,0:0:0:0:
256,192,190319,1,0,0:0:0:0:
256,192,190672,1,8,0:0:0:0:
256,192,191025,1,8,0:0:0:0:
256,192,191378,1,0,0:0:0:0:
256,192,192084,1,8,0:0:0:0:
256,192,192790,1,8,0:0:0:0:
256,192,193495,1,8,0:0:0:0:
256,192,193672,1,0,0:0:0:0:
256,192,193848,1,8,0:0:0:0:
256,192,194025,1,0,0:0:0:0:
256,192,194201,1,8,0:0:0:0:
256,192,194554,1,8,0:0:0:0:
256,192,194907,1,4,0:0:0:0:
256,184,195613,1,8,0:0:0:0:
256,184,196143,1,8,0:0:0:0:
256,184,196495,1,0,0:0:0:0:
256,184,196848,1,0,0:0:0:0:
256,192,197025,1,8,0:0:0:0:
256,184,197378,1,8,0:0:0:0:
256,184,197554,1,0,0:0:0:0:
256,184,197731,1,0,0:0:0:0:
256,184,198437,1,8,0:0:0:0:
256,184,198966,1,8,0:0:0:0:
264,184,199319,1,0,0:0:0:0:
264,184,199495,1,0,0:0:0:0:
264,192,199848,1,8,0:0:0:0:
264,192,200201,1,0,0:0:0:0:
264,192,200554,1,4,0:0:0:0:
264,192,201260,1,8,0:0:0:0:
248,200,201790,1,8,0:0:0:0:
256,200,202143,1,0,0:0:0:0:
248,200,202495,1,0,0:0:0:0:
240,192,202672,1,8,0:0:0:0:
248,200,203025,1,8,0:0:0:0:
240,200,203201,1,8,0:0:0:0:
240,200,203378,1,0,0:0:0:0:
256,192,204084,1,8,0:0:0:0:
256,192,204790,1,12,0:0:0:0:
256,192,205142,1,0,0:0:0:0:
256,192,205495,1,12,0:0:0:0:
256,192,205848,1,8,0:0:0:0:
256,192,206201,1,4,0:0:0:0:
256,192,206907,1,8,0:0:0:0:
256,192,207260,1,8,0:0:0:0:
256,192,207613,1,0,0:0:0:0:
256,192,207966,1,0,0:0:0:0:
256,192,208143,1,0,0:0:0:0:
256,192,208319,1,8,0:0:0:0:
256,192,208672,1,0,0:0:0:0:
256,200,209025,1,8,0:0:0:0:
264,200,209731,1,8,0:0:0:0:
264,200,210084,1,0,0:0:0:0:
264,192,210437,1,8,0:0:0:0:
264,192,210790,1,0,0:0:0:0:
264,192,210966,1,8,0:0:0:0:
256,192,211142,1,8,0:0:0:0:
256,184,211495,1,0,0:0:0:0:
256,192,211848,1,12,0:0:0:0:
256,184,212554,1,8,0:0:0:0:
248,184,212907,1,0,0:0:0:0:
240,192,213260,1,0,0:0:0:0:
240,192,213437,1,8,0:0:0:0:
256,192,213790,1,8,0:0:0:0:
272,192,214143,1,0,0:0:0:0:
240,192,214319,1,8,0:0:0:0:
264,192,214672,1,0,0:0:0:0:
256,192,215378,1,8,0:0:0:0:
256,192,215731,1,8,0:0:0:0:
256,192,216084,1,8,0:0:0:0:
256,192,216260,1,0,0:0:0:0:
256,192,216437,1,8,0:0:0:0:
256,192,216613,1,0,0:0:0:0:
256,192,216966,1,0,0:0:0:0:
256,192,217319,1,0,0:0:0:0:
256,192,217495,1,12,0:0:0:0:
256,192,218201,1,8,0:0:0:0:
256,192,218554,1,8,0:0:0:0:
256,192,218907,1,0,0:0:0:0:
256,192,219260,1,0,0:0:0:0:
256,192,219437,1,8,0:0:0:0:
256,192,219613,1,8,0:0:0:0:
256,192,219966,1,0,0:0:0:0:
256,192,220319,1,8,0:0:0:0:
256,192,221025,1,8,0:0:0:0:
256,192,221378,1,8,0:0:0:0:
256,192,221731,1,0,0:0:0:0:
256,184,222084,1,0,0:0:0:0:
256,192,222260,1,0,0:0:0:0:
256,192,222436,1,8,0:0:0:0:
256,184,222789,1,0,0:0:0:0:
256,192,223143,1,12,0:0:0:0:
256,192,223848,1,8,0:0:0:0:
256,192,224201,1,0,0:0:0:0:
264,192,224554,1,0,0:0:0:0:
256,192,224731,1,8,0:0:0:0:
256,192,225084,1,8,0:0:0:0:
256,192,225437,1,0,0:0:0:0:
256,192,225613,1,8,0:0:0:0:
256,192,225966,1,0,0:0:0:0:
256,192,226672,1,8,0:0:0:0:
248,192,227378,1,8,0:0:0:0:
256,192,227731,1,0,0:0:0:0:
256,192,228084,1,8,0:0:0:0:
256,192,228436,1,0,0:0:0:0:
256,192,228790,1,0,0:0:0:0:
