osu file format v14

[General]
AudioFilename: audio.mp3
AudioLeadIn: 0
PreviewTime: 25379
Countdown: 0
SampleSet: None
StackLeniency: 0.2
Mode: 0
LetterboxInBreaks: 0
WidescreenStoryboard: 1
SamplesMatchPlaybackRate: 1

[Editor]
Bookmarks: 19695,25379,40537,53642,55063,58221,68326,72747,75905,77168,86484,87905,88537,98010,100537,103695,105589
DistanceSpacing: 0.99
BeatDivisor: 4
GridSize: 4
TimelineZoom: 5.000003

[Metadata]
Title:Victimized
TitleUnicode:Victimized
Artist:Linkin Park
ArtistUnicode:Linkin Park
Creator:Overboked
Version:ver. 2
Source:
Tags:
BeatmapID:1344479
BeatmapSetID:615419

[Difficulty]
HPDrainRate:6
CircleSize:4
OverallDifficulty:7
ApproachRate:10
SliderMultiplier:1.4
SliderTickRate:1

[Events]
//Background and Video events
0,0,"war-01.jpg",0,0
//Break Periods
2,82895,85410
2,98841,103095
//Storyboard Layer 0 (Background)
//Storyboard Layer 1 (Fail)
//Storyboard Layer 2 (Pass)
//Storyboard Layer 3 (Foreground)
//Storyboard Sound Samples

[TimingPoints]
7695,315.789473684211,4,3,1,100,1,0
10221,-50,4,3,1,100,0,1
10300,-50,4,3,1,5,0,1
10379,-50,4,3,1,100,0,1
10616,-50,4,3,1,5,0,1
10695,-50,4,3,1,100,0,1
10931,-50,4,3,1,5,0,1
11010,-50,4,3,1,100,0,1
11247,-50,4,3,1,5,0,1
11326,-50,4,3,1,100,0,1
11563,-50,4,3,1,5,0,1
11642,-50,4,3,1,100,0,1
11879,-50,4,3,1,5,0,1
11958,-50,4,3,1,100,0,1
12195,-50,4,3,1,5,0,1
12273,-50,4,3,1,100,0,1
12510,-50,4,3,1,5,0,1
12589,-50,4,3,1,100,0,1
12826,-50,4,3,1,5,0,1
12905,-50,4,3,1,100,0,1
13142,-50,4,3,1,5,0,1
13221,-50,4,3,1,100,0,1
13458,-50,4,3,1,5,0,1
13537,-50,4,3,1,100,0,1
13773,-50,4,3,1,5,0,1
13852,-50,4,3,1,100,0,1
14089,-50,4,3,1,5,0,1
14168,-50,4,3,1,100,0,1
14405,-50,4,3,1,5,0,1
14484,-50,4,3,1,100,0,1
15352,-50,4,3,1,5,0,1
15431,-50,4,3,1,100,0,1
15668,-50,4,3,1,5,0,1
15747,-50,4,3,1,100,0,1
15984,-50,4,3,1,5,0,1
16063,-50,4,3,1,100,0,1
16300,-50,4,3,1,5,0,1
16379,-50,4,3,1,100,0,1
16616,-50,4,3,1,5,0,1
16695,-50,4,3,1,100,0,1
16931,-50,4,3,1,5,0,1
17010,-50,4,3,1,100,0,1
17247,-50,4,3,1,5,0,1
17326,-50,4,3,1,100,0,1
17563,-50,4,3,1,5,0,1
17642,-50,4,3,1,100,0,1
17800,-50,4,3,1,40,0,1
19694,-50,4,3,1,100,0,0
20326,-200,4,3,1,100,0,0
20642,-100,4,3,1,100,0,0
25379,-100,4,3,1,10,0,0
29800,-200,4,3,1,100,0,0
30431,-100,4,3,1,10,0,0
34852,-200,4,3,1,100,0,0
35168,-200,4,3,1,5,0,0
35484,-200,4,3,0,10,0,0
39905,-200,4,3,1,100,0,0
40221,-200,4,3,1,5,0,0
40537,-200,4,3,1,5,0,0
41484,-200,4,3,1,5,0,0
41800,-200,4,3,1,5,0,0
43063,-200,4,3,1,5,0,0
44326,-200,4,3,1,100,0,0
45589,-50,4,3,1,100,0,1
45668,-50,4,3,1,5,0,1
45747,-50,4,3,1,100,0,1
45905,-50,4,3,1,100,0,1
45984,-50,4,3,1,5,0,1
46063,-50,4,3,1,100,0,1
46300,-50,4,3,1,5,0,1
46379,-50,4,3,1,100,0,1
46537,-50,4,3,1,100,0,1
46616,-50,4,3,1,5,0,1
46695,-50,4,3,1,100,0,1
46852,-50,4,3,1,100,0,1
46931,-50,4,3,1,5,0,1
47010,-50,4,3,1,100,0,1
47168,-50,4,3,1,100,0,1
47247,-50,4,3,1,5,0,1
47326,-50,4,3,1,100,0,1
47484,-50,4,3,1,100,0,1
47563,-50,4,3,1,5,0,1
47642,-50,4,3,1,100,0,1
47800,-50,4,3,1,100,0,1
47879,-50,4,3,1,5,0,1
47958,-50,4,3,1,100,0,1
48195,-50,4,3,1,5,0,1
48273,-50,4,3,1,100,0,1
48352,-50,4,3,1,5,0,1
48431,-50,4,3,1,100,0,1
48510,-50,4,3,1,5,0,1
48589,-50,4,3,1,100,0,1
48826,-50,4,3,1,5,0,1
48905,-50,4,3,1,100,0,1
49142,-50,4,3,1,5,0,1
49221,-50,4,3,1,100,0,1
49458,-50,4,3,1,5,0,1
49537,-50,4,3,1,100,0,1
49773,-50,4,3,1,5,0,1
49852,-50,4,3,1,100,0,1
50721,-50,4,3,1,5,0,1
50800,-50,4,3,1,100,0,1
51037,-50,4,3,1,5,0,1
51116,-50,4,3,1,100,0,1
51352,-50,4,3,1,5,0,1
51431,-50,4,3,1,100,0,1
51668,-50,4,3,1,5,0,1
51747,-50,4,3,1,100,0,1
51984,-50,4,3,1,5,0,1
52063,-50,4,3,1,100,0,1
52300,-50,4,3,1,5,0,1
52379,-50,4,3,1,100,0,1
52616,-50,4,3,1,5,0,1
52695,-50,4,3,1,100,0,1
52931,-50,4,3,1,5,0,1
53010,-50,4,3,1,100,0,1
53247,-50,4,3,1,5,0,1
53326,-50,4,3,1,100,0,1
53405,-50,4,3,1,5,0,1
53484,-50,4,3,1,100,0,1
53563,-50,4,3,1,5,0,1
53642,-50,4,3,1,40,0,1
55063,-50,4,3,1,100,0,0
55695,-200,4,3,1,100,0,0
62642,-200,4,3,1,100,0,0
65168,-200,4,3,1,100,0,0
68326,-133.333333333333,4,3,1,100,0,0
78431,-50,4,3,1,100,0,0
78510,-50,4,3,1,5,0,0
78589,-50,4,3,1,100,0,0
78826,-50,4,3,1,5,0,0
78905,-50,4,3,1,100,0,0
79142,-50,4,3,1,5,0,0
79221,-50,4,3,1,100,0,0
79458,-50,4,3,1,5,0,0
79537,-50,4,3,1,100,0,0
79773,-50,4,3,1,5,0,0
79852,-50,4,3,1,100,0,0
80089,-50,4,3,1,5,0,0
80168,-50,4,3,1,100,0,0
80405,-50,4,3,1,5,0,0
80484,-50,4,3,1,100,0,0
80721,-50,4,3,1,5,0,0
80800,-50,4,3,1,100,0,0
81037,-50,4,3,1,5,0,0
81116,-50,4,3,1,100,0,0
81195,-50,4,3,1,5,0,0
81273,-50,4,3,1,100,0,0
81352,-50,4,3,1,5,0,0
86484,-50,4,3,1,40,0,0
86484,-200,4,3,1,100,0,0
90747,-50,4,3,1,100,0,0
91063,-133.333333333333,4,3,1,100,0,0
93273,-50,4,3,1,100,0,0
93589,-133.333333333333,4,3,1,100,0,0
103695,-100,4,3,1,40,0,0
103695,-100,4,3,1,40,0,0
103695,-133.333333333333,4,3,1,40,0,0
104405,-50,4,3,1,40,0,0
105116,-200,4,3,1,40,0,0
106063,-50,4,3,1,40,0,0

[HitObjects]
124,88,7695,5,8,0:0:0:0:
104,304,7852,1,8,0:0:0:0:
352,44,8010,5,8,0:0:0:0:
344,328,8168,1,8,0:0:0:0:
80,212,8326,5,8,0:0:0:0:
396,320,8484,1,8,0:0:0:0:
200,40,8642,5,8,0:0:0:0:
448,148,8800,1,0,0:0:0:0:
196,336,8958,5,8,0:0:0:0:
356,200,9116,1,8,0:0:0:0:
456,16,9273,5,8,0:0:0:0:
460,228,9431,1,8,0:0:0:0:
311,376,9589,5,8,0:0:0:0:
120,292,9747,1,8,0:0:0:0:
328,264,9905,5,8,0:0:0:0:
232,76,10063,1,8,0:0:0:0:
144,292,10221,6,0,L|236:244,1,70
256,209,10379,1,2,0:0:0:0:
368,292,10537,2,0,L|276:244,1,70
255,309,10695,1,2,0:0:0:0:
352,172,10852,2,0,L|264:136,1,70
237,95,11010,1,0,0:0:0:0:
228,288,11168,2,0,L|220:196,1,70,0|2,0:0|0:0,0:0:0:0:
292,218,11326,1,0,0:0:0:0:
72,248,11484,2,0,L|111:164,1,70
101,113,11642,1,0,0:0:0:0:
432,96,11800,6,0,L|360:156,1,70
378,211,11958,1,0,0:0:0:0:
228,244,12116,2,0,L|300:180,1,70,2|2,0:0|0:0,0:0:0:0:
329,147,12273,1,0,0:0:0:0:
324,280,12431,2,0,L|284:204,1,70
241,268,12589,1,0,0:0:0:0:
120,296,12747,6,0,L|168:240,1,70
115,193,12905,1,0,0:0:0:0:
284,164,13063,2,0,L|352:112,1,70
289,71,13221,1,0,0:0:0:0:
140,164,13379,2,0,L|216:132,1,70
204,65,13537,1,0,0:0:0:0:
288,200,13695,2,0,L|368:200,1,70
358,129,13852,1,0,0:0:0:0:
204,276,14010,6,0,L|228:200,1,70,0|2,0:0|0:0,0:0:0:0:
275,159,14168,1,0,0:0:0:0:
108,76,14326,2,0,L|116:172,1,70
113,216,14484,1,0,0:0:0:0:
132,352,14642,5,0,0:0:0:0:
194,382,14720,1,0,0:0:0:0:
262,376,14799,1,0,0:0:0:0:
318,336,14878,1,0,0:0:0:0:
345,272,14957,1,0,0:0:0:0:
336,204,15036,1,0,0:0:0:0:
292,150,15115,1,0,0:0:0:0:
227,127,15194,1,0,0:0:0:0:
159,140,15273,6,0,L|220:80,1,70
279,90,15431,1,0,0:0:0:0:
436,60,15589,2,0,L|360:108,1,70
326,147,15747,1,0,0:0:0:0:
232,276,15905,2,0,L|272:196,1,70
213,163,16063,1,0,0:0:0:0:
320,60,16221,2,0,L|292:136,1,70
345,175,16379,1,0,0:0:0:0:
100,276,16537,6,0,L|188:252,1,70
167,186,16695,1,0,0:0:0:0:
288,336,16852,2,0,L|236:280,1,70
169,284,17010,1,0,0:0:0:0:
236,96,17168,2,0,L|248:180,1,70
316,165,17326,1,0,0:0:0:0:
132,244,17484,2,0,L|224:268,1,70
270,261,17642,1,0,0:0:0:0:
288,44,17800,5,4,0:0:0:0:
270,101,17878,1,4,0:0:0:0:
200,97,17957,1,4,0:0:0:0:
133,111,18036,1,4,0:0:0:0:
90,164,18115,1,4,0:0:0:0:
121,223,18194,1,4,0:0:0:0:
184,251,18273,1,4,0:0:0:0:
254,257,18352,1,4,0:0:0:0:
319,233,18431,1,4,0:0:0:0:
360,177,18510,1,4,0:0:0:0:
386,113,18589,1,4,0:0:0:0:
417,50,18668,1,4,0:0:0:0:
468,92,18747,5,4,0:0:0:0:
466,162,18826,1,4,0:0:0:0:
466,232,18905,1,4,0:0:0:0:
471,301,18984,1,4,0:0:0:0:
447,363,19063,1,4,0:0:0:0:
380,382,19142,1,4,0:0:0:0:
310,383,19221,1,4,0:0:0:0:
257,344,19300,1,4,0:0:0:0:
253,275,19378,1,4,0:0:0:0:
252,205,19457,1,4,0:0:0:0:
234,138,19536,1,4,0:0:0:0:
188,86,19615,1,4,0:0:0:0:
120,75,19694,5,4,0:0:0:0:
20,308,19852,1,0,0:0:0:0:
256,156,20010,5,0,0:0:0:0:
472,332,20168,1,0,0:0:0:0:
380,88,20326,6,0,P|344:92|296:80,1,70
155,141,25379,5,4,0:0:0:0:
155,141,25537,1,4,0:0:0:0:
155,141,25695,1,4,0:0:0:0:
155,141,25852,1,4,0:0:0:0:
155,141,26010,1,6,0:0:0:0:
155,141,26168,1,6,0:0:0:0:
253,152,26326,1,6,0:0:0:0:
339,197,26484,1,4,0:0:0:0:
306,289,26642,5,4,0:0:0:0:
306,289,26800,1,4,0:0:0:0:
306,289,26958,1,4,0:0:0:0:
381,164,27116,5,4,0:0:0:0:
342,194,27195,1,4,0:0:0:0:
295,205,27273,1,4,0:0:0:0:
177,175,27431,5,4,0:0:0:0:
177,175,27589,1,4,0:0:0:0:
177,175,27747,1,4,0:0:0:0:
272,132,27905,1,4,0:0:0:0:
346,206,28063,1,4,0:0:0:0:
420,131,28221,1,4,0:0:0:0:
345,56,28379,1,4,0:0:0:0:
270,130,28537,1,4,0:0:0:0:
344,204,28695,1,4,0:0:0:0:
292,180,28852,5,4,0:0:0:0:
390,108,29010,1,4,0:0:0:0:
395,231,29168,1,4,0:0:0:0:
395,231,29326,1,4,0:0:0:0:
395,231,29484,1,4,0:0:0:0:
228,192,29642,5,4,0:0:0:0:
275,205,29721,1,4,0:0:0:0:
188,168,29800,2,4,P|164:236|100:256,1,140
380,156,30589,5,4,0:0:0:0:
380,156,30747,1,4,0:0:0:0:
380,156,30905,1,4,0:0:0:0:
380,156,31063,1,4,0:0:0:0:
380,156,31221,1,4,0:0:0:0:
244,158,31379,1,4,0:0:0:0:
163,105,31537,1,4,0:0:0:0:
351,203,31695,1,4,0:0:0:0:
351,203,31852,1,4,0:0:0:0:
351,203,32010,1,4,0:0:0:0:
222,130,32168,5,4,0:0:0:0:
253,169,32247,1,4,0:0:0:0:
269,214,32326,1,4,0:0:0:0:
174,236,32484,1,4,0:0:0:0:
121,155,32642,1,4,0:0:0:0:
211,194,32800,1,4,0:0:0:0:
331,127,32958,5,4,0:0:0:0:
331,127,33116,1,4,0:0:0:0:
331,127,33273,1,4,0:0:0:0:
331,127,33431,1,4,0:0:0:0:
331,127,33589,1,4,0:0:0:0:
331,127,33747,1,4,0:0:0:0:
353,222,33905,1,4,0:0:0:0:
272,275,34063,1,4,0:0:0:0:
177,141,34221,5,4,0:0:0:0:
177,141,34379,1,4,0:0:0:0:
177,141,34537,1,4,0:0:0:0:
292,236,34695,5,4,0:0:0:0:
292,187,34773,1,4,0:0:0:0:
292,280,34852,2,4,P|232:240|168:256,1,140
303,147,35642,5,4,0:0:0:0:
272,183,35800,1,4,0:0:0:0:
146,122,35958,5,4,0:0:0:0:
261,275,36116,1,4,0:0:0:0:
242,211,36273,5,4,0:0:0:0:
138,278,36431,5,4,0:0:0:0:
200,130,36589,1,4,0:0:0:0:
314,247,36747,1,4,0:0:0:0:
359,144,36905,5,4,0:0:0:0:
320,113,37063,1,4,0:0:0:0:
286,245,37221,1,4,0:0:0:0:
251,210,37300,1,4,0:0:0:0:
216,175,37379,1,4,0:0:0:0:
146,105,37537,1,4,0:0:0:0:
373,211,37695,5,4,0:0:0:0:
186,278,37852,5,4,0:0:0:0:
362,158,38010,5,4,0:0:0:0:
264,158,38168,1,4,0:0:0:0:
194,227,38326,1,4,0:0:0:0:
311,60,38484,5,4,0:0:0:0:
146,224,38642,1,4,0:0:0:0:
300,261,38800,5,4,0:0:0:0:
121,164,38958,5,4,0:0:0:0:
183,278,39116,5,4,0:0:0:0:
339,127,39273,5,4,0:0:0:0:
264,189,39431,1,4,0:0:0:0:
194,119,39589,1,4,0:0:0:0:
304,164,39747,1,4,0:0:0:0:
340,188,39826,1,4,0:0:0:0:
376,212,39905,2,4,B|445:253|445:253|440:192,1,140,4|0,0:0|0:0,0:0:0:0:
128,240,41484,5,2,0:0:0:0:
360,108,41800,2,2,L|288:140,1,70
152,276,42431,2,2,L|224:244,1,70
136,104,43063,1,2,0:0:0:0:
57,24,44326,5,8,0:0:0:0:
51,308,44484,1,8,0:0:0:0:
164,7,44642,5,8,0:0:0:0:
159,292,44800,1,8,0:0:0:0:
272,56,44958,5,8,0:0:0:0:
266,341,45116,1,8,0:0:0:0:
379,56,45273,5,8,0:0:0:0:
374,341,45431,1,8,0:0:0:0:
376,148,45589,6,0,L|304:200,1,70
269,138,45747,1,0,0:0:0:0:
180,320,45905,2,0,L|208:240,1,70
273,253,46063,1,0,0:0:0:0:
136,132,46221,2,0,L|200:176,1,70,4|0,0:0|0:0,0:0:0:0:
144,221,46379,1,0,0:0:0:0:
88,288,46537,2,0,L|196:296,1,70
228,293,46695,1,0,0:0:0:0:
412,340,46852,6,0,B|410:300|410:300|368:256,1,70
320,288,47010,1,0,0:0:0:0:
196,304,47168,2,0,B|214:302|214:302|292:228,1,70
301,216,47326,1,0,0:0:0:0:
104,60,47484,2,0,B|136:92|136:92|140:132,1,70
208,116,47642,1,0,0:0:0:0:
44,280,47800,2,0,B|79:248|79:248|124:244,1,70
101,175,47958,1,0,0:0:0:0:
376,104,48116,6,0,L|320:160,1,70
192,188,48273,2,0,L|276:164,1,70
388,228,48431,2,0,L|324:188,1,70
292,252,48589,1,0,0:0:0:0:
184,232,48747,2,0,L|256:192,1,70
245,127,48905,1,0,0:0:0:0:
396,332,49063,2,0,L|384:248,1,70
386,192,49221,1,0,0:0:0:0:
160,96,49379,6,0,L|208:152,1,70
205,219,49537,1,0,0:0:0:0:
289,78,49695,2,0,L|284:152,1,70
284,218,49853,1,0,0:0:0:0:
408,52,50010,5,0,0:0:0:0:
176,292,50168,1,0,0:0:0:0:
124,28,50326,1,0,0:0:0:0:
356,380,50484,1,0,0:0:0:0:
376,68,50642,6,0,L|320:116,1,70
372,163,50800,1,0,0:0:0:0:
364,264,50958,2,0,L|290:259,1,70
294,189,51116,1,0,0:0:0:0:
216,80,51273,2,0,L|221:154,1,70
171,199,51431,1,0,0:0:0:0:
412,208,51589,2,0,L|332:188,1,70
294,141,51747,1,0,0:0:0:0:
148,280,51905,6,0,L|232:248,1,70
263,304,52063,1,0,0:0:0:0:
464,292,52221,2,0,L|384:224,1,70
460,197,52379,1,0,0:0:0:0:
264,348,52537,2,0,L|308:248,1,70
292,213,52695,1,0,0:0:0:0:
44,344,52852,2,0,L|124:264,1,70
93,224,53010,1,0,0:0:0:0:
442,124,53168,6,0,L|398:200,1,70,0|0,3:0|3:0,3:0:0:0:
248,196,53326,2,0,L|336:196,1,70,0|0,3:0|3:0,3:0:0:0:
384,40,53484,2,0,L|384:128,1,70
384,181,53642,5,4,0:0:0:0:
406,246,53720,1,4,0:0:0:0:
356,288,53799,1,4,0:0:0:0:
286,291,53878,1,4,0:0:0:0:
225,261,53957,1,4,0:0:0:0:
254,202,54036,1,4,0:0:0:0:
287,143,54115,1,4,0:0:0:0:
254,84,54194,1,4,0:0:0:0:
191,55,54273,1,4,0:0:0:0:
122,45,54352,1,4,0:0:0:0:
81,90,54431,5,4,0:0:0:0:
83,159,54510,1,4,0:0:0:0:
143,173,54589,1,4,0:0:0:0:
211,158,54668,1,4,0:0:0:0:
277,179,54747,1,4,0:0:0:0:
302,236,54826,1,4,0:0:0:0:
252,288,54905,1,4,0:0:0:0:
184,312,54984,1,4,0:0:0:0:
112,300,55063,5,0,0:0:0:0:
420,56,55221,1,0,0:0:0:0:
80,72,55379,5,0,0:0:0:0:
428,280,55537,1,0,0:0:0:0:
168,288,55695,6,0,P|192:248|196:220,1,70
188,184,58221,5,0,0:0:0:0:
249,122,58379,1,0,0:0:0:0:
310,60,58537,1,0,0:0:0:0:
299,126,58695,5,0,0:0:0:0:
211,126,58852,5,0,0:0:0:0:
149,188,59010,1,0,0:0:0:0:
50,288,59168,5,0,0:0:0:0:
149,188,59326,1,0,0:0:0:0:
149,101,59484,5,0,0:0:0:0:
149,188,59642,1,0,0:0:0:0:
376,100,59800,5,0,0:0:0:0:
227,248,59958,1,0,0:0:0:0:
376,100,60116,2,0,P|344:112|324:156,2,70
219,141,60905,1,0,0:0:0:0:
293,66,61063,1,0,0:0:0:0:
205,66,61221,5,0,0:0:0:0:
293,66,61378,5,0,0:0:0:0:
355,128,61536,1,0,0:0:0:0:
454,28,61694,5,0,0:0:0:0:
355,128,61852,1,0,0:0:0:0:
355,215,62010,5,0,0:0:0:0:
355,128,62168,1,0,0:0:0:0:
128,216,62326,5,0,0:0:0:0:
277,68,62484,1,0,0:0:0:0:
128,216,62642,2,0,P|168:192|196:167,2,70
256,252,63431,1,0,0:0:0:0:
187,141,63589,1,0,0:0:0:0:
256,252,63747,5,0,0:0:0:0:
168,252,63904,5,0,0:0:0:0:
81,165,64062,1,0,0:0:0:0:
81,165,64220,5,0,0:0:0:0:
180,96,64378,1,0,0:0:0:0:
80,304,64536,5,0,0:0:0:0:
81,165,64694,1,0,0:0:0:0:
308,253,64852,5,0,0:0:0:0:
159,105,65010,1,0,0:0:0:0:
159,105,65168,2,0,P|192:140|216:148,2,70
256,344,65958,1,0,0:0:0:0:
186,216,66116,1,0,0:0:0:0:
256,188,66274,5,0,0:0:0:0:
344,108,66431,5,0,0:0:0:0:
483,280,66589,1,0,0:0:0:0:
483,280,66747,5,0,0:0:0:0:
384,349,66905,1,0,0:0:0:0:
484,141,67063,5,0,0:0:0:0:
483,280,67221,1,0,0:0:0:0:
256,188,67379,5,0,0:0:0:0:
405,340,67537,1,0,0:0:0:0:
256,188,67695,6,0,L|256:112,2,70,0|0|4,0:0|0:0|0:0,0:0:0:0:
384,154,68484,5,4,0:0:0:0:
256,118,68642,1,4,0:0:0:0:
347,95,68800,1,4,0:3:0:0:
218,127,68958,1,4,0:3:0:0:
287,62,69116,1,4,0:3:0:0:
191,155,69274,1,4,0:3:0:0:
294,64,69431,5,4,0:3:0:0:
330,192,69589,1,4,0:3:0:0:
218,64,69747,1,4,0:3:0:0:
182,192,69905,1,4,0:3:0:0:
317,28,70063,5,4,0:3:0:0:
375,232,70221,1,4,0:3:0:0:
195,28,70379,1,4,0:3:0:0:
137,232,70537,2,4,L|192:268,2,52.5000020027161
259,369,71010,5,4,0:0:0:0:
181,261,71168,1,4,0:0:0:0:
356,350,71326,1,4,0:0:0:0:
236,296,71484,1,4,0:0:0:0:
432,285,71642,1,4,0:0:0:0:
301,299,71800,1,4,0:0:0:0:
393,214,71958,5,4,3:0:0:0:
366,92,72116,1,4,3:0:0:0:
246,54,72273,1,4,3:0:0:0:
181,92,72431,1,4,3:0:0:0:
301,54,72588,1,4,3:0:0:0:
400,136,72747,2,4,P|414:198|410:238,1,105.000004005432
236,180,73221,5,4,0:0:0:0:
410,238,73379,1,4,0:0:0:0:
232,191,73537,1,4,0:0:0:0:
412,154,73695,1,4,0:0:0:0:
235,203,73852,1,4,0:0:0:0:
372,81,74010,1,4,0:0:0:0:
244,212,74168,1,4,0:0:0:0:
281,176,74326,5,4,0:0:0:0:
61,250,74484,1,4,0:0:0:0:
285,191,74642,1,4,0:0:0:0:
58,144,74800,1,4,0:0:0:0:
281,206,74957,1,4,0:0:0:0:
108,52,75115,1,4,0:0:0:0:
271,217,75273,2,4,P|328:216|376:180,2,105.000004005432
308,80,77168,5,0,0:0:0:0:
400,240,77326,1,0,0:0:0:0:
204,80,77484,5,0,0:0:0:0:
112,240,77642,1,0,0:0:0:0:
332,306,77800,5,0,0:0:0:0:
468,69,77958,1,0,0:0:0:0:
179,306,78116,5,0,0:0:0:0:
42,69,78274,1,0,0:0:0:0:
400,124,78431,6,0,L|344:176,1,70
398,221,78589,1,0,0:0:0:0:
269,33,78747,2,0,L|286:107,1,70
352,83,78905,1,0,0:0:0:0:
125,101,79063,2,0,L|198:123,1,70
210,54,79221,1,0,0:0:0:0:
112,260,79379,2,0,L|168:208,1,70
114,162,79537,1,0,0:0:0:0:
125,101,79695,6,0,L|198:123,1,70
210,54,79853,1,0,0:0:0:0:
269,33,80010,2,0,L|286:107,1,70
352,83,80168,1,0,0:0:0:0:
400,124,80326,2,0,L|344:176,1,70
398,221,80484,1,0,0:0:0:0:
386,282,80642,2,0,L|313:260,1,70
301,329,80800,1,0,0:0:0:0:
180,216,80958,6,0,L|256:152,1,70
396,184,81116,2,0,L|328:144,1,70
260,24,81273,2,0,L|272:100,1,70
341,93,81431,1,0,0:0:0:0:
184,152,81589,2,0,L|256:192,1,70
245,257,81747,1,0,0:0:0:0:
396,52,81905,2,0,L|384:136,1,70
386,192,82063,1,0,0:0:0:0:
160,288,82221,6,0,L|208:232,1,70
205,165,82379,1,0,0:0:0:0:
289,306,82537,2,0,L|284:232,1,70
284,166,82695,1,0,0:0:0:0:
308,244,86010,6,0,L|334:328,1,70
390,248,86168,2,0,L|374:328,1,70
461,285,86326,2,0,L|401:332,1,70
348,372,86484,5,0,0:0:0:0:
284,352,86562,1,0,0:0:0:0:
224,316,86641,1,0,0:0:0:0:
172,268,86720,1,0,0:0:0:0:
140,204,86799,1,0,0:0:0:0:
156,136,86878,1,0,0:0:0:0:
208,88,86958,1,0,0:0:0:0:
276,96,87036,1,0,0:0:0:0:
336,132,87115,1,0,0:0:0:0:
372,192,87194,1,0,0:0:0:0:
404,252,87273,5,0,0:0:0:0:
440,192,87352,1,0,0:0:0:0:
420,124,87431,1,0,0:0:0:0:
372,72,87510,1,0,0:0:0:0:
304,64,87589,1,0,0:0:0:0:
240,96,87668,1,0,0:0:0:0:
220,164,87747,1,0,0:0:0:0:
244,228,87826,1,0,0:0:0:0:
308,256,87905,1,0,0:0:0:0:
372,228,87984,5,0,0:0:0:0:
372,228,88063,1,0,0:0:0:0:
372,228,88142,1,0,0:0:0:0:
372,228,88221,1,0,0:0:0:0:
372,228,88300,1,0,0:0:0:0:
372,228,88379,1,0,0:0:0:0:
372,228,88458,1,0,0:0:0:0:
176,112,88537,5,0,0:0:0:0:
372,244,88695,1,0,0:0:0:0:
336,112,88852,5,0,3:0:0:0:
204,308,89010,1,0,3:0:0:0:
181,90,89168,5,0,0:0:0:0:
396,236,89326,1,0,0:0:0:0:
357,90,89484,5,0,3:0:0:0:
212,306,89642,1,0,3:0:0:0:
188,67,89800,5,0,0:0:0:0:
424,225,89958,1,0,0:0:0:0:
380,67,90116,5,0,3:0:0:0:
222,302,90274,1,0,3:0:0:0:
203,52,90431,5,0,0:0:0:0:
438,211,90589,1,0,0:0:0:0:
230,299,90747,1,0,0:0:0:0:
288,253,90825,1,0,0:0:0:0:
304,182,90904,1,0,0:0:0:0:
271,116,90983,1,0,0:0:0:0:
205,85,91063,5,0,0:0:0:0:
297,301,91221,1,0,0:0:0:0:
417,178,91379,5,0,0:0:0:0:
181,213,91537,1,0,0:0:0:0:
291,53,91695,5,0,0:0:0:0:
195,293,91852,1,0,0:0:0:0:
383,291,92010,5,0,0:0:0:0:
173,135,92168,1,0,0:0:0:0:
382,97,92326,5,0,0:0:0:0:
122,207,92484,1,0,0:0:0:0:
278,366,92642,5,0,0:0:0:0:
235,85,92800,1,0,0:0:0:0:
412,214,92958,5,0,0:0:0:0:
150,108,93116,1,0,0:0:0:0:
326,88,93273,5,0,0:0:0:0:
259,119,93352,1,0,0:0:0:0:
256,199,93431,1,0,0:0:0:0:
238,274,93510,1,0,0:0:0:0:
159,274,93589,5,0,0:0:0:0:
392,100,93747,1,0,0:0:0:0:
135,262,93905,5,0,0:0:0:0:
420,118,94063,1,0,0:0:0:0:
111,245,94221,5,0,0:0:0:0:
448,143,94379,1,0,0:0:0:0:
89,221,94537,5,0,0:0:0:0:
473,176,94695,1,0,0:0:0:0:
292,313,94852,5,0,0:0:0:0:
192,40,95010,1,0,0:0:0:0:
319,316,95168,5,0,0:0:0:0:
158,40,95326,1,0,0:0:0:0:
348,315,95484,5,0,0:0:0:0:
121,46,95642,1,0,0:0:0:0:
380,307,95800,5,0,0:0:0:0:
82,60,95958,1,0,0:0:0:0:
384,105,96116,5,0,0:0:0:0:
103,318,96274,1,0,0:0:0:0:
127,105,96431,5,0,0:0:0:0:
408,318,96589,1,0,0:0:0:0:
410,184,96747,5,0,0:0:0:0:
60,221,96905,1,0,0:0:0:0:
190,52,97062,5,0,0:0:0:0:
321,378,97220,1,0,0:0:0:0:
380,297,97379,5,0,0:0:0:0:
82,73,97537,1,0,0:0:0:0:
306,36,97694,5,0,0:0:0:0:
171,383,97852,1,0,0:0:0:0:
376,104,98010,5,0,0:0:0:0:
376,104,98089,1,0,0:0:0:0:
376,104,98168,1,0,0:0:0:0:
376,104,98247,1,0,0:0:0:0:
376,104,98326,1,0,0:0:0:0:
224,288,98484,6,0,L|216:232,1,52.5000020027161
328,376,103695,5,0,0:0:0:0:
347,358,103773,1,0,0:0:0:0:
359,335,103852,1,0,0:0:0:0:
365,309,103931,1,0,0:0:0:0:
363,283,104010,1,0,0:0:0:0:
353,259,104089,1,0,0:0:0:0:
337,239,104168,1,0,0:0:0:0:
315,224,104247,1,0,0:0:0:0:
290,216,104326,1,0,0:0:0:0:
260,256,104405,5,0,0:0:0:0:
191,251,104483,1,0,0:0:0:0:
139,206,104562,1,0,0:0:0:0:
123,139,104641,1,0,0:0:0:0:
151,76,104720,1,0,0:0:0:0:
211,42,104799,1,0,0:0:0:0:
279,51,104878,1,0,0:0:0:0:
329,98,104957,1,0,0:0:0:0:
340,166,105036,1,0,0:0:0:0:
272,168,105116,5,0,0:0:0:0:
270,150,105194,1,0,0:0:0:0:
278,135,105273,1,0,0:0:0:0:
294,127,105352,1,0,0:0:0:0:
311,129,105431,1,0,0:0:0:0:
174,75,105589,5,0,0:0:0:0:
174,75,105747,5,0,0:0:0:0:
174,75,105905,5,0,0:0:0:0:
104,259,106063,6,0,L|145:209,1,52.5000020027161
