osu file format v14

[General]
AudioFilename: audio.mp3
AudioLeadIn: 0
PreviewTime: 25379
Countdown: 0
SampleSet: None
StackLeniency: 0.2
Mode: 0
LetterboxInBreaks: 0
WidescreenStoryboard: 0
SamplesMatchPlaybackRate: 1

[Editor]
Bookmarks: 19695,25379,40537,53642,55063,58221,68326,72747,75905,77168,86484,87905,88537,98010,100537,103695,105589
DistanceSpacing: 2
BeatDivisor: 8
GridSize: 16
TimelineZoom: 1.900006

[Metadata]
Title:Victimized
TitleUnicode:Victimized
Artist:Linkin Park
ArtistUnicode:Linkin Park
Creator:Overboked
Version:Insane
Source:
Tags:
BeatmapID:1298053
BeatmapSetID:615419

[Difficulty]
HPDrainRate:6
CircleSize:4
OverallDifficulty:7
ApproachRate:10
SliderMultiplier:1.4
SliderTickRate:1

[Events]
//Background and Video events
0,0,"war-01.jpg",0,0
//Break Periods
2,81546,85410
2,98836,103095
//Storyboard Layer 0 (Background)
//Storyboard Layer 1 (Fail)
//Storyboard Layer 2 (Pass)
//Storyboard Layer 3 (Foreground)
//Storyboard Sound Samples

[TimingPoints]
7690,315.789473684211,4,3,1,100,1,0
10221,-50,4,3,1,100,0,1
10300,-50,4,3,1,5,0,1
10379,-50,4,3,1,100,0,1
10616,-50,4,3,1,5,0,1
10695,-50,4,3,1,100,0,1
10931,-50,4,3,1,5,0,1
11010,-50,4,3,1,100,0,1
11247,-50,4,3,1,5,0,1
11326,-50,4,3,1,100,0,1
11563,-50,4,3,1,5,0,1
11642,-50,4,3,1,100,0,1
11879,-50,4,3,1,5,0,1
11958,-50,4,3,1,100,0,1
12195,-50,4,3,1,5,0,1
12273,-50,4,3,1,100,0,1
12510,-50,4,3,1,5,0,1
12589,-50,4,3,1,100,0,1
12826,-50,4,3,1,5,0,1
12905,-50,4,3,1,100,0,1
13142,-50,4,3,1,5,0,1
13221,-50,4,3,1,100,0,1
13458,-50,4,3,1,5,0,1
13537,-50,4,3,1,100,0,1
13773,-50,4,3,1,5,0,1
13852,-50,4,3,1,100,0,1
14089,-50,4,3,1,5,0,1
14168,-50,4,3,1,100,0,1
14405,-50,4,3,1,5,0,1
14484,-50,4,3,1,100,0,1
15268,-100,4,3,1,100,0,1
15352,-50,4,3,1,5,0,1
15431,-50,4,3,1,100,0,1
15668,-50,4,3,1,5,0,1
15747,-50,4,3,1,100,0,1
15984,-50,4,3,1,5,0,1
16063,-50,4,3,1,100,0,1
16300,-50,4,3,1,5,0,1
16379,-50,4,3,1,100,0,1
16616,-50,4,3,1,5,0,1
16695,-50,4,3,1,100,0,1
16931,-50,4,3,1,5,0,1
17010,-50,4,3,1,100,0,1
17247,-50,4,3,1,5,0,1
17326,-50,4,3,1,100,0,1
17563,-50,4,3,1,5,0,1
17642,-50,4,3,1,100,0,1
17800,-50,4,3,1,40,0,1
19694,-50,4,3,1,100,0,0
20321,-200,4,3,1,100,0,0
20642,-100,4,3,1,100,0,0
25379,-100,4,3,1,40,0,0
29795,-200,4,3,1,100,0,0
30431,-100,4,3,1,40,0,0
34847,-200,4,3,1,100,0,0
35484,-200,4,3,0,40,0,0
39905,-200,4,3,1,100,0,0
40537,-200,4,3,1,5,0,0
41484,-200,4,3,1,5,0,0
41800,-200,4,3,1,5,0,0
43063,-200,4,3,1,5,0,0
44326,-200,4,3,1,100,0,0
45589,-50,4,3,1,100,0,1
45668,-50,4,3,1,5,0,1
45747,-50,4,3,1,100,0,1
45905,-50,4,3,1,100,0,1
45984,-50,4,3,1,5,0,1
46063,-50,4,3,1,100,0,1
46300,-50,4,3,1,5,0,1
46379,-50,4,3,1,100,0,1
46537,-50,4,3,1,100,0,1
46616,-50,4,3,1,5,0,1
46695,-50,4,3,1,100,0,1
46852,-50,4,3,1,100,0,1
46931,-50,4,3,1,5,0,1
47010,-50,4,3,1,100,0,1
47168,-50,4,3,1,100,0,1
47247,-50,4,3,1,5,0,1
47326,-50,4,3,1,100,0,1
47484,-50,4,3,1,100,0,1
47563,-50,4,3,1,5,0,1
47642,-50,4,3,1,100,0,1
47800,-50,4,3,1,100,0,1
47879,-50,4,3,1,5,0,1
47958,-50,4,3,1,100,0,1
48195,-50,4,3,1,5,0,1
48273,-50,4,3,1,100,0,1
48352,-50,4,3,1,5,0,1
48431,-50,4,3,1,100,0,1
48510,-50,4,3,1,5,0,1
48589,-50,4,3,1,100,0,1
48826,-50,4,3,1,5,0,1
48905,-50,4,3,1,100,0,1
49142,-50,4,3,1,5,0,1
49221,-50,4,3,1,100,0,1
49458,-50,4,3,1,5,0,1
49537,-50,4,3,1,100,0,1
49773,-50,4,3,1,5,0,1
49852,-50,4,3,1,100,0,1
50721,-50,4,3,1,5,0,1
50800,-50,4,3,1,100,0,1
51037,-50,4,3,1,5,0,1
51116,-50,4,3,1,100,0,1
51352,-50,4,3,1,5,0,1
51431,-50,4,3,1,100,0,1
51668,-50,4,3,1,5,0,1
51747,-50,4,3,1,100,0,1
51984,-50,4,3,1,5,0,1
52063,-50,4,3,1,100,0,1
52300,-50,4,3,1,5,0,1
52379,-50,4,3,1,100,0,1
52616,-50,4,3,1,5,0,1
52695,-50,4,3,1,100,0,1
52931,-50,4,3,1,5,0,1
53010,-50,4,3,1,100,0,1
53247,-50,4,3,1,5,0,1
53326,-50,4,3,1,100,0,1
53405,-50,4,3,1,5,0,1
53484,-50,4,3,1,100,0,1
53563,-50,4,3,1,5,0,1
53642,-50,4,3,1,40,0,1
55063,-50,4,3,1,100,0,0
55695,-200,4,3,1,100,0,0
68326,-133.333333333333,4,3,1,100,0,0
78431,-50,4,3,1,100,0,0
87584,-40,4,3,1,100,0,0
87900,-33.3333333333333,4,3,1,100,0,0
90747,-50,4,3,1,100,0,0
91063,-133.333333333333,4,3,1,100,0,0
93273,-50,4,3,1,100,0,0
93589,-133.333333333333,4,3,1,100,0,0
103695,-100,4,3,1,40,0,0
103695,-133.333333333333,4,3,1,40,0,0
103695,-100,4,3,1,40,0,0
104405,-50,4,3,1,40,0,0
105116,-200,4,3,1,40,0,0
106063,-50,4,3,1,40,0,0

[HitObjects]
124,88,7690,5,8,0:0:0:0:
104,304,7847,1,8,0:0:0:0:
352,44,8005,1,8,0:0:0:0:
344,328,8163,1,8,0:0:0:0:
80,212,8321,1,8,0:0:0:0:
282,194,8479,1,8,0:0:0:0:
200,40,8637,5,8,0:0:0:0:
448,148,8795,1,0,0:0:0:0:
196,336,8953,5,8,0:0:0:0:
356,200,9111,5,8,0:0:0:0:
456,16,9268,5,8,0:0:0:0:
460,228,9426,5,8,0:0:0:0:
311,376,9584,5,8,0:0:0:0:
120,292,9742,5,8,0:0:0:0:
418,250,9900,5,8,0:0:0:0:
232,76,10058,5,8,0:0:0:0:
290,302,10216,5,0,0:0:0:0:
373,109,10374,1,0,0:0:0:0:
191,215,10532,5,0,0:0:0:0:
397,174,10690,1,0,0:0:0:0:
147,263,10847,5,0,0:0:0:0:
218,65,11005,1,0,0:0:0:0:
278,242,11163,5,0,0:0:0:0:
142,32,11321,1,0,0:0:0:0:
437,91,11479,5,0,0:0:0:0:
147,144,11637,1,0,0:0:0:0:
449,193,11795,5,0,0:0:0:0:
92,59,11953,1,0,0:0:0:0:
283,281,12111,5,0,0:0:0:0:
399,12,12268,1,0,0:0:0:0:
393,196,12426,5,0,0:0:0:0:
198,86,12584,1,0,0:0:0:0:
151,216,12742,5,0,0:0:0:0:
366,17,12900,1,0,0:0:0:0:
119,308,13058,5,0,0:0:0:0:
122,44,13216,1,0,0:0:0:0:
303,181,13374,5,0,0:0:0:0:
79,163,13532,1,0,0:0:0:0:
350,57,13690,5,0,0:0:0:0:
66,218,13847,1,0,0:0:0:0:
156,27,14005,5,0,0:0:0:0:
326,245,14162,1,0,0:0:0:0:
66,136,14321,5,0,0:0:0:0:
338,69,14479,1,0,0:0:0:0:
78,258,14637,1,0,0:0:0:0:
107,195,14716,1,0,0:0:0:0:
165,157,14794,1,0,0:0:0:0:
234,155,14873,1,0,0:0:0:0:
294,189,14952,1,0,0:0:0:0:
335,243,15031,1,0,0:0:0:0:
402,249,15110,1,0,0:0:0:0:
452,203,15189,1,0,0:0:0:0:
452,135,15268,2,0,L|340:101,1,70
263,26,15584,5,0,0:0:0:0:
436,246,15742,1,0,0:0:0:0:
252,109,15900,5,0,0:0:0:0:
438,166,16058,1,0,0:0:0:0:
263,26,16216,5,0,0:0:0:0:
185,251,16374,1,0,0:0:0:0:
386,124,16532,5,0,0:0:0:0:
299,346,16690,1,0,0:0:0:0:
450,165,16847,5,0,0:0:0:0:
230,255,17005,1,0,0:0:0:0:
136,36,17163,5,0,0:0:0:0:
329,238,17321,1,0,0:0:0:0:
86,96,17479,5,0,0:0:0:0:
364,126,17637,1,0,0:0:0:0:
88,178,17795,1,0,0:0:0:0:
143,136,17874,1,0,0:0:0:0:
209,150,17953,1,0,0:0:0:0:
244,208,18032,1,0,0:0:0:0:
224,273,18111,1,0,0:0:0:0:
169,235,18189,1,0,0:0:0:0:
110,265,18268,1,0,0:0:0:0:
110,332,18347,1,0,0:0:0:0:
169,363,18426,5,0,0:0:0:0:
224,320,18504,1,0,0:0:0:0:
287,289,18583,1,0,0:0:0:0:
354,272,18662,1,0,0:0:0:0:
424,270,18742,1,0,0:0:0:0:
468,217,18820,1,0,0:0:0:0:
471,148,18899,1,0,0:0:0:0:
431,92,18978,1,0,0:0:0:0:
365,72,19058,5,0,0:0:0:0:
295,76,19136,1,0,0:0:0:0:
231,104,19215,1,0,0:0:0:0:
191,160,19295,1,0,0:0:0:0:
257,175,19373,1,0,0:0:0:0:
289,235,19452,1,0,0:0:0:0:
265,299,19531,1,0,0:0:0:0:
202,323,19610,1,0,0:0:0:0:
142,292,19690,5,0,0:0:0:0:
350,105,19848,1,0,0:0:0:0:
86,202,20005,5,0,0:0:0:0:
465,126,20163,1,0,0:0:0:0:
362,142,20321,6,0,L|344:218,1,70
155,141,25374,5,4,0:0:0:0:
155,141,25532,1,4,0:0:0:0:
155,141,25690,1,4,0:0:0:0:
155,141,25847,1,4,0:0:0:0:
155,141,26005,1,6,0:0:0:0:
155,141,26163,1,6,0:0:0:0:
253,152,26321,1,6,0:0:0:0:
339,197,26479,1,4,0:0:0:0:
306,289,26637,5,4,0:0:0:0:
306,289,26795,1,4,0:0:0:0:
306,289,26953,1,4,0:0:0:0:
381,164,27111,5,4,0:0:0:0:
342,194,27190,1,4,0:0:0:0:
295,205,27268,1,4,0:0:0:0:
177,175,27426,5,4,0:0:0:0:
177,175,27584,1,4,0:0:0:0:
177,175,27742,1,4,0:0:0:0:
272,132,27900,1,4,0:0:0:0:
346,206,28058,1,4,0:0:0:0:
420,131,28216,1,4,0:0:0:0:
345,56,28374,1,4,0:0:0:0:
270,130,28532,1,4,0:0:0:0:
344,204,28690,1,4,0:0:0:0:
292,180,28847,5,4,0:0:0:0:
390,108,29005,1,4,0:0:0:0:
395,231,29163,1,4,0:0:0:0:
395,231,29321,1,4,0:0:0:0:
395,231,29479,1,4,0:0:0:0:
228,192,29637,5,4,0:0:0:0:
275,205,29716,1,4,0:0:0:0:
320,220,29795,2,4,P|296:288|232:308,1,140
380,156,30584,5,4,0:0:0:0:
380,156,30742,1,4,0:0:0:0:
380,156,30900,1,4,0:0:0:0:
380,156,31058,1,4,0:0:0:0:
380,156,31216,1,4,0:0:0:0:
244,158,31374,1,4,0:0:0:0:
163,105,31532,1,4,0:0:0:0:
351,203,31690,1,4,0:0:0:0:
351,203,31847,1,4,0:0:0:0:
351,203,32005,1,4,0:0:0:0:
222,130,32163,5,4,0:0:0:0:
253,169,32242,1,4,0:0:0:0:
269,214,32321,1,4,0:0:0:0:
174,236,32479,1,4,0:0:0:0:
121,155,32637,1,4,0:0:0:0:
211,194,32795,1,4,0:0:0:0:
331,127,32953,5,4,0:0:0:0:
331,127,33111,1,4,0:0:0:0:
331,127,33268,1,4,0:0:0:0:
331,127,33426,1,4,0:0:0:0:
331,127,33584,1,4,0:0:0:0:
331,127,33742,1,4,0:0:0:0:
353,222,33900,1,4,0:0:0:0:
272,275,34058,1,4,0:0:0:0:
177,141,34216,5,4,0:0:0:0:
177,141,34374,1,4,0:0:0:0:
177,141,34532,1,4,0:0:0:0:
292,236,34690,5,4,0:0:0:0:
292,187,34768,1,4,0:0:0:0:
292,138,34847,2,4,P|232:98|168:114,1,140
303,147,35637,5,4,0:0:0:0:
272,183,35795,1,4,0:0:0:0:
146,122,35953,5,4,0:0:0:0:
261,275,36111,1,4,0:0:0:0:
242,211,36268,5,4,0:0:0:0:
138,278,36426,5,4,0:0:0:0:
200,130,36584,1,4,0:0:0:0:
314,247,36742,1,4,0:0:0:0:
359,144,36900,5,4,0:0:0:0:
320,113,37058,1,4,0:0:0:0:
286,245,37216,1,4,0:0:0:0:
251,210,37295,1,4,0:0:0:0:
216,175,37374,1,4,0:0:0:0:
146,105,37532,1,4,0:0:0:0:
373,211,37690,5,4,0:0:0:0:
186,278,37847,5,4,0:0:0:0:
362,158,38005,5,4,0:0:0:0:
264,158,38163,1,4,0:0:0:0:
194,227,38321,1,4,0:0:0:0:
311,60,38479,5,4,0:0:0:0:
146,224,38637,1,4,0:0:0:0:
300,261,38795,5,4,0:0:0:0:
121,164,38953,5,4,0:0:0:0:
183,278,39111,5,4,0:0:0:0:
339,127,39268,5,4,0:0:0:0:
264,189,39426,1,4,0:0:0:0:
194,119,39584,1,4,0:0:0:0:
304,164,39742,1,4,0:0:0:0:
340,188,39821,1,4,0:0:0:0:
376,212,39900,2,4,B|445:253|445:253|440:192,1,140,4|0,0:0|0:0,0:0:0:0:
128,240,41479,5,2,0:0:0:0:
360,108,41795,2,2,L|347:182,1,70
219,195,42426,2,2,L|232:267,1,70
136,104,43058,1,2,0:0:0:0:
57,24,44321,5,8,0:0:0:0:
51,308,44479,1,8,0:0:0:0:
164,7,44637,5,8,0:0:0:0:
159,292,44795,1,8,0:0:0:0:
272,56,44953,5,8,0:0:0:0:
266,341,45111,1,8,0:0:0:0:
379,56,45268,5,8,0:0:0:0:
374,341,45426,1,8,0:0:0:0:
376,148,45584,6,0,L|304:200,1,70
272,56,45742,1,0,0:0:0:0:
180,320,45900,2,0,L|208:240,1,70
336,208,46058,1,0,0:0:0:0:
136,132,46216,2,0,L|200:176,1,70,4|0,0:0|0:0,0:0:0:0:
332,140,46374,1,0,0:0:0:0:
88,276,46532,2,0,L|196:284,1,70
208,148,46690,1,0,0:0:0:0:
412,340,46847,6,0,B|410:300|410:300|368:256,1,70
404,140,47005,1,0,0:0:0:0:
196,304,47163,2,0,B|214:302|214:302|292:228,1,70
280,132,47321,1,0,0:0:0:0:
104,60,47479,2,0,B|136:92|136:92|140:132,1,70
280,132,47637,1,0,0:0:0:0:
44,280,47795,2,0,B|79:248|79:248|124:244,1,70
224,316,47953,1,0,0:0:0:0:
376,104,48111,6,0,L|320:160,1,70
192,188,48268,2,0,L|276:164,1,70
388,228,48426,2,0,L|324:188,1,70
436,100,48584,1,0,0:0:0:0:
192,236,48742,2,0,L|264:196,1,70
304,68,48900,1,0,0:0:0:0:
396,332,49058,2,0,L|384:248,1,70
472,148,49216,1,0,0:0:0:0:
200,88,49374,6,0,L|248:144,1,70
388,152,49532,1,0,0:0:0:0:
289,78,49690,2,0,L|284:152,1,70
377,257,49848,1,0,0:0:0:0:
64,120,50005,5,0,0:0:0:0:
448,296,50163,1,0,0:0:0:0:
124,28,50321,1,0,0:0:0:0:
356,380,50479,1,0,0:0:0:0:
360,136,50637,6,0,L|304:184,1,70
296,324,50795,1,0,0:0:0:0:
369,225,50953,2,0,L|295:220,1,70
190,313,51111,1,0,0:0:0:0:
222,78,51268,2,0,L|227:152,1,70
134,257,51426,1,0,0:0:0:0:
412,208,51584,2,0,L|332:188,1,70
308,52,51742,1,0,0:0:0:0:
148,280,51900,6,0,L|232:248,1,70
244,116,52058,1,0,0:0:0:0:
464,292,52216,2,0,L|384:224,1,70
404,104,52374,1,0,0:0:0:0:
264,348,52532,2,0,L|308:248,1,70
244,148,52690,1,0,0:0:0:0:
44,344,52847,2,0,L|124:264,1,70
224,236,53005,1,0,0:0:0:0:
442,124,53163,6,0,L|398:200,1,70,0|0,3:0|3:0,3:0:0:0:
248,196,53321,2,0,L|336:196,1,70,0|0,3:0|3:0,3:0:0:0:
384,40,53479,2,0,L|384:128,1,70
384,181,53637,5,4,0:0:0:0:
406,246,53715,1,4,0:0:0:0:
356,288,53794,1,4,0:0:0:0:
286,291,53873,1,4,0:0:0:0:
225,261,53952,1,4,0:0:0:0:
254,202,54031,1,4,0:0:0:0:
287,143,54110,1,4,0:0:0:0:
254,84,54189,1,4,0:0:0:0:
191,55,54268,1,4,0:0:0:0:
122,45,54347,1,4,0:0:0:0:
81,90,54426,5,4,0:0:0:0:
83,159,54505,1,4,0:0:0:0:
143,173,54584,1,4,0:0:0:0:
211,158,54663,1,4,0:0:0:0:
277,179,54742,1,4,0:0:0:0:
302,236,54821,1,4,0:0:0:0:
252,288,54900,1,4,0:0:0:0:
184,312,54979,1,4,0:0:0:0:
112,300,55058,5,0,0:0:0:0:
420,56,55216,1,0,0:0:0:0:
80,72,55374,5,0,0:0:0:0:
428,280,55532,1,0,0:0:0:0:
168,288,55690,6,0,P|192:248|196:220,1,70
188,184,58216,5,0,0:0:0:0:
249,122,58374,1,0,0:0:0:0:
310,60,58532,1,0,0:0:0:0:
299,126,58690,5,0,0:0:0:0:
211,126,58847,5,0,0:0:0:0:
149,188,59005,1,0,0:0:0:0:
50,288,59163,5,0,0:0:0:0:
149,188,59321,1,0,0:0:0:0:
149,101,59479,5,0,0:0:0:0:
149,188,59637,1,0,0:0:0:0:
376,100,59795,5,0,0:0:0:0:
227,248,59953,1,0,0:0:0:0:
376,100,60111,2,0,P|344:112|324:156,2,70
219,141,60900,1,0,0:0:0:0:
293,66,61058,1,0,0:0:0:0:
205,66,61216,5,0,0:0:0:0:
293,66,61373,5,0,0:0:0:0:
355,128,61531,1,0,0:0:0:0:
454,28,61689,5,0,0:0:0:0:
355,128,61847,1,0,0:0:0:0:
355,215,62005,5,0,0:0:0:0:
355,128,62163,1,0,0:0:0:0:
128,216,62321,5,0,0:0:0:0:
277,68,62479,1,0,0:0:0:0:
128,216,62637,2,0,P|168:192|196:167,2,70
256,252,63426,1,0,0:0:0:0:
187,141,63584,1,0,0:0:0:0:
256,252,63742,5,0,0:0:0:0:
168,252,63899,5,0,0:0:0:0:
81,165,64057,1,0,0:0:0:0:
81,165,64215,5,0,0:0:0:0:
180,96,64373,1,0,0:0:0:0:
80,304,64531,5,0,0:0:0:0:
81,165,64689,1,0,0:0:0:0:
308,253,64847,5,0,0:0:0:0:
159,105,65005,1,0,0:0:0:0:
159,105,65163,2,0,P|192:140|216:148,2,70
256,344,65953,1,0,0:0:0:0:
186,216,66111,1,0,0:0:0:0:
256,188,66269,5,0,0:0:0:0:
344,108,66426,5,0,0:0:0:0:
483,280,66584,1,0,0:0:0:0:
483,280,66742,5,0,0:0:0:0:
384,349,66900,1,0,0:0:0:0:
484,141,67058,5,0,0:0:0:0:
483,280,67216,1,0,0:0:0:0:
256,188,67374,5,0,0:0:0:0:
405,340,67532,1,0,0:0:0:0:
256,188,67690,6,0,L|256:112,2,70,0|0|4,0:0|0:0|0:0,0:0:0:0:
384,154,68479,5,4,0:0:0:0:
256,118,68637,1,4,0:0:0:0:
347,95,68795,1,4,0:3:0:0:
218,127,68953,1,4,0:3:0:0:
287,62,69111,1,4,0:3:0:0:
191,155,69269,1,4,0:3:0:0:
294,64,69426,5,4,0:3:0:0:
330,192,69584,1,4,0:3:0:0:
218,64,69742,1,4,0:3:0:0:
182,192,69900,1,4,0:3:0:0:
317,28,70058,5,4,0:3:0:0:
375,232,70216,1,4,0:3:0:0:
195,28,70374,1,4,0:3:0:0:
137,232,70532,2,4,L|192:268,2,52.5000020027161
259,369,71005,5,4,0:0:0:0:
181,261,71163,1,4,0:0:0:0:
356,350,71321,1,4,0:0:0:0:
236,296,71479,1,4,0:0:0:0:
432,285,71637,1,4,0:0:0:0:
301,299,71795,1,4,0:0:0:0:
393,214,71953,5,4,3:0:0:0:
366,92,72111,1,4,3:0:0:0:
246,54,72268,1,4,3:0:0:0:
181,92,72426,1,4,3:0:0:0:
301,54,72583,1,4,3:0:0:0:
400,136,72742,2,4,P|414:198|410:238,1,105.000004005432
236,180,73216,5,4,0:0:0:0:
410,238,73374,1,4,0:0:0:0:
232,191,73532,1,4,0:0:0:0:
412,154,73690,1,4,0:0:0:0:
235,203,73847,1,4,0:0:0:0:
372,81,74005,1,4,0:0:0:0:
244,212,74163,1,4,0:0:0:0:
281,176,74321,5,4,0:0:0:0:
61,250,74479,1,4,0:0:0:0:
285,191,74637,1,4,0:0:0:0:
58,144,74795,1,4,0:0:0:0:
281,206,74952,1,4,0:0:0:0:
108,52,75110,1,4,0:0:0:0:
271,217,75268,2,4,P|328:216|376:180,2,105.000004005432
226,68,77163,5,0,0:0:0:0:
318,228,77321,1,0,0:0:0:0:
297,62,77479,5,0,0:0:0:0:
205,222,77637,1,0,0:0:0:0:
194,90,77795,5,0,0:0:0:0:
330,327,77953,1,0,0:0:0:0:
362,59,78111,5,0,0:0:0:0:
225,296,78269,1,0,0:0:0:0:
400,124,78426,6,0,L|344:176,1,70
308,60,78584,1,0,0:0:0:0:
269,33,78742,2,0,L|286:107,1,70
167,80,78900,1,0,0:0:0:0:
125,101,79058,2,0,L|198:123,1,70
115,212,79216,1,0,0:0:0:0:
111,260,79374,2,0,L|168:208,1,70
204,324,79532,1,0,0:0:0:0:
112,124,79690,6,0,L|168:176,1,70
204,60,79848,1,0,0:0:0:0:
242,33,80006,2,0,L|225:107,1,70
344,80,80164,1,0,0:0:0:0:
386,101,80322,2,0,L|313:123,1,70
396,212,80480,1,0,0:0:0:0:
400,260,80638,2,0,L|344:208,1,70
308,324,80796,1,0,0:0:0:0:
180,216,80953,6,0,L|256:152,1,70
396,184,81111,2,0,L|328:144,1,70
260,24,81268,2,0,L|272:100,1,70
102,311,86005,5,0,0:0:0:0:
71,250,86084,1,0,0:0:0:0:
104,192,86162,1,0,0:0:0:0:
171,185,86241,1,0,0:0:0:0:
214,237,86320,1,0,0:0:0:0:
194,300,86399,1,0,0:0:0:0:
244,343,86478,1,0,0:0:0:0:
303,314,86557,1,0,0:0:0:0:
299,248,86637,1,0,0:0:0:0:
312,183,86715,5,0,0:0:0:0:
376,165,86794,1,0,0:0:0:0:
420,214,86873,1,0,0:0:0:0:
396,276,86953,1,0,0:0:0:0:
340,315,87031,1,0,0:0:0:0:
271,319,87110,1,0,0:0:0:0:
210,285,87189,1,0,0:0:0:0:
178,224,87268,1,0,0:0:0:0:
173,156,87346,1,0,0:0:0:0:
211,98,87425,1,0,0:0:0:0:
276,75,87504,1,0,0:0:0:0:
341,97,87584,1,0,0:0:0:0:
274,153,87662,1,0,0:0:0:0:
206,208,87741,1,0,0:0:0:0:
139,264,87820,1,0,0:0:0:0:
71,320,87900,1,0,0:0:0:0:
83,217,87978,1,0,0:0:0:0:
142,131,88057,1,0,0:0:0:0:
234,83,88136,1,0,0:0:0:0:
338,83,88216,1,0,0:0:0:0:
431,124,88294,1,0,0:0:0:0:
466,220,88373,1,0,0:0:0:0:
421,311,88452,1,0,0:0:0:0:
324,342,88531,1,0,0:0:0:0:
336,112,88847,5,0,3:0:0:0:
204,308,89005,1,0,3:0:0:0:
181,90,89163,5,0,0:0:0:0:
396,236,89321,1,0,0:0:0:0:
357,90,89479,5,0,3:0:0:0:
212,306,89637,1,0,3:0:0:0:
188,67,89795,5,0,0:0:0:0:
424,225,89953,1,0,0:0:0:0:
380,67,90111,5,0,3:0:0:0:
222,302,90269,1,0,3:0:0:0:
203,52,90426,5,0,0:0:0:0:
438,211,90584,1,0,0:0:0:0:
230,299,90742,1,0,0:0:0:0:
288,253,90820,1,0,0:0:0:0:
304,182,90899,1,0,0:0:0:0:
271,116,90978,1,0,0:0:0:0:
205,85,91058,5,0,0:0:0:0:
297,301,91216,1,0,0:0:0:0:
417,178,91374,5,0,0:0:0:0:
181,213,91532,1,0,0:0:0:0:
291,53,91690,5,0,0:0:0:0:
195,293,91847,1,0,0:0:0:0:
383,291,92005,5,0,0:0:0:0:
173,135,92163,1,0,0:0:0:0:
382,97,92321,5,0,0:0:0:0:
122,207,92479,1,0,0:0:0:0:
278,366,92637,5,0,0:0:0:0:
235,85,92795,1,0,0:0:0:0:
412,214,92953,5,0,0:0:0:0:
150,108,93111,1,0,0:0:0:0:
326,88,93268,5,0,0:0:0:0:
259,119,93347,1,0,0:0:0:0:
256,199,93426,1,0,0:0:0:0:
238,274,93505,1,0,0:0:0:0:
159,274,93584,5,0,0:0:0:0:
392,100,93742,1,0,0:0:0:0:
135,262,93900,5,0,0:0:0:0:
420,118,94058,1,0,0:0:0:0:
111,245,94216,5,0,0:0:0:0:
448,143,94374,1,0,0:0:0:0:
89,221,94532,5,0,0:0:0:0:
473,176,94690,1,0,0:0:0:0:
292,313,94847,5,0,0:0:0:0:
192,40,95005,1,0,0:0:0:0:
319,316,95163,5,0,0:0:0:0:
158,40,95321,1,0,0:0:0:0:
348,315,95479,5,0,0:0:0:0:
121,46,95637,1,0,0:0:0:0:
380,307,95795,5,0,0:0:0:0:
82,60,95953,1,0,0:0:0:0:
384,105,96111,5,0,0:0:0:0:
103,318,96269,1,0,0:0:0:0:
127,105,96426,5,0,0:0:0:0:
408,318,96584,1,0,0:0:0:0:
410,184,96742,5,0,0:0:0:0:
60,221,96900,1,0,0:0:0:0:
190,52,97057,5,0,0:0:0:0:
321,378,97215,1,0,0:0:0:0:
380,297,97374,5,0,0:0:0:0:
82,73,97532,1,0,0:0:0:0:
306,36,97689,5,0,0:0:0:0:
171,383,97847,1,0,0:0:0:0:
376,104,98005,5,0,0:0:0:0:
376,104,98084,1,0,0:0:0:0:
376,104,98163,1,0,0:0:0:0:
376,104,98242,1,0,0:0:0:0:
376,104,98321,1,0,0:0:0:0:
224,288,98479,6,0,L|216:232,1,52.5000020027161
328,376,103690,5,0,0:0:0:0:
347,358,103768,1,0,0:0:0:0:
359,335,103847,1,0,0:0:0:0:
365,309,103926,1,0,0:0:0:0:
363,283,104005,1,0,0:0:0:0:
353,259,104084,1,0,0:0:0:0:
337,239,104163,1,0,0:0:0:0:
315,224,104242,1,0,0:0:0:0:
290,216,104321,1,0,0:0:0:0:
260,256,104400,5,0,0:0:0:0:
191,251,104478,1,0,0:0:0:0:
139,206,104557,1,0,0:0:0:0:
123,139,104636,1,0,0:0:0:0:
151,76,104715,1,0,0:0:0:0:
211,42,104794,1,0,0:0:0:0:
279,51,104873,1,0,0:0:0:0:
329,98,104952,1,0,0:0:0:0:
340,166,105031,1,0,0:0:0:0:
272,168,105111,5,0,0:0:0:0:
270,150,105189,1,0,0:0:0:0:
278,135,105268,1,0,0:0:0:0:
294,127,105347,1,0,0:0:0:0:
311,129,105426,1,0,0:0:0:0:
174,75,105584,5,0,0:0:0:0:
174,75,105742,5,0,0:0:0:0:
174,75,105900,5,0,0:0:0:0:
104,259,106058,6,0,L|145:209,1,52.5000020027161
