osu file format v14

[General]
AudioFilename: audio.mp3
AudioLeadIn: 0
PreviewTime: 83643
Countdown: 0
SampleSet: Soft
StackLeniency: 0.7
Mode: 0
LetterboxInBreaks: 0
WidescreenStoryboard: 1

[Editor]
DistanceSpacing: 1.2
BeatDivisor: 4
GridSize: 4
TimelineZoom: 1

[Metadata]
Title:Talking to Myself
TitleUnicode:Talking to Myself
Artist:Linkin Park
ArtistUnicode:Linkin Park
Creator:M a r v o l l o
Version:Insane
Source:
Tags:Shmiklak marvollo m_a_r_v_o_l_l_o One More Light alternative electronic wajinshu
BeatmapID:1363350
BeatmapSetID:643132

[Difficulty]
HPDrainRate:6
CircleSize:4
OverallDifficulty:7
ApproachRate:8
SliderMultiplier:1.8
SliderTickRate:1

[Events]
//Background and Video events
0,0,"rip chester from osu.jpg",0,0
//Break Periods
2,23480,38014
2,69931,78659
2,162835,169627
//Storyboard Layer 0 (Background)
//Storyboard Layer 1 (Fail)
//Storyboard Layer 2 (Pass)
//Storyboard Layer 3 (Foreground)
//Storyboard Sound Samples

[TimingPoints]
55,483.870967741935,4,2,1,80,1,0
6829,-100,4,2,1,100,0,0
7796,-100,4,2,1,90,0,0
38764,-133.333333333333,4,2,2,60,0,0
53280,-133.333333333333,4,2,2,80,0,0
54248,-133.333333333333,4,2,2,60,0,0
84248,-133.333333333333,4,2,1,100,0,0
85216,-100,4,2,1,90,0,1
100700,-133.333333333333,4,2,2,60,0,0
131667,-100,4,2,1,90,0,1
147151,-100,4,2,1,90,0,0
170377,-133.333333333333,4,2,1,60,0,0
181990,-133.333333333333,4,2,1,65,0,0
182958,-133.333333333333,4,2,1,70,0,0
183925,-133.333333333333,4,2,1,75,0,0
184167,-133.333333333333,4,2,1,80,0,0
184409,-133.333333333333,4,2,1,85,0,0
184651,-133.333333333333,4,2,1,90,0,0
184893,-133.333333333333,4,2,1,60,0,0
185861,-100,4,2,1,90,0,1
201345,-100,4,2,1,90,0,0
224571,-100,4,2,0,90,0,0

[Colours]
Combo1 : 108,122,164
Combo2 : 134,134,134

[HitObjects]
335,364,6829,5,8,0:0:0:0:
242,176,7071,1,8,0:0:0:0:
437,243,7313,5,8,0:0:0:0:
200,367,7554,1,8,0:0:0:0:
261,152,7796,6,0,P|265:103|254:36,1,90,4|0,0:0|0:0,0:0:0:0:
125,192,8280,2,0,P|121:241|132:308,1,90,8|0,0:0|0:0,0:0:0:0:
73,121,8764,1,2,0:0:0:0:
200,239,9006,1,0,0:0:0:0:
5,188,9248,1,8,0:0:0:0:
164,119,9490,1,0,0:0:0:0:
19,294,9732,6,0,P|24:244|28:191,1,90,2|0,0:0|0:0,0:0:0:0:
131,57,10216,2,0,P|136:106|140:160,1,90,8|0,0:0|0:0,0:0:0:0:
263,284,10700,1,2,0:0:0:0:
299,147,10942,1,0,0:0:0:0:
172,292,11184,1,8,0:0:0:0:
329,227,11425,1,0,0:0:0:0:
139,146,11667,6,0,P|88:139|20:144,1,90,4|0,0:0|0:0,0:0:0:0:
82,285,12151,2,0,P|133:292|201:287,1,90,8|0,0:0|0:0,0:0:0:0:
332,201,12635,1,2,0:0:0:0:
283,353,12877,1,0,0:0:0:0:
256,157,13119,1,8,0:0:0:0:
353,302,13361,1,0,0:0:0:0:
171,208,13603,6,0,P|164:145|177:93,1,90,2|0,0:0|0:0,0:0:0:0:
62,33,14087,2,0,P|69:96|56:148,1,90,8|0,0:0|0:0,0:0:0:0:
104,272,14571,1,8,3:2:0:0:
168,119,14813,1,0,0:0:0:0:
1,192,15054,1,8,0:0:0:0:
66,348,15296,1,8,3:2:0:0:
259,193,15538,6,0,P|263:148|256:104,1,90,4|0,0:0|0:0,0:0:0:0:
361,200,16022,2,0,P|353:244|358:288,1,90,8|0,0:0|0:0,0:0:0:0:
512,366,16506,1,2,0:0:0:0:
468,226,16748,1,0,0:0:0:0:
348,375,16990,1,8,0:0:0:0:
511,291,17232,1,0,0:0:0:0:
348,213,17474,6,0,P|288:205|229:221,1,90,2|0,0:0|0:0,0:0:0:0:
129,104,17958,2,0,P|173:108|217:100,1,90,8|0,0:0|0:0,0:0:0:0:
406,15,18442,1,2,0:0:0:0:
329,151,18684,1,0,0:0:0:0:
215,13,18925,1,8,0:0:0:0:
408,105,19167,1,0,0:0:0:0:
207,229,19409,6,0,P|154:229|97:226,1,90,4|0,0:0|0:0,0:0:0:0:
242,333,19893,2,0,P|294:328|351:320,1,90,8|0,0:0|0:0,0:0:0:0:
472,221,20377,1,2,0:0:0:0:
434,382,20619,1,0,0:0:0:0:
372,166,20861,1,8,0:0:0:0:
494,309,21103,1,0,0:0:0:0:
288,302,21345,6,0,P|229:292|168:267,1,90,4|0,0:0|0:0,0:0:0:0:
88,181,21829,2,0,P|147:171|208:146,1,90,8|0,0:0|0:0,0:0:0:0:
270,48,22313,1,2,0:0:0:0:
243,191,22554,1,0,0:0:0:0:
154,29,22796,1,8,0:0:0:0:
304,144,23038,1,0,0:0:0:0:
175,161,23280,5,0,0:0:0:0:
424,48,38764,6,0,P|419:112|416:188,1,135.000005149842,2|8,0:0|0:0,0:0:0:0:
473,240,39490,1,0,3:0:0:0:
473,240,39732,2,0,P|408:228|324:240,1,135.000005149842,2|8,0:0|0:0,0:0:0:0:
225,349,40700,6,0,P|164:356|80:328,1,135.000005149842,2|8,0:0|0:0,0:0:0:0:
36,278,41425,1,0,3:0:0:0:
36,278,41667,2,0,P|38:204|44:136,1,135.000005149842,2|8,0:0|0:0,0:0:0:0:
176,52,42635,6,0,P|177:127|180:194,1,135.000005149842,2|8,0:0|0:0,0:0:0:0:
237,244,43361,1,0,3:0:0:0:
237,244,43603,2,0,P|312:228|384:228,1,135.000005149842,2|8,0:0|0:0,0:0:0:0:
484,344,44571,6,0,P|409:360|337:360,1,135.000005149842,2|8,0:0|0:0,0:0:0:0:
272,340,45296,1,0,3:0:0:0:
272,340,45538,2,0,P|201:336|128:336,1,135.000005149842,2|8,0:0|0:0,0:0:0:0:
36,212,46506,6,0,P|32:142|32:68,1,135.000005149842,2|8,0:0|0:0,0:0:0:0:
100,36,47232,1,0,3:0:0:0:
100,36,47474,2,0,P|104:106|104:180,1,135.000005149842,2|8,0:0|0:0,0:0:0:0:
219,285,48442,6,0,P|220:219|215:133,1,135.000005149842,2|8,0:0|0:0,0:0:0:0:
228,72,49167,1,0,3:0:0:0:
228,72,49409,2,0,P|276:64|368:84,1,135.000005149842,2|8,0:0|0:0,0:0:0:0:
288,228,50377,6,0,P|291:292|296:367,1,135.000005149842,2|8,0:0|0:0,0:0:0:0:
376,372,51103,1,0,3:0:0:0:
376,372,51345,2,0,P|379:308|384:233,1,135.000005149842,2|8,0:0|0:0,0:0:0:0:
254,100,52313,6,0,P|215:95|172:96,2,67.5000025749208,2|0|8,0:0|0:0|0:0,0:0:0:0:
342,191,53038,1,0,3:0:0:0:
256,24,53280,1,8,3:0:0:0:
177,166,53522,1,0,0:0:0:0:
314,287,53764,2,0,P|317:253|318:206,1,67.5000025749208,8|0,3:0|0:0,3:0:0:0:
282,40,54248,6,0,P|323:63|423:47,1,135.000005149842,6|8,0:0|0:0,0:0:0:0:
479,19,54974,1,0,3:0:0:0:
479,19,55216,2,0,P|451:47|459:147,1,135.000005149842,8|8,3:0|0:0,0:0:0:0:
507,199,55942,1,0,0:0:0:0:
444,288,56184,6,0,P|375:279|298:269,1,135.000005149842,2|8,0:0|0:0,0:0:0:0:
248,320,56909,1,0,3:0:0:0:
248,320,57151,2,0,P|206:322|162:310,1,67.5000025749208,8|0,3:0|0:0,0:0:0:0:
104,296,57635,2,0,P|80:252|72:216,1,67.5000025749208,8|0,3:0|0:0,0:0:0:0:
76,128,58119,6,0,P|135:110|215:114,1,135.000005149842,2|8,0:0|0:0,0:0:0:0:
284,144,58845,1,0,3:0:0:0:
284,144,59087,2,0,P|332:164|408:128,1,135.000005149842,8|8,3:0|0:0,0:0:0:0:
420,52,59813,1,0,0:0:0:0:
500,124,60054,6,0,P|499:191|499:262,1,135.000005149842,2|8,0:0|0:0,0:0:0:0:
398,338,60780,1,0,3:0:0:0:
398,338,60901,1,0,3:0:0:0:
398,338,61022,2,0,P|350:337|312:328,1,67.5000025749208,8|0,3:0|0:0,0:0:0:0:
199,263,61506,1,8,3:0:0:0:
243,363,61748,1,0,0:0:0:0:
285,261,61990,6,0,P|271:216|180:176,1,135.000005149842,2|8,0:0|0:0,0:0:0:0:
124,208,62716,1,0,3:0:0:0:
124,208,62958,2,0,P|151:153|144:60,1,135.000005149842,8|8,3:0|0:0,0:0:0:0:
84,32,63684,1,0,0:0:0:0:
23,119,63925,6,0,P|30:183|36:264,1,135.000005149842,2|8,0:0|0:0,0:0:0:0:
36,336,64651,1,0,3:0:0:0:
36,336,64893,2,0,P|72:331|104:328,1,67.5000025749208,8|0,3:0|0:0,0:0:0:0:
174,289,65377,2,0,P|210:294|242:297,1,67.5000025749208,8|0,3:0|0:0,0:0:0:0:
337,245,65861,6,0,P|331:175|328:100,1,135.000005149842,2|8,0:0|0:0,0:0:0:0:
344,32,66587,1,0,3:0:0:0:
344,32,66829,2,0,P|308:64|208:80,1,135.000005149842,8|8,0:3|0:0,0:0:0:0:
144,68,67554,1,0,0:0:0:0:
63,169,67796,6,0,P|55:205|56:249,1,67.5000025749208,2|0,0:0|0:0,0:0:0:0:
149,335,68280,1,8,0:0:0:0:
16,316,68522,1,0,3:0:0:0:
16,316,68643,1,0,3:0:0:0:
16,316,68764,1,8,3:0:0:0:
144,250,69006,1,0,3:0:0:0:
22,154,69248,2,0,P|12:105|36:17,1,135.000005149842,8|2,3:0|0:0,0:0:0:0:
256,192,79409,12,0,83764,0:0:0:0:
431,93,84248,5,8,0:0:0:0:
375,273,84490,1,8,0:0:0:0:
341,56,84732,5,8,0:0:0:0:
451,214,84974,1,8,0:0:0:0:
207,144,85216,6,0,P|165:140|106:140,1,90,4|0,0:0|0:0,0:0:0:0:
52,266,85700,2,0,P|95:263|153:262,1,90,8|0,0:0|0:0,0:0:0:0:
301,344,86184,1,2,0:0:0:0:
367,184,86425,1,0,0:0:0:0:
391,373,86667,1,8,0:0:0:0:
286,241,86909,1,0,0:0:0:0:
440,110,87151,6,0,P|448:65|432:10,1,90,2|0,0:0|0:0,0:0:0:0:
285,155,87635,2,0,P|277:200|293:255,1,90,8|0,0:0|0:0,0:0:0:0:
283,52,88119,1,2,0:0:0:0:
372,196,88361,1,0,0:0:0:0:
185,82,88603,1,8,0:0:0:0:
371,108,88845,1,0,0:0:0:0:
166,230,89087,6,0,P|103:232|56:222,1,90,4|0,0:0|0:0,0:0:0:0:
7,100,89571,2,0,P|70:102|117:92,1,90,8|0,0:0|0:0,0:0:0:0:
234,1,90054,1,2,0:0:0:0:
188,130,90296,1,0,0:0:0:0:
103,23,90538,1,8,0:0:0:0:
270,88,90780,1,0,0:0:0:0:
101,218,91022,6,0,P|96:266|100:322,1,90,2|0,0:0|0:0,0:0:0:0:
4,189,91506,2,0,P|8:140|5:85,1,90,8|0,0:0|0:0,0:0:0:0:
154,26,91990,1,2,0:0:0:0:
101,153,92232,1,0,0:0:0:0:
26,24,92474,1,8,0:0:0:0:
181,117,92716,1,0,0:0:0:0:
30,259,92958,6,0,P|32:311|42:363,1,90,4|0,0:0|0:0,0:0:0:0:
161,250,93442,2,0,P|163:197|173:146,1,90,8|0,0:0|0:0,0:0:0:0:
292,36,93925,1,2,0:0:0:0:
312,193,94167,1,0,0:0:0:0:
203,30,94409,1,8,0:0:0:0:
366,92,94651,1,0,0:0:0:0:
202,191,94893,6,0,P|195:235|193:280,1,90,2|0,0:0|0:0,0:0:0:0:
338,325,95377,2,0,P|336:280|329:235,1,90,8|0,0:0|0:0,0:0:0:0:
261,91,95861,1,2,0:0:0:0:
392,168,96103,1,0,0:0:0:0:
202,191,96345,1,8,0:0:0:0:
341,98,96587,1,0,0:0:0:0:
117,33,96829,6,0,P|73:29|22:29,1,90,4|0,0:0|0:0,0:0:0:0:
135,185,97313,1,8,0:0:0:0:
190,47,97554,1,0,0:0:0:0:
272,250,97796,2,0,P|228:246|177:246,1,90,4|0,0:0|0:0,0:0:0:0:
51,359,98280,1,8,0:0:0:0:
37,207,98522,1,0,0:0:0:0:
197,80,98764,6,0,P|244:83|307:89,1,90,4|0,0:0|0:0,0:0:0:0:
465,30,99248,2,0,P|468:76|474:140,1,90,8|0,0:0|0:0,0:0:0:0:
385,296,99732,1,2,0:0:0:0:
510,236,99974,1,0,0:0:0:0:
308,199,100216,1,8,0:0:0:0:
467,297,100458,1,0,0:0:0:0:
238,337,100700,6,0,P|174:342|98:345,1,135.000005149842,4|8,0:0|0:0,0:0:0:0:
46,288,101425,1,0,3:0:0:0:
104,231,101667,2,0,P|116:166|104:82,1,135.000005149842,8|8,3:0|0:0,0:0:0:0:
260,40,102635,6,0,P|321:47|405:19,1,135.000005149842,2|8,0:0|0:0,0:0:0:0:
456,76,103361,1,0,3:0:0:0:
384,184,103603,2,0,P|395:228|399:272,1,67.5000025749208,8|0,3:0|0:0,0:0:0:0:
230,308,104087,2,0,P|241:264|245:220,1,67.5000025749208,8|0,3:0|0:0,0:0:0:0:
124,85,104571,6,0,P|200:113|256:105,1,135.000005149842,2|8,0:0|0:0,0:0:0:0:
332,85,105296,1,0,3:0:0:0:
389,142,105538,2,0,P|385:210|380:297,1,135.000005149842,8|8,3:0|0:0,0:0:0:0:
438,334,106264,1,0,3:0:0:0:
480,264,106506,6,0,P|476:195|471:109,1,135.000005149842,2|8,0:0|0:0,0:0:0:0:
388,36,107232,1,0,3:0:0:0:
388,36,107353,1,0,3:0:0:0:
388,36,107474,1,8,3:0:0:0:
496,53,107716,1,0,3:0:0:0:
389,142,107958,2,0,P|336:146|307:146,1,67.5000025749208,8|0,3:0|0:0,0:0:0:0:
185,108,108442,6,0,P|133:92|53:136,1,135.000005149842,4|8,0:0|0:0,0:0:0:0:
44,204,109167,1,0,3:0:0:0:
88,272,109409,2,0,P|157:261|223:255,1,135.000005149842,8|8,3:0|0:0,0:0:0:0:
372,320,110377,6,0,P|366:244|366:175,1,135.000005149842,2|8,0:0|0:0,0:0:0:0:
405,114,111103,1,0,3:0:0:0:
346,58,111345,2,0,P|296:52|272:56,1,67.5000025749208,8|0,3:0|0:0,0:0:0:0:
186,152,111829,2,0,P|236:146|260:150,1,67.5000025749208,8|0,3:0|0:0,0:0:0:0:
307,268,112313,6,0,P|263:288|163:268,1,135.000005149842,2|8,0:0|0:0,0:0:0:0:
104,244,113038,1,0,3:0:0:0:
40,192,113280,2,0,P|46:120|50:42,1,135.000005149842,8|8,3:0|0:0,0:0:0:0:
124,24,114006,1,0,3:0:0:0:
224,114,114248,6,0,P|269:119|365:87,1,135.000005149842,2|8,0:0|0:0,0:0:0:0:
412,36,114974,1,0,3:0:0:0:
412,36,115095,1,0,3:0:0:0:
412,36,115216,1,8,3:0:0:0:
384,170,115458,1,0,3:0:0:0:
281,33,115700,2,0,P|244:28|196:32,1,67.5000025749208,8|0,3:0|0:0,0:0:0:0:
102,107,116184,6,0,P|80:153|60:245,1,135.000005149842,4|8,0:0|0:0,0:0:0:0:
76,316,116909,1,0,3:0:0:0:
133,373,117151,2,0,P|208:365|272:360,1,135.000005149842,8|8,3:0|0:0,0:0:0:0:
324,303,117877,1,0,0:0:0:0:
266,245,118119,6,0,P|244:200|248:96,1,135.000005149842,2|8,0:0|0:0,0:0:0:0:
268,40,118845,1,0,3:0:0:0:
340,80,119087,2,0,P|372:80|416:64,1,67.5000025749208,8|0,3:0|0:0,0:0:0:0:
490,165,119571,2,0,P|458:165|414:149,1,67.5000025749208,8|0,3:0|0:0,0:0:0:0:
266,245,120054,6,0,P|209:240|109:272,1,135.000005149842,2|8,0:0|0:0,0:0:0:0:
68,308,120780,1,0,3:0:0:0:
140,348,121022,2,0,P|208:340|284:332,1,135.000005149842,8|8,3:0|0:0,0:0:0:0:
350,362,121748,1,0,0:0:0:0:
407,304,121990,6,0,P|420:252|412:152,1,135.000005149842,2|8,0:0|0:0,0:0:0:0:
376,100,122716,1,0,3:0:0:0:
376,100,122837,1,0,3:0:0:0:
376,100,122958,1,8,3:0:0:0:
494,164,123200,1,0,0:0:0:0:
326,176,123442,1,8,3:0:0:0:
463,93,123684,1,0,0:0:0:0:
359,258,123925,6,0,P|320:263|245:204,1,135.000005149842,4|8,0:0|0:0,0:0:0:0:
189,151,124651,1,0,3:0:0:0:
124,200,124893,2,0,P|113:252|125:344,1,135.000005149842,8|8,3:0|0:0,0:0:0:0:
196,360,125619,1,0,0:0:0:0:
253,302,125861,6,0,P|320:302|388:308,1,135.000005149842,2|8,0:0|0:0,0:0:0:0:
460,268,126587,1,0,3:0:0:0:
460,268,126708,1,0,3:0:0:0:
460,268,126829,1,8,3:0:0:0:
412,380,127071,1,0,3:0:0:0:
362,229,127313,1,8,3:0:0:0:
479,342,127554,1,0,3:0:0:0:
253,302,127796,6,0,P|247:240|261:153,1,135.000005149842,4|8,0:0|0:0,0:0:0:0:
300,100,128522,1,0,3:0:0:0:
242,42,128764,2,0,P|176:32|96:52,1,135.000005149842,8|8,3:0|0:0,0:0:0:0:
60,112,129490,1,0,3:0:0:0:
117,169,129732,6,0,P|124:216|120:256,1,67.5000025749208,2|0,0:0|0:0,0:0:0:0:
63,342,130216,1,8,0:0:0:0:
30,229,130458,1,0,3:0:0:0:
30,229,130579,1,0,3:0:0:0:
30,229,130700,2,0,P|24:180|32:88,1,135.000005149842,8|2,3:0|0:0,0:0:0:0:
231,31,131667,6,0,P|276:31|328:36,1,90,4|0,0:0|0:0,0:0:0:0:
451,115,132151,2,0,P|405:115|354:120,1,90,8|0,0:0|0:0,0:0:0:0:
231,245,132635,1,2,0:0:0:0:
276,84,132877,1,0,0:0:0:0:
315,266,133119,1,8,0:0:0:0:
217,136,133361,1,0,0:0:0:0:
369,198,133603,6,0,P|398:240|398:308,1,90,2|0,0:0|0:0,0:0:0:0:
235,349,134087,2,0,P|237:304|240:254,1,90,8|0,0:0|0:0,0:0:0:0:
128,117,134571,1,2,0:0:0:0:
155,258,134813,1,0,0:0:0:0:
196,68,135054,1,8,0:0:0:0:
81,188,135296,1,0,0:0:0:0:
325,205,135538,6,0,P|361:206|416:192,1,90,4|0,0:0|0:0,0:0:0:0:
470,101,136022,2,0,P|433:102|379:88,1,90,8|0,0:0|0:0,0:0:0:0:
239,33,136506,1,2,0:0:0:0:
315,162,136748,1,0,0:0:0:0:
364,10,136990,1,8,0:0:0:0:
242,115,137232,1,0,0:0:0:0:
389,269,137474,6,0,P|437:267|487:263,1,90,2|0,0:0|0:0,0:0:0:0:
349,356,137958,2,0,P|300:354|251:350,1,90,8|0,0:0|0:0,0:0:0:0:
115,219,138442,1,2,0:0:0:0:
157,364,138684,1,0,0:0:0:0:
186,168,138925,1,8,0:0:0:0:
94,308,139167,1,0,0:0:0:0:
294,210,139409,6,0,P|290:162|283:109,1,90,4|0,0:0|0:0,0:0:0:0:
396,17,139893,2,0,P|392:64|385:118,1,90,8|0,0:0|0:0,0:0:0:0:
478,264,140377,1,2,0:0:0:0:
336,200,140619,1,0,0:0:0:0:
512,177,140861,1,8,0:0:0:0:
380,268,141103,1,0,0:0:0:0:
452,107,141345,6,0,P|445:43|437:3,1,90,2|0,0:0|0:0,0:0:0:0:
347,110,141829,2,0,P|340:174|332:214,1,90,8|0,0:0|0:0,0:0:0:0:
204,311,142313,1,2,0:0:0:0:
243,187,142554,1,0,0:0:0:0:
282,352,142796,1,8,0:0:0:0:
165,239,143038,1,0,0:0:0:0:
347,110,143280,6,0,P|392:111|448:115,1,90,4|0,0:0|0:0,0:0:0:0:
333,21,143764,1,8,0:0:0:0:
497,63,144006,1,0,0:0:0:0:
288,198,144248,2,0,P|333:199|389:203,1,90,4|0,0:0|0:0,0:0:0:0:
480,332,144732,1,8,0:0:0:0:
474,197,144974,1,0,0:0:0:0:
263,329,145216,6,0,P|202:316|167:307,1,90,4|0,0:0|0:0,0:0:0:0:
110,180,145700,2,0,P|171:173|207:166,1,90,8|0,0:0|0:0,0:0:0:0:
20,132,146184,1,2,0:0:0:0:
199,244,146425,1,0,0:0:0:0:
103,75,146667,1,8,0:0:0:0:
101,197,146909,1,0,0:0:0:0:
321,64,147151,6,0,P|365:57|468:132,1,180,4|8,0:0|0:0,0:0:0:0:
460,220,147877,1,0,3:0:0:0:
396,280,148119,2,0,P|346:278|280:269,1,90,2|0,0:0|0:0,0:0:0:0:
200,169,148603,2,0,P|249:167|316:158,1,90,8|0,0:0|0:0,0:0:0:0:
167,70,149087,6,0,P|127:94|115:230,1,180,2|8,0:0|0:0,0:0:0:0:
168,284,149813,1,0,3:0:0:0:
16,331,150054,1,8,0:0:0:0:
106,216,150296,1,0,3:0:0:0:
79,378,150538,1,2,0:0:0:0:
18,235,150780,1,0,0:0:0:0:
230,345,151022,6,0,P|318:338|419:336,1,180,4|8,0:0|0:0,0:0:0:0:
508,345,151748,1,0,3:0:0:0:
455,220,151990,2,0,P|458:176|464:117,1,90,2|0,0:0|0:0,0:0:0:0:
348,57,152474,2,0,P|351:101|357:160,1,90,8|0,0:0|0:0,0:0:0:0:
222,319,152958,6,0,P|158:313|101:215,1,180,2|8,0:0|0:0,0:0:0:0:
48,132,153684,1,0,3:2:0:0:
48,132,153804,1,0,3:2:0:0:
48,132,153925,1,2,3:2:0:0:
194,229,154167,1,0,3:0:0:0:
3,206,154409,1,8,0:0:0:0:
129,142,154651,1,0,0:0:0:0:
263,296,154893,6,0,P|321:325|425:281,1,180,4|8,0:0|0:0,0:0:0:0:
476,200,155619,1,0,3:0:0:0:
352,138,155861,2,0,P|344:80|352:32,1,90,2|0,0:0|0:0,0:0:0:0:
234,143,156345,2,0,P|226:201|234:249,1,90,8|0,0:0|0:0,0:0:0:0:
141,353,156829,6,0,P|83:356|32:236,1,180,2|8,0:0|0:0,0:0:0:0:
56,168,157554,1,0,3:0:0:0:
104,279,157796,1,2,0:0:0:0:
133,102,158038,1,0,0:0:0:0:
188,284,158280,1,8,0:0:0:0:
230,145,158522,1,0,0:0:0:0:
293,307,158764,6,0,P|240:298|176:306,1,90,4|0,0:0|0:0,0:0:0:0:
87,354,159248,1,8,0:0:0:0:
161,215,159490,1,0,0:0:0:0:
293,307,159732,2,0,P|337:315|381:314,1,90,4|0,0:0|0:0,0:0:0:0:
483,170,160216,1,8,0:0:0:0:
505,299,160458,1,0,0:0:0:0:
326,123,160700,6,0,P|262:88|162:116,1,180,4|8,0:0|0:0,0:0:0:0:
285,267,161425,1,0,3:2:0:0:
285,267,161546,1,0,3:2:0:0:
285,267,161667,1,2,3:2:0:0:
326,123,161909,1,0,3:0:0:0:
403,265,162151,1,8,0:0:0:0:
252,170,162393,1,0,0:0:0:0:
499,193,162635,5,6,0:0:0:0:
64,132,170377,6,0,P|135:131|208:116,1,135.000005149842,2|2,0:0|0:0,0:0:0:0:
296,248,171345,2,0,P|224:247|152:232,1,135.000005149842,2|2,0:0|0:0,0:0:0:0:
308,164,172313,6,0,P|364:196|376:284,1,135.000005149842,2|2,0:0|0:0,0:0:0:0:
248,348,173280,2,0,P|177:342|100:336,1,135.000005149842,2|2,0:0|0:0,0:0:0:0:
48,188,174248,6,0,P|119:182|196:176,1,135.000005149842,2|2,0:0|0:0,0:0:0:0:
297,62,175216,2,0,P|226:56|149:50,1,135.000005149842,2|2,0:0|0:0,0:0:0:0:
288,156,176184,6,0,P|344:156|436:116,1,135.000005149842,2|2,0:0|0:0,0:0:0:0:
348,276,177151,2,0,P|292:276|200:236,1,135.000005149842,2|2,0:0|0:0,0:0:0:0:
103,134,178119,6,0,P|106:199|112:280,1,135.000005149842,2|2,0:0|0:0,0:0:0:0:
244,176,179087,2,0,P|247:110|253:30,1,135.000005149842,2|2,0:0|0:0,0:0:0:0:
366,156,180054,6,0,P|370:226|376:296,1,135.000005149842,2|2,0:0|0:0,0:0:0:0:
228,352,181022,2,0,P|176:352|88:336,1,135.000005149842,2|2,0:0|0:0,0:0:0:0:
28,188,181990,6,0,P|31:155|32:116,1,67.5000025749208,2|2,0:0|0:0,0:0:0:0:
112,104,182474,2,0,P|113:138|116:176,1,67.5000025749208,2|2,0:0|0:0,0:0:0:0:
189,206,182958,2,0,P|191:172|193:134,1,67.5000025749208,2|2,0:0|0:0,0:0:0:0:
273,122,183442,2,0,P|273:157|277:194,1,67.5000025749208,2|2,0:0|0:0,0:0:0:0:
336,244,183925,5,8,3:0:0:0:
435,175,184167,1,8,3:0:0:0:
422,325,184409,1,8,3:0:0:0:
352,160,184651,1,8,3:0:0:0:
273,302,184893,2,0,P|234:304|199:303,1,67.5000025749208
148,246,185377,2,0,P|150:207|149:172,1,67.5000025749208
236,42,185861,6,0,P|280:39|357:50,1,90,4|0,0:0|0:0,0:0:0:0:
429,142,186345,2,0,P|385:139|308:150,1,90,8|0,0:0|0:0,0:0:0:0:
232,280,186829,1,2,0:0:0:0:
253,124,187071,1,0,0:0:0:0:
305,305,187313,1,8,0:0:0:0:
198,197,187554,1,0,0:0:0:0:
358,172,187796,6,0,P|416:178|472:190,1,90,2|0,0:0|0:0,0:0:0:0:
394,293,188280,2,0,P|336:299|280:311,1,90,8|0,0:0|0:0,0:0:0:0:
148,357,188764,1,2,0:0:0:0:
220,222,189006,1,0,0:0:0:0:
253,375,189248,1,8,0:0:0:0:
142,265,189490,1,0,0:0:0:0:
315,222,189732,6,0,P|338:177|342:129,1,90,4|0,0:0|0:0,0:0:0:0:
421,33,190216,2,0,P|419:80|429:141,1,90,8|0,0:0|0:0,0:0:0:0:
489,255,190700,1,2,0:0:0:0:
498,104,190942,1,0,0:0:0:0:
390,277,191184,1,8,0:0:0:0:
342,138,191425,1,0,0:0:0:0:
267,297,191667,6,0,P|319:305|367:297,1,90,2|0,0:0|0:0,0:0:0:0:
262,153,192151,2,0,P|210:161|162:153,1,90,8|0,0:0|0:0,0:0:0:0:
66,64,192635,1,2,0:0:0:0:
117,212,192877,1,0,0:0:0:0:
145,32,193119,1,8,0:0:0:0:
43,162,193361,1,0,0:0:0:0:
183,347,193603,6,0,P|229:342|290:339,1,90,4|0,0:0|0:0,0:0:0:0:
370,212,194087,2,0,P|323:207|263:204,1,90,8|0,0:0|0:0,0:0:0:0:
118,138,194571,1,2,0:0:0:0:
217,255,194813,1,0,0:0:0:0:
205,83,195054,1,8,0:0:0:0:
106,226,195296,1,0,0:0:0:0:
299,127,195538,6,0,P|325:75|337:43,1,90,2|0,0:0|0:0,0:0:0:0:
386,182,196022,2,0,P|386:246|390:294,1,90,8|0,0:0|0:0,0:0:0:0:
436,378,196506,1,2,0:0:0:0:
314,289,196748,1,0,0:0:0:0:
501,325,196990,1,8,0:0:0:0:
347,377,197232,1,0,0:0:0:0:
465,207,197474,6,0,P|476:148|484:80,1,90,4|0,0:0|0:0,0:0:0:0:
351,39,197958,1,8,0:0:0:0:
327,215,198200,1,0,0:0:0:0:
154,86,198442,2,0,P|165:145|173:213,1,90,4|0,0:0|0:0,0:0:0:0:
216,342,198925,1,8,0:0:0:0:
327,215,199167,1,0,0:0:0:0:
91,183,199409,6,0,P|37:176|-2:177,1,90,4|0,0:0|0:0,0:0:0:0:
137,102,199893,1,8,0:0:0:0:
90,312,200135,1,0,0:0:0:0:
46,67,200377,1,2,0:0:0:0:
175,253,200619,1,0,0:0:0:0:
0,152,200861,1,8,0:0:0:0:
241,171,201103,1,0,0:0:0:0:
98,358,201345,6,0,P|64:328|55:201,1,180,4|8,0:0|0:0,0:0:0:0:
104,128,202071,1,0,3:0:0:0:
180,80,202313,2,0,P|230:82|296:91,1,90,2|0,0:0|0:0,0:0:0:0:
351,196,202796,2,0,P|302:198|235:207,1,90,8|0,0:0|0:0,0:0:0:0:
297,345,203280,6,0,P|385:348|443:283,1,180,2|8,0:0|0:0,0:0:0:0:
444,75,204006,1,0,3:0:0:0:
343,247,204248,1,2,0:0:0:0:
509,220,204490,1,0,3:0:0:0:
336,69,204732,1,8,0:0:0:0:
509,75,204974,1,0,0:0:0:0:
336,361,205216,6,0,P|329:273|327:172,1,180,4|8,0:0|0:0,0:0:0:0:
376,96,205942,1,0,3:0:0:0:
288,48,206184,2,0,P|244:45|185:39,1,90,2|0,0:0|0:0,0:0:0:0:
113,178,206667,2,0,P|157:175|216:169,1,90,8|0,0:0|0:0,0:0:0:0:
288,280,207151,6,0,P|208:308|100:280,1,180,2|8,0:0|0:0,0:0:0:0:
18,171,207877,1,0,3:0:0:0:
18,171,207998,1,0,3:0:0:0:
18,171,208119,1,2,3:2:0:0:
35,367,208361,1,0,3:0:0:0:
202,170,208603,1,8,0:0:0:0:
0,285,208845,1,0,0:0:0:0:
260,335,209087,6,0,P|337:333|421:269,1,180,4|8,0:0|0:0,0:0:0:0:
464,184,209813,1,0,3:0:0:0:
380,132,210054,2,0,P|372:74|380:26,1,90,2|0,0:0|0:0,0:0:0:0:
257,144,210538,2,0,P|249:202|257:250,1,90,8|0,0:0|0:0,0:0:0:0:
124,344,211022,6,0,P|141:268|144:144,1,180,2|8,0:0|0:0,0:0:0:0:
96,80,211748,1,0,3:0:0:0:
184,36,211990,2,0,P|241:34|283:33,1,90,2|0,0:0|0:0,0:0:0:0:
421,140,212474,1,8,0:0:0:0:
410,26,212716,1,0,0:0:0:0:
299,161,212958,6,0,P|290:214|298:278,1,90,4|0,0:0|0:0,0:0:0:0:
348,375,213442,1,8,0:0:0:0:
208,310,213684,1,0,0:0:0:0:
299,161,213925,2,0,P|290:108|298:44,1,90,4|0,0:0|0:0,0:0:0:0:
406,160,214409,2,0,P|415:213|407:277,1,90,8|0,0:0|0:0,0:0:0:0:
311,330,214893,6,0,P|231:346|113:330,1,180,4|8,0:0|0:0,0:0:0:0:
21,209,215619,1,0,3:0:0:0:
21,209,215740,1,0,3:0:0:0:
21,209,215861,1,2,3:2:0:0:
174,123,216103,1,0,3:0:0:0:
133,336,216345,1,8,0:0:0:0:
69,124,216587,1,0,0:0:0:0:
275,252,216829,5,4,0:0:0:0:
256,192,216950,12,2,224571,0:0:0:0:
