osu file format v14

[General]
AudioFilename: audio.mp3
AudioLeadIn: 0
PreviewTime: 83643
Countdown: 0
SampleSet: Soft
StackLeniency: 0.7
Mode: 0
LetterboxInBreaks: 0
WidescreenStoryboard: 1

[Editor]
Bookmarks: 23299,38780,54262,69743,79419,83773,100706,131668,147150,162631,170372,224557
DistanceSpacing: 1
BeatDivisor: 4
GridSize: 4
TimelineZoom: 1

[Metadata]
Title:Talking to Myself
TitleUnicode:Talking to Myself
Artist:Linkin Park
ArtistUnicode:Linkin Park
Creator:M a r v o l l o
Version:Hard
Source:
Tags:Shmiklak marvollo m_a_r_v_o_l_l_o One More Light alternative electronic wajinshu
BeatmapID:1363349
BeatmapSetID:643132

[Difficulty]
HPDrainRate:5
CircleSize:4
OverallDifficulty:6
ApproachRate:6.5
SliderMultiplier:1.6
SliderTickRate:1

[Events]
//Background and Video events
0,0,"rip chester from osu.jpg",0,0
//Break Periods
2,23480,37789
2,69932,78434
2,162835,169402
//Storyboard Layer 0 (Background)
//Storyboard Layer 1 (Fail)
//Storyboard Layer 2 (Pass)
//Storyboard Layer 3 (Foreground)
//Storyboard Sound Samples

[TimingPoints]
55,483.870967741935,4,2,1,80,1,0
6829,-100,4,2,1,100,0,0
7796,-100,4,2,1,90,0,0
38764,-133.333333333333,4,2,2,60,0,0
53280,-133.333333333333,4,2,2,80,0,0
54248,-133.333333333333,4,2,2,60,0,0
84248,-133.333333333333,4,2,1,100,0,0
85216,-100,4,2,1,90,0,1
100700,-133.333333333333,4,2,2,60,0,0
131667,-100,4,2,1,90,0,1
147151,-100,4,2,1,90,0,0
170377,-133.333333333333,4,2,1,60,0,0
181990,-133.333333333333,4,2,1,65,0,0
182958,-133.333333333333,4,2,1,70,0,0
183925,-133.333333333333,4,2,1,75,0,0
184167,-133.333333333333,4,2,1,80,0,0
184409,-133.333333333333,4,2,1,85,0,0
184651,-133.333333333333,4,2,1,90,0,0
184893,-133.333333333333,4,2,1,60,0,0
185861,-100,4,2,1,90,0,1
201345,-100,4,2,1,90,0,0
224571,-100,4,2,0,90,0,0

[Colours]
Combo1 : 108,122,164
Combo2 : 134,134,134

[HitObjects]
104,196,6829,6,0,P|105:237|108:276,1,80,8|8,0:0|0:0,0:0:0:0:
184,248,7313,2,0,P|183:207|180:168,1,80,8|8,0:0|0:0,0:0:0:0:
144,96,7796,6,0,P|194:119|298:99,1,160,4|8,0:0|0:0,0:0:0:0:
352,44,8522,1,0,0:0:0:0:
408,100,8764,2,0,P|404:138|404:188,1,80,2|0,0:0|0:0,0:0:0:0:
460,236,9248,2,0,P|463:274|464:324,1,80,8|0,0:0|0:0,0:0:0:0:
407,372,9732,6,0,P|328:360|248:356,1,160,2|8,0:0|0:0,0:0:0:0:
168,360,10458,1,0,0:0:0:0:
96,320,10700,2,0,P|88:272|84:236,1,80,2|0,0:0|0:0,0:0:0:0:
136,180,11184,2,0,P|144:132|148:96,1,80,8|0,0:0|0:0,0:0:0:0:
108,32,11667,6,0,P|178:60|266:60,1,160,4|8,0:0|0:0,0:0:0:0:
340,40,12393,1,0,0:0:0:0:
388,104,12635,2,0,P|391:144|396:196,1,80,2|0,0:0|0:0,0:0:0:0:
468,220,13119,2,0,P|471:179|476:128,1,80,8|0,0:0|0:0,0:0:0:0:
468,60,13603,6,0,P|404:20|304:72,1,160,2|8,0:0|0:0,0:0:0:0:
276,104,14329,1,0,0:0:0:0:
204,140,14571,2,0,B|164:140|124:128,1,80,8|0,3:2|0:0,0:0:0:0:
84,60,15054,2,0,B|124:60|164:48,1,80,8|8,0:0|3:2,0:0:0:0:
240,32,15538,6,0,P|288:56|324:156,1,160,4|8,0:0|0:0,0:0:0:0:
300,228,16264,1,0,0:0:0:0:
356,284,16506,2,0,P|397:278|452:272,1,80,2|0,0:0|0:0,0:0:0:0:
484,212,16990,2,0,P|489:170|496:116,1,80,8|0,0:0|0:0,0:0:0:0:
437,76,17474,6,0,P|376:68|256:60,1,160,2|8,0:0|0:0,0:0:0:0:
208,100,18200,1,0,0:0:0:0:
232,176,18442,2,0,P|236:224|228:264,1,80,2|0,0:0|0:0,0:0:0:0:
152,232,18925,2,0,P|148:184|156:144,1,80,8|0,0:0|0:0,0:0:0:0:
88,108,19409,6,0,P|79:166|60:272,1,160,4|8,0:0|0:0,0:0:0:0:
118,322,20135,1,0,0:0:0:0:
196,304,20377,2,0,P|240:304|288:316,1,80,2|0,0:0|0:0,0:0:0:0:
348,348,20861,2,0,P|392:348|440:336,1,80,8|0,0:0|0:0,0:0:0:0:
483,283,21345,6,0,P|472:196|472:112,1,160,4|8,0:0|0:0,0:0:0:0:
484,44,22071,1,0,0:0:0:0:
408,68,22313,2,0,P|367:66|320:64,1,80,2|0,0:0|0:0,0:0:0:0:
312,144,22796,2,0,P|352:142|400:140,1,80,8|0,0:0|0:0,0:0:0:0:
471,123,23280,5,0,0:0:0:0:
408,56,38764,6,0,P|409:114|416:192,1,120.000004577637,2|8,0:0|0:0,0:0:0:0:
464,236,39490,1,0,3:0:0:0:
464,236,39732,2,0,P|407:229|339:229,1,120.000004577637,2|8,0:0|0:0,0:0:0:0:
234,339,40700,6,0,P|176:341|108:335,1,120.000004577637,2|8,0:0|0:0,0:0:0:0:
48,296,41425,1,0,3:0:0:0:
48,296,41667,2,0,P|105:298|173:292,1,120.000004577637,2|8,0:0|0:0,0:0:0:0:
303,214,42635,6,0,P|300:151|292:84,1,120.000004577637,2|8,0:0|0:0,0:0:0:0:
252,28,43361,1,0,3:0:0:0:
252,28,43603,2,0,P|296:48|376:44,1,120.000004577637,2|8,0:0|0:0,0:0:0:0:
228,120,44571,6,0,P|184:100|104:104,1,120.000004577637,2|8,0:0|0:0,0:0:0:0:
44,136,45296,1,0,3:0:0:0:
44,136,45538,2,0,P|52:198|56:264,1,120.000004577637,2|8,0:0|0:0,0:0:0:0:
184,344,46506,6,0,P|246:349|308:352,1,120.000004577637,2|8,0:0|0:0,0:0:0:0:
380,332,47232,1,0,3:0:0:0:
380,332,47474,2,0,P|332:324|248:284,1,120.000004577637,2|8,0:0|0:0,0:0:0:0:
188,164,48442,6,0,P|249:166|320:168,1,120.000004577637,2|8,0:0|0:0,0:0:0:0:
388,164,49167,1,0,3:0:0:0:
388,164,49409,2,0,P|344:148|280:108,1,120.000004577637,2|8,0:0|0:0,0:0:0:0:
436,92,50377,6,0,P|460:136|456:228,1,120.000004577637,2|8,0:0|0:0,0:0:0:0:
444,280,51103,1,0,3:0:0:0:
444,280,51345,2,0,P|383:265|324:272,1,120.000004577637,2|8,0:0|0:0,0:0:0:0:
184,336,52313,6,0,P|153:335|104:332,2,60.0000022888184,2|0|8,0:0|0:0|0:0,0:0:0:0:
256,364,53038,1,0,3:0:0:0:
308,308,53280,2,0,P|305:274|300:240,1,60.0000022888184,8|0,3:0|0:0,0:0:0:0:
246,192,53764,2,0,P|248:158|254:124,1,60.0000022888184,8|0,3:0|0:0,0:0:0:0:
307,77,54248,6,0,P|256:92|184:80,1,120.000004577637,6|8,0:0|0:0,0:0:0:0:
116,68,54974,1,0,3:0:0:0:
60,123,55216,2,0,P|64:188|72:256,1,120.000004577637,8|8,3:0|0:0,0:0:0:0:
100,316,55942,1,0,0:0:0:0:
155,371,56184,6,0,P|217:367|280:364,1,120.000004577637,2|8,0:0|0:0,0:0:0:0:
329,309,56909,1,0,3:0:0:0:
384,364,57151,2,0,P|420:356|448:352,1,60.0000022888184,8|0,3:0|0:0,0:0:0:0:
480,284,57635,2,0,P|444:276|416:272,1,60.0000022888184,8|0,3:0|0:0,0:0:0:0:
365,217,58119,6,0,P|356:168|360:80,1,120.000004577637,2|8,0:0|0:0,0:0:0:0:
372,20,58845,1,0,3:0:0:0:
300,48,59087,2,0,P|236:52|172:56,1,120.000004577637,8|8,3:0|0:0,0:0:0:0:
125,110,59813,1,0,0:0:0:0:
180,165,60054,6,0,P|200:204|176:280,1,120.000004577637,2|8,0:0|0:0,0:0:0:0:
112,316,60780,1,0,3:0:0:0:
112,316,60901,1,0,3:0:0:0:
112,316,61022,1,8,3:0:0:0:
168,368,61264,1,0,0:0:0:0:
236,328,61506,2,0,P|269:326|309:332,1,60.0000022888184,8|0,3:0|0:0,0:0:0:0:
364,364,61990,6,0,P|404:368|468:316,1,120.000004577637,2|8,0:0|0:0,0:0:0:0:
488,248,62716,1,0,3:0:0:0:
432,192,62958,2,0,P|376:197|312:208,1,120.000004577637,8|8,3:0|0:0,0:0:0:0:
248,252,63684,1,0,0:0:0:0:
193,197,63925,6,0,P|184:156|232:88,1,120.000004577637,2|8,0:0|0:0,0:0:0:0:
296,60,64651,1,0,3:0:0:0:
364,96,64893,2,0,P|396:96|432:92,1,60.0000022888184,8|0,3:0|0:0,0:0:0:0:
432,172,65377,2,0,P|400:172|364:168,1,60.0000022888184,8|0,3:0|0:0,0:0:0:0:
316,224,65861,6,0,P|276:232|192:216,1,120.000004577637,2|8,0:0|0:0,0:0:0:0:
128,184,66587,1,0,3:0:0:0:
72,240,66829,2,0,P|68:280|104:356,1,120.000004577637,8|8,0:3|0:0,0:0:0:0:
176,368,67554,1,0,0:0:0:0:
247,336,67796,6,0,P|281:331|320:332,1,60.0000022888184,2|0,0:0|0:0,0:0:0:0:
376,372,68280,1,8,0:0:0:0:
416,304,68522,1,0,3:0:0:0:
416,304,68643,1,0,3:0:0:0:
416,304,68764,1,8,3:0:0:0:
480,344,69006,1,0,3:0:0:0:
500,268,69248,2,0,P|496:232|492:204,1,60.0000022888184,8|0,3:0|0:0,0:0:0:0:
436,156,69732,5,2,0:0:0:0:
256,192,79409,12,0,83764,0:0:0:0:
88,32,84248,6,0,P|89:65|92:104,1,60.0000022888184,8|8,0:0|0:0,0:0:0:0:
126,161,84732,2,0,P|124:194|122:233,1,60.0000022888184,8|8,0:0|0:0,0:0:0:0:
64,272,85216,6,0,P|105:270|216:324,1,160,4|8,0:0|0:0,0:0:0:0:
272,372,85942,1,0,0:0:0:0:
328,315,86184,1,2,0:0:0:0:
328,315,86425,1,0,0:0:0:0:
271,258,86667,1,8,0:0:0:0:
271,258,86909,1,0,0:0:0:0:
332,164,87151,6,0,P|332:124|329:83,1,80,2|0,0:0|0:0,0:0:0:0:
408,100,87635,2,0,P|404:139|405:179,1,80,8|0,0:0|0:0,0:0:0:0:
432,256,88119,1,2,0:0:0:0:
432,256,88361,1,0,0:0:0:0:
408,332,88603,1,8,0:0:0:0:
408,332,88845,1,0,0:0:0:0:
304,288,89087,6,0,P|252:280|148:304,1,160,4|8,0:0|0:0,0:0:0:0:
88,356,89813,1,0,0:0:0:0:
31,299,90054,1,2,0:0:0:0:
31,299,90296,1,0,0:0:0:0:
87,242,90538,1,8,0:0:0:0:
87,242,90780,1,0,0:0:0:0:
7,162,91022,6,0,P|4:118|12:64,1,80,2|0,0:0|0:0,0:0:0:0:
72,36,91506,2,0,P|111:32|151:34,1,80,8|0,0:0|0:0,0:0:0:0:
208,91,91990,1,2,0:0:0:0:
208,91,92232,1,0,0:0:0:0:
264,34,92474,1,8,0:0:0:0:
264,34,92716,1,0,0:0:0:0:
332,124,92958,6,0,P|329:199|324:292,1,160,4|8,0:0|0:0,0:0:0:0:
280,348,93684,1,0,0:0:0:0:
223,291,93925,1,2,0:0:0:0:
223,291,94167,1,0,0:0:0:0:
166,347,94409,1,8,0:0:0:0:
166,347,94651,1,0,0:0:0:0:
88,268,94893,6,0,P|87:222|96:176,1,80,2|0,0:0|0:0,0:0:0:0:
164,152,95377,2,0,P|163:197|172:244,1,80,8|0,0:0|0:0,0:0:0:0:
228,288,95861,1,2,0:0:0:0:
228,288,96103,1,0,0:0:0:0:
284,232,96345,1,8,0:0:0:0:
284,232,96587,1,0,0:0:0:0:
364,312,96829,6,0,P|406:311|444:304,1,80,4|0,0:0|0:0,0:0:0:0:
499,247,97313,1,8,0:0:0:0:
442,190,97554,1,0,0:0:0:0:
498,133,97796,1,4,0:0:0:0:
498,133,98038,1,0,0:0:0:0:
441,76,98280,1,8,0:0:0:0:
441,76,98522,1,0,0:0:0:0:
352,144,98764,6,0,P|296:156|200:96,1,160,4|8,0:0|0:0,0:0:0:0:
172,36,99490,1,0,0:0:0:0:
115,92,99732,1,2,0:0:0:0:
115,92,99974,1,0,0:0:0:0:
148,164,100216,1,8,0:0:0:0:
148,164,100458,1,0,0:0:0:0:
92,216,100700,6,0,P|84:256|92:352,1,120.000004577637,4|8,0:0|0:0,0:0:0:0:
160,364,101425,1,0,3:0:0:0:
224,320,101667,2,0,P|284:324|349:332,1,120.000004577637,8|8,3:0|0:0,0:0:0:0:
429,200,102635,6,0,P|369:204|304:212,1,120.000004577637,2|8,0:0|0:0,0:0:0:0:
236,244,103361,1,0,3:0:0:0:
188,184,103603,2,0,P|188:136|192:104,1,60.0000022888184,8|0,3:0|0:0,0:0:0:0:
116,100,104087,2,0,P|116:148|112:180,1,60.0000022888184,8|0,3:0|0:0,0:0:0:0:
48,196,104571,6,0,P|37:149|56:64,1,120.000004577637,2|8,0:0|0:0,0:0:0:0:
104,24,105296,1,0,3:0:0:0:
172,64,105538,2,0,P|232:68|304:52,1,120.000004577637,8|8,3:0|0:0,0:0:0:0:
360,24,106264,1,0,3:0:0:0:
415,79,106506,6,0,P|415:143|414:208,1,120.000004577637,2|8,0:0|0:0,0:0:0:0:
361,255,107232,1,0,3:0:0:0:
361,255,107353,1,0,3:0:0:0:
361,255,107474,1,8,3:0:0:0:
416,310,107716,1,0,3:0:0:0:
360,365,107958,2,0,P|332:360|280:352,1,60.0000022888184,8|0,3:0|0:0,0:0:0:0:
240,304,108442,6,0,P|180:303|107:305,1,120.000004577637,4|8,0:0|0:0,0:0:0:0:
44,312,109167,1,0,3:0:0:0:
8,244,109409,2,0,P|15:181|20:119,1,120.000004577637,8|8,3:0|0:0,0:0:0:0:
144,32,110377,6,0,P|138:69|176:168,1,120.000004577637,2|8,0:0|0:0,0:0:0:0:
228,184,111103,1,0,3:0:0:0:
292,140,111345,2,0,P|336:136|376:136,1,60.0000022888184,8|0,3:0|0:0,0:0:0:0:
407,191,111829,2,0,P|403:235|403:275,1,60.0000022888184,8|0,3:0|0:0,0:0:0:0:
458,306,112313,6,0,P|416:292|340:316,1,120.000004577637,2|8,0:0|0:0,0:0:0:0:
288,368,113038,1,0,3:0:0:0:
217,333,113280,2,0,P|223:271|232:196,1,120.000004577637,8|8,3:0|0:0,0:0:0:0:
212,137,114006,1,0,3:0:0:0:
136,148,114248,6,0,P|142:209|151:285,1,120.000004577637,2|8,0:0|0:0,0:0:0:0:
108,332,114974,1,0,3:0:0:0:
108,332,115095,1,0,3:0:0:0:
108,332,115216,1,8,3:0:0:0:
180,364,115458,1,0,3:0:0:0:
244,316,115700,2,0,P|268:308|312:308,1,60.0000022888184,8|0,3:0|0:0,0:0:0:0:
373,340,116184,6,0,P|352:304|356:212,1,120.000004577637,4|8,0:0|0:0,0:0:0:0:
388,160,116909,1,0,3:0:0:0:
332,104,117151,2,0,P|268:105|196:120,1,120.000004577637,8|8,3:0|0:0,0:0:0:0:
152,164,117877,1,0,0:0:0:0:
192,232,118119,6,0,P|185:293|140:356,1,120.000004577637,2|8,0:0|0:0,0:0:0:0:
80,372,118845,1,0,3:0:0:0:
36,308,119087,2,0,P|37:273|44:240,1,60.0000022888184,8|0,3:0|0:0,0:0:0:0:
80,180,119571,2,0,P|78:145|72:112,1,60.0000022888184,8|0,3:0|0:0,0:0:0:0:
32,52,120054,6,0,P|80:68|156:56,1,120.000004577637,2|8,0:0|0:0,0:0:0:0:
220,24,120780,1,0,3:0:0:0:
260,92,121022,2,0,P|256:149|256:224,1,120.000004577637,8|8,3:0|0:0,0:0:0:0:
272,288,121748,1,0,0:0:0:0:
328,340,121990,6,0,P|384:338|447:334,1,120.000004577637,2|8,0:0|0:0,0:0:0:0:
512,288,122716,1,0,3:0:0:0:
512,288,122837,1,0,3:0:0:0:
512,288,122958,1,8,3:0:0:0:
464,224,123200,1,0,0:0:0:0:
480,148,123442,2,0,P|468:108|468:68,1,60.0000022888184,8|0,3:0|0:0,0:0:0:0:
408,40,123925,6,0,P|358:67|298:59,1,120.000004577637,4|8,0:0|0:0,0:0:0:0:
220,72,124651,1,0,3:0:0:0:
200,147,124893,2,0,P|203:204|212:272,1,120.000004577637,8|8,3:0|0:0,0:0:0:0:
248,336,125619,1,0,0:0:0:0:
172,357,125861,6,0,P|116:351|48:344,1,120.000004577637,2|8,0:0|0:0,0:0:0:0:
16,276,126587,1,0,3:0:0:0:
16,276,126708,1,0,3:0:0:0:
16,276,126829,1,8,3:0:0:0:
76,224,127071,1,0,3:0:0:0:
20,172,127313,2,0,P|20:140|24:108,1,60.0000022888184,8|0,3:0|3:0,0:0:0:0:
78,56,127796,6,0,P|112:52|208:64,1,120.000004577637,4|8,0:0|0:0,0:0:0:0:
248,120,128522,1,0,3:0:0:0:
308,172,128764,2,0,P|342:176|438:164,1,120.000004577637,8|8,3:0|0:0,0:0:0:0:
484,112,129490,1,0,3:0:0:0:
428,56,129732,6,0,P|368:47|309:51,1,120.000004577637,2|8,0:0|0:0,0:0:0:0:
256,108,130458,1,0,3:0:0:0:
256,108,130579,1,0,3:0:0:0:
256,108,130700,2,0,P|208:132|136:108,1,120.000004577637,8|2,3:0|0:0,0:0:0:0:
92,268,131667,6,0,P|135:260|192:253,1,80,4|0,0:0|0:0,0:0:0:0:
208,184,132151,2,0,P|164:176|108:169,1,80,8|0,0:0|0:0,0:0:0:0:
72,114,132635,1,2,0:0:0:0:
72,114,132877,1,0,0:0:0:0:
128,57,133119,1,8,0:0:0:0:
128,57,133361,1,0,0:0:0:0:
172,160,133603,6,0,P|172:200|164:240,1,80,2|0,0:0|0:0,0:0:0:0:
92,276,134087,2,0,P|92:236|84:196,1,80,8|0,0:0|0:0,0:0:0:0:
40,128,134571,1,2,0:0:0:0:
40,128,134813,1,0,0:0:0:0:
96,71,135054,1,8,0:0:0:0:
96,71,135296,1,0,0:0:0:0:
188,136,135538,6,0,P|227:132|276:129,1,80,4|0,0:0|0:0,0:0:0:0:
324,186,136022,2,0,P|320:225|317:274,1,80,8|0,0:0|0:0,0:0:0:0:
374,322,136506,1,2,0:0:0:0:
374,322,136748,1,0,0:0:0:0:
440,276,136990,1,8,0:0:0:0:
440,276,137232,1,0,0:0:0:0:
392,176,137474,6,0,P|388:128|396:76,1,80,2|0,0:0|0:0,0:0:0:0:
312,92,137958,2,0,P|308:140|316:192,1,80,8|0,0:0|0:0,0:0:0:0:
254,228,138442,1,2,0:0:0:0:
254,228,138684,1,0,0:0:0:0:
197,171,138925,1,8,0:0:0:0:
197,171,139167,1,0,0:0:0:0:
140,268,139409,6,0,P|136:312|132:352,1,80,4|0,0:0|0:0,0:0:0:0:
52,332,139893,2,0,P|48:288|44:248,1,80,8|0,0:0|0:0,0:0:0:0:
101,195,140377,1,2,0:0:0:0:
101,195,140619,1,0,0:0:0:0:
44,138,140861,1,8,0:0:0:0:
44,138,141103,1,0,0:0:0:0:
140,80,141345,6,0,P|185:70|233:70,1,80,2|0,0:0|0:0,0:0:0:0:
292,40,141829,2,0,P|330:64|364:98,1,80,8|0,0:0|0:0,0:0:0:0:
404,152,142313,1,2,0:0:0:0:
404,152,142554,1,0,0:0:0:0:
372,224,142796,1,8,0:0:0:0:
372,224,143038,1,0,0:0:0:0:
432,320,143280,6,0,P|394:324|348:332,1,80,4|0,0:0|0:0,0:0:0:0:
284,372,143764,1,8,0:0:0:0:
216,328,144006,1,0,0:0:0:0:
148,368,144248,1,4,0:0:0:0:
148,368,144490,1,0,0:0:0:0:
84,320,144732,1,8,0:0:0:0:
84,320,144974,1,0,0:0:0:0:
164,240,145216,6,0,P|176:200|128:88,1,160,4|8,0:0|0:0,0:0:0:0:
60,68,145942,1,0,0:0:0:0:
0,124,146184,1,2,0:0:0:0:
0,124,146425,1,0,0:0:0:0:
52,189,146667,1,8,0:0:0:0:
52,189,146909,1,0,0:0:0:0:
12,292,147151,6,0,P|54:288|184:304,1,160,4|8,0:0|0:0,0:0:0:0:
228,356,147877,1,0,3:0:0:0:
296,316,148119,2,0,P|303:281|304:236,1,80,2|0,0:0|0:0,0:0:0:0:
264,168,148603,2,0,P|256:133|256:88,1,80,8|0,0:0|0:0,0:0:0:0:
340,16,149087,6,0,P|380:8|476:80,1,160,2|8,0:0|0:0,0:0:0:0:
428,140,149813,1,0,3:0:0:0:
476,204,150054,1,8,0:0:0:0:
476,204,150296,1,0,3:0:0:0:
432,268,150538,1,2,0:0:0:0:
432,268,150780,1,0,0:0:0:0:
348,196,151022,6,0,P|280:184|212:260,1,160,4|8,0:0|0:0,0:0:0:0:
224,320,151748,1,0,3:0:0:0:
152,356,151990,2,0,P|105:349|64:340,1,80,2|0,0:0|0:0,0:0:0:0:
52,264,152474,2,0,P|98:257|140:248,1,80,8|0,0:0|0:0,0:0:0:0:
228,196,152958,6,0,P|248:120|164:76,1,160,2|8,0:0|0:0,0:0:0:0:
124,116,153684,1,0,3:2:0:0:
124,116,153804,1,0,3:2:0:0:
124,116,153925,1,2,3:2:0:0:
67,59,154167,1,0,3:0:0:0:
10,115,154409,1,8,0:0:0:0:
66,171,154651,1,0,0:0:0:0:
11,268,154893,6,0,P|89:264|179:260,1,160,4|8,0:0|0:0,0:0:0:0:
227,316,155619,1,0,3:0:0:0:
280,256,155861,2,0,P|318:255|369:261,1,80,2|0,0:0|0:0,0:0:0:0:
416,202,156345,2,0,P|417:164|411:113,1,80,8|0,0:0|0:0,0:0:0:0:
344,32,156829,6,0,P|300:12|184:44,1,160,2|8,0:0|0:0,0:0:0:0:
152,104,157554,1,0,3:0:0:0:
200,168,157796,1,2,0:0:0:0:
200,168,158038,1,0,0:0:0:0:
143,224,158280,1,8,0:0:0:0:
143,224,158522,1,0,0:0:0:0:
222,303,158764,6,0,P|267:301|328:288,1,80,4|0,0:0|0:0,0:0:0:0:
336,224,159248,2,0,P|290:222|230:209,1,80,8|0,0:0|0:0,0:0:0:0:
228,144,159732,2,0,P|273:142|334:129,1,80,4|0,0:0|0:0,0:0:0:0:
342,65,160216,1,8,0:0:0:0:
342,65,160458,1,0,0:0:0:0:
236,36,160700,6,0,P|156:44|72:48,1,160,4|8,0:0|0:0,0:0:0:0:
37,117,161425,1,0,3:2:0:0:
37,117,161546,1,0,3:2:0:0:
37,117,161667,1,2,3:2:0:0:
93,173,161909,1,0,3:0:0:0:
149,116,162151,1,8,0:0:0:0:
205,172,162393,1,0,0:0:0:0:
261,115,162635,5,6,0:0:0:0:
428,80,170377,6,0,P|426:139|424:224,3,120.000004577637,2|2|2|2,0:0|0:0|0:0|0:0,0:0:0:0:
339,284,172313,2,0,P|337:224|335:140,3,120.000004577637,2|2|2|2,0:0|0:0|0:0|0:0,0:0:0:0:
250,79,174248,6,0,P|248:138|246:223,3,120.000004577637,2|2|2|2,0:0|0:0|0:0|0:0,0:0:0:0:
161,283,176184,2,0,P|159:223|157:139,3,120.000004577637,2|2|2|2,0:0|0:0|0:0|0:0,0:0:0:0:
242,248,178119,6,0,P|301:246|386:244,3,120.000004577637,2|2|2|2,0:0|0:0|0:0|0:0,0:0:0:0:
446,159,180054,2,0,P|386:157|302:155,3,120.000004577637,2|2|2|2,0:0|0:0|0:0|0:0,0:0:0:0:
304,36,181990,6,0,P|271:38|235:42,3,60.0000022888184,2|2|2|2,0:0|0:0|0:0|0:0,0:0:0:0:
193,92,182958,2,0,P|158:88|133:86,3,60.0000022888184,2|2|2|2,0:0|0:0|0:0|0:0,0:0:0:0:
82,137,183925,6,0,P|80:164|87:202,3,60.0000022888184,8|8|8|8,3:0|3:0|3:0|3:0,0:0:0:0:
131,250,184893,2,0,P|132:277|126:315,3,60.0000022888184,0|0|0|0,0:0|0:0|0:0|0:0,0:0:0:0:
76,372,185861,6,0,P|112:344|232:352,1,160,4|8,0:0|0:0,0:0:0:0:
296,376,186587,1,0,0:0:0:0:
352,319,186829,1,2,0:0:0:0:
352,319,187071,1,0,0:0:0:0:
408,375,187313,1,8,0:0:0:0:
408,375,187554,1,0,0:0:0:0:
500,312,187796,6,0,P|495:268|488:220,1,80,2|0,0:0|0:0,0:0:0:0:
432,176,188280,2,0,P|432:131|435:83,1,80,8|0,0:0|0:0,0:0:0:0:
378,39,188764,1,2,0:0:0:0:
378,39,189006,1,0,0:0:0:0:
321,95,189248,1,8,0:0:0:0:
321,95,189490,1,0,0:0:0:0:
220,46,189732,6,0,P|172:48|64:80,1,160,4|8,0:0|0:0,0:0:0:0:
20,144,190458,1,0,0:0:0:0:
76,200,190700,1,2,0:0:0:0:
76,200,190942,1,0,0:0:0:0:
19,256,191184,1,8,0:0:0:0:
19,256,191425,1,0,0:0:0:0:
98,335,191667,6,0,P|179:328|262:323,1,160,2|8,0:0|0:0,0:0:0:0:
320,260,192393,1,0,0:0:0:0:
258,198,192635,2,0,P|252:160|256:112,1,80,2|0,0:0|0:0,0:0:0:0:
332,76,193119,2,0,P|334:115|328:155,1,80,8|0,0:0|0:0,0:0:0:0:
236,220,193603,6,0,P|155:213|72:208,1,160,4|8,0:0|0:0,0:0:0:0:
19,151,194329,1,0,0:0:0:0:
75,94,194571,1,2,0:0:0:0:
75,94,194813,1,0,0:0:0:0:
148,124,195054,1,8,0:0:0:0:
148,124,195296,1,0,0:0:0:0:
236,56,195538,6,0,P|274:59|320:64,1,80,2|0,0:0|0:0,0:0:0:0:
352,136,196022,2,0,P|313:139|268:144,1,80,8|0,0:0|0:0,0:0:0:0:
215,200,196506,1,2,0:0:0:0:
215,200,196748,1,0,0:0:0:0:
271,256,196990,1,8,0:0:0:0:
271,256,197232,1,0,0:0:0:0:
352,180,197474,6,0,P|356:142|364:96,1,80,4|0,0:0|0:0,0:0:0:0:
420,44,197958,1,8,0:0:0:0:
472,104,198200,1,0,0:0:0:0:
436,176,198442,1,4,0:0:0:0:
436,176,198684,1,0,0:0:0:0:
484,240,198925,1,8,0:0:0:0:
484,240,199167,1,0,0:0:0:0:
404,320,199409,6,0,P|318:313|228:312,1,160,4|8,0:0|0:0,0:0:0:0:
168,332,200135,1,0,0:0:0:0:
111,275,200377,1,2,0:0:0:0:
111,275,200619,1,0,0:0:0:0:
167,218,200861,1,8,0:0:0:0:
167,218,201103,1,0,0:0:0:0:
246,297,201345,6,0,P|323:292|432:288,1,160,4|8,0:0|0:0,0:0:0:0:
480,320,202071,1,0,3:0:0:0:
484,240,202313,2,0,P|477:205|476:160,1,80,2|0,0:0|0:0,0:0:0:0:
408,120,202796,2,0,P|400:155|400:200,1,80,8|0,0:0|0:0,0:0:0:0:
320,278,203280,6,0,P|280:286|184:214,1,160,2|8,0:0|0:0,0:0:0:0:
180,144,204006,1,0,3:0:0:0:
236,87,204248,1,2,0:0:0:0:
236,87,204490,1,0,3:0:0:0:
179,30,204732,1,8,0:0:0:0:
179,30,204974,1,0,0:0:0:0:
96,104,205216,6,0,P|88:184|96:264,1,160,4|8,0:0|0:0,0:0:0:0:
136,332,205942,1,0,3:0:0:0:
216,344,206184,2,0,P|263:337|304:328,1,80,2|0,0:0|0:0,0:0:0:0:
312,252,206667,2,0,P|266:245|224:236,1,80,8|0,0:0|0:0,0:0:0:0:
189,135,207151,6,0,P|240:152|348:136,1,160,2|8,0:0|0:0,0:0:0:0:
400,80,207877,1,0,3:0:0:0:
400,80,207998,1,0,3:0:0:0:
400,80,208119,1,2,3:2:0:0:
436,152,208361,1,0,3:0:0:0:
392,220,208603,1,8,0:0:0:0:
436,288,208845,1,0,0:0:0:0:
340,347,209087,6,0,P|262:343|172:339,1,160,4|8,0:0|0:0,0:0:0:0:
100,356,209813,1,0,3:0:0:0:
124,280,210054,2,0,P|125:242|119:191,1,80,2|0,0:0|0:0,0:0:0:0:
56,152,210538,2,0,P|55:114|61:63,1,80,8|0,0:0|0:0,0:0:0:0:
164,28,211022,6,0,P|216:20|324:40,1,160,2|8,0:0|0:0,0:0:0:0:
377,95,211748,1,0,3:0:0:0:
329,159,211990,1,2,0:0:0:0:
329,159,212232,1,0,0:0:0:0:
386,215,212474,1,8,0:0:0:0:
386,215,212716,1,0,0:0:0:0:
307,294,212958,6,0,P|262:292|201:279,1,80,4|0,0:0|0:0,0:0:0:0:
170,229,213442,2,0,P|124:227|64:214,1,80,8|0,0:0|0:0,0:0:0:0:
52,152,213925,2,0,P|54:107|67:46,1,80,4|0,0:0|0:0,0:0:0:0:
132,36,214409,1,8,0:0:0:0:
132,36,214651,1,0,0:0:0:0:
211,115,214893,6,0,P|195:179|223:279,1,160,4|8,0:0|0:0,0:0:0:0:
273,325,215619,1,0,3:0:0:0:
273,325,215740,1,0,3:0:0:0:
273,325,215861,1,2,3:2:0:0:
353,341,216103,1,0,3:0:0:0:
409,285,216345,1,8,0:0:0:0:
481,317,216587,1,0,0:0:0:0:
497,205,216829,5,4,0:0:0:0:
256,192,216950,12,2,224571,0:0:0:0:
