osu file format v14

[General]
AudioFilename: audio.ogg
AudioLeadIn: 0
PreviewTime: 57779
Countdown: 0
SampleSet: Soft
StackLeniency: 0.7
Mode: 0
LetterboxInBreaks: 0
WidescreenStoryboard: 1

[Editor]
Bookmarks: 38220
DistanceSpacing: 1.3
BeatDivisor: 16
GridSize: 32
TimelineZoom: 4.000004

[Metadata]
Title:Session
TitleUnicode:Session
Artist:Linkin Park
ArtistUnicode:Linkin Park
Creator:Ruiz Duchamp
Version:semaphore's Insane
Source:
Tags:pw384 senseabel mirash pandahero semaphore evilelvis natteke_desu jounzan alternative rock instrumental meteora
BeatmapID:4267656
BeatmapSetID:2044718

[Difficulty]
HPDrainRate:5
CircleSize:4
OverallDifficulty:7
ApproachRate:8.6
SliderMultiplier:2.8
SliderTickRate:1

[Events]
//Background and Video events
0,0,"temporarybg.jpg",0,0
//Break Periods
2,93389,95103
//Storyboard Layer 0 (Background)
//Storyboard Layer 1 (Fail)
//Storyboard Layer 2 (Pass)
//Storyboard Layer 3 (Foreground)
//Storyboard Layer 4 (Overlay)
//Storyboard Sound Samples

[TimingPoints]
-957,612.151201346733,4,2,1,55,1,0
-957,-100,4,2,1,55,0,0
38220,-133.333333333333,4,2,1,60,0,0
43730,-133.333333333333,4,2,1,30,0,0
44036,-133.333333333333,4,2,1,20,0,0
44342,-133.333333333333,4,2,1,60,0,0
46943,-100,4,2,1,60,0,0
47402,-66.6666666666667,4,2,1,60,0,0
48627,-133.333333333333,4,2,1,60,0,0
49851,-200,4,2,1,60,0,0
51075,-133.333333333333,4,2,1,60,0,0
57235,-133.333333333333,4,2,1,40,0,0
57809,-100,4,2,1,65,0,0
62094,-133.333333333333,4,2,1,65,0,0
62706,-100,4,2,1,65,0,0
74949,-200,4,2,1,65,0,0
76174,-100,4,2,1,65,0,0
77398,-200,4,2,1,60,0,0
79234,-100,4,2,1,60,0,0
80459,-200,4,2,1,60,0,0
81224,-100,4,2,1,60,0,0
81683,-66.6666666666667,4,2,1,60,0,0
82907,-200,4,2,1,60,0,0
84132,-100,4,2,1,60,0,0
85356,-200,4,2,1,60,0,0
87192,-100,4,2,1,60,0,0
88570,-200,4,2,1,60,0,0
91477,-200,4,2,1,60,0,0
96987,-76.9230769230769,4,2,1,70,0,0
109230,-133.333333333333,4,2,1,70,0,0
110454,-76.9230769230769,4,2,1,70,0,0
113056,-133.333333333333,4,2,1,70,0,0
114433,-76.9230769230769,4,2,1,70,0,0
125758,-76.9230769230769,4,2,2,20,0,0
125911,-76.9230769230769,4,2,1,30,0,0
126064,-76.9230769230769,4,2,2,40,0,0
126217,-76.9230769230769,4,2,1,50,0,0
126370,-76.9230769230769,4,2,1,70,0,0
130655,-133.333333333333,4,2,1,70,0,0
131267,-76.9230769230769,4,2,1,70,0,0
135552,-133.333333333333,4,2,1,70,0,0
143434,-100,4,2,1,20,0,0

[Colours]
Combo1 : 137,173,140
Combo2 : 75,112,79

[HitObjects]
80,168,38220,6,0,B|56:120|64:64,1,105.000004005432,6|0,1:0|0:0,0:0:0:0:
224,56,38832,1,8,1:0:0:0:
384,48,39138,1,2,0:3:0:0:
384,48,39444,1,2,0:3:0:0:
384,48,39598,2,0,B|392:112|368:168,1,105.000004005432,8|4,1:0|0:3,0:0:0:0:
288,200,40057,2,0,B|264:152|280:96,1,105.000004005432,8|2,1:0|0:3,0:0:0:0:
279,97,40516,1,0,3:0:0:0:
472,144,40669,6,0,L|464:208,1,52.5000020027161,4|0,1:0|0:0,0:0:0:0:
424,288,40975,1,2,0:3:0:0:
424,296,41281,2,0,L|264:288,1,157.500006008148,8|0,1:0|0:0,0:0:0:0:
120,336,41893,5,2,0:3:0:0:
120,336,42046,2,0,B|160:288|128:216,1,105.000004005432,8|4,1:0|0:3,0:0:0:0:
32,216,42505,2,0,L|40:272,1,52.5000020027161,8|0,1:0|0:0,0:0:0:0:
264,288,42811,1,2,0:3:0:0:
112,48,43117,5,2,1:2:0:0:
112,48,43730,2,2,L|96:48,16,13.125000500679,8|0|0|0|0|0|0|0|0|0|0|0|0|0|0|0|2,1:0|1:0|1:0|1:0|1:0|1:0|1:0|1:0|3:0|3:0|3:0|3:0|0:0|0:0|0:0|0:0|0:3,0:1:0:0:
152,128,44495,2,0,B|216:104|264:144,1,105.000004005432,8|4,1:0|0:3,0:0:0:0:
464,96,44954,1,8,1:0:0:0:
464,96,45260,2,0,L|456:160,1,52.5000020027161,2|0,0:3|3:0,0:0:0:0:
360,248,45566,6,0,L|352:184,1,52.5000020027161,4|0,1:0|0:0,0:0:0:0:
352,40,45872,1,0,3:0:0:0:
352,40,46178,2,0,B|280:104|200:48,1,157.500006008148,8|0,1:0|3:0,0:0:0:0:
56,112,46790,5,2,0:3:0:0:
160,184,46943,2,0,B|240:152|296:208,1,140,8|4,1:0|0:3,0:0:0:0:
99,302,47402,2,0,B|35:254|27:166|67:86,1,210.000008010865,8|2,1:0|0:3,0:0:0:0:
205,51,47862,1,0,3:0:0:0:
208,280,48015,5,6,1:0:0:0:
208,280,48627,2,0,B|256:312|328:296,1,105.000004005432,8|0,1:0|3:0,0:0:0:0:
488,208,49239,1,2,0:3:0:0:
488,208,49392,2,0,B|440:168|368:192,1,105.000004005432,8|4,1:0|0:3,0:0:0:0:
246,136,49851,2,0,B|238:16,1,105,4|0,1:2|3:0,0:0:0:0:
512,72,50463,5,4,1:0:0:0:
376,52,50769,1,2,0:3:0:0:
239,31,51075,2,0,L|183:23,1,52.5000020027161,8|0,1:0|0:0,0:0:0:0:
116,128,51381,2,0,L|180:120,1,52.5000020027161,0|0,3:0|3:0,0:0:0:0:
280,208,51688,5,2,0:3:0:0:
184,256,51841,2,0,B|128:224|64:248,1,105.000004005432,8|4,1:0|0:3,0:0:0:0:
144,344,52300,2,0,B|200:368|248:328,1,105.000004005432,8|2,1:0|0:3,0:0:0:0:
360,240,52708,2,0,L|360:208,2,17.500000667572,0|0|0,3:0|3:0|3:0,0:0:0:0:
496,296,52912,5,4,1:0:0:0:
496,296,53218,1,2,0:3:0:0:
488,168,53524,1,4,1:0:0:0:
488,168,53830,1,0,3:0:0:0:
488,168,54136,2,0,L|416:160,1,52.5000020027161,2|8,0:3|1:0,0:0:0:0:
224,192,54442,2,0,L|296:200,1,52.5000020027161,0|4,3:0|0:3,0:0:0:0:
56,192,54748,2,0,B|-8:120|48:32,1,157.500006008148,8|0,1:0|3:0,0:0:0:0:
144,104,55360,6,0,L|232:96,2,78.7500030040742,4|4|4,1:0|1:2|1:2,0:0:0:0:
56,192,55973,1,8,1:2:0:0:
56,200,56049,1,8,1:2:0:0:
56,208,56126,1,8,1:2:0:0:
56,216,56202,1,8,1:2:0:0:
56,224,56279,2,0,B|56:256|64:288|64:288,1,52.5000020027161,8|0,1:0|0:0,0:0:0:0:
144,360,56585,5,2,0:3:0:0:
198,301,56738,1,8,1:0:0:0:
268,281,56891,1,8,1:0:0:0:
343,292,57044,1,4,0:3:0:0:
413,320,57197,2,2,L|432:320,12,13.125000500679,4|0|0|0|0|0|0|0|0|0|0|0|0,1:2|3:0|3:0|3:0|3:0|3:0|3:0|3:0|3:0|3:0|3:0|3:0|3:0,0:1:0:0:
343,292,57809,6,0,B|304:224|344:152,1,140,6|0,1:0|3:0,0:0:0:0:
340,158,58421,2,0,L|428:150,1,70,10|0,1:0|0:0,0:0:0:0:
496,240,58727,2,0,L|408:232,1,70,0|0,3:0|3:0,0:0:0:0:
340,158,59033,1,2,0:3:0:0:
264,240,59186,1,10,1:0:0:0:
224,128,59339,2,0,B|216:80|224:48,1,70,0|4,3:0|0:3,0:0:0:0:
264,240,59645,2,0,B|288:312|264:392,1,140,10|2,1:0|0:3,0:0:0:0:
267,378,60105,1,0,3:0:0:0:
168,328,60258,6,0,L|24:336,2,140,6|0|10,1:0|3:0|1:0,0:0:0:0:
176,232,61023,2,0,L|184:160,1,70,0|0,0:0|3:0,0:0:0:0:
88,232,61329,2,0,L|96:320,1,70,0|2,3:0|0:3,0:0:0:0:
248,352,61635,1,10,1:0:0:0:
264,256,61788,2,0,L|272:176,1,70,0|4,0:0|0:3,0:0:0:0:
144,80,62094,6,0,B|56:128|-8:48,1,157.500006008148,10|0,1:0|0:0,0:0:0:0:
216,32,62706,6,0,B|256:16|304:32,1,70,6|0,1:0|0:0,0:0:0:0:
432,112,63012,1,0,3:0:0:0:
432,112,63318,2,0,B|464:168|448:248,1,140,10|0,1:0|3:0,0:0:0:0:
360,296,63777,2,0,B|344:256|352:224,1,70,0|2,3:0|0:3,0:0:0:0:
256,184,64084,2,0,B|256:224|240:264,1,70,10|8,1:0|1:0,0:0:0:0:
224,352,64390,1,4,0:3:0:0:
160,288,64543,2,0,B|144:208|160:144,1,140,10|2,1:0|0:3,0:0:0:0:
158,148,65002,1,0,3:0:0:0:
360,296,65155,6,0,B|360:336|352:376,1,70,6|0,1:0|0:0,0:0:0:0:
256,184,65461,2,0,B|253:144|256:96,1,70,0|2,3:0|0:3,0:0:0:0:
32,272,65767,2,0,B|29:270|88:328|165:294,1,140,10|0,1:0|3:0,0:0:0:0:
162,295,66379,1,6,1:0:0:0:
210,215,66532,1,0,3:0:0:0:
114,215,66685,1,0,3:0:0:0:
162,295,66838,1,0,3:0:0:0:
272,296,66991,2,0,B|320:232|280:160,1,140,10|0,1:0|3:0,0:0:0:0:
160,120,67450,1,0,3:0:0:0:
24,72,67603,6,0,B|-40:192|56:288,1,210,6|0,1:0|0:0,0:0:0:0:
134,215,68216,2,0,B|254:251|238:399,1,210,10|0,1:0|0:0,1:0:0:0:
240,376,68828,2,0,L|320:368,1,70,2|10,0:3|1:0,0:0:0:0:
408,272,69134,2,0,L|328:280,1,70,8|4,1:0|0:3,0:0:0:0:
224,224,69440,2,0,B|208:160|216:80,1,140,10|2,1:0|0:3,0:0:0:0:
215,84,69899,1,0,3:0:0:0:
328,24,70052,6,0,B|344:88|336:168,1,140,6|2,1:0|0:3,0:0:0:0:
208,256,70511,2,0,B|128:216|72:272,1,140,10|4,1:0|0:3,0:0:0:0:
152,352,70970,2,0,B|176:376|248:368,1,70,10|0,1:0|0:0,0:0:0:0:
312,312,71276,1,2,0:3:0:0:
208,256,71429,1,0,3:0:0:0:
218,369,71582,1,2,0:3:0:0:
312,312,71735,1,4,0:3:0:0:
248,128,71888,2,0,B|192:72|104:64|40:120,1,210,10|0,1:0|3:0,0:0:0:0:
80,224,72501,6,0,B|120:216|144:168,1,70,6|0,1:0|0:0,0:0:0:0:
248,24,72807,1,0,3:0:0:0:
248,24,73113,2,0,L|408:40,3,140,10|10|10|10,1:0|1:0|1:0|1:0,0:0:0:0:
464,152,74184,1,8,1:2:0:0:
304,184,74337,2,0,L|208:192,1,70,10|8,1:0|1:2,0:0:0:0:
48,264,74643,2,0,L|144:280,1,70,2|8,1:0|1:2,0:0:0:0:
384,368,74949,6,0,B|448:328|416:248,1,122.5,0|0,1:0|0:0,0:0:0:0:
208,72,75561,1,14,1:0:0:0:
208,72,76174,2,0,L|120:80,1,70,2|10,0:3|1:0,0:0:0:0:
208,184,76480,2,0,L|296:192,1,70,0|4,3:0|0:3,0:0:0:0:
368,240,76786,1,10,1:0:0:0:
368,248,77398,6,0,B|432:304|504:264,2,140,4|10|2,1:0|1:0|0:3,0:0:0:0:
296,224,78775,1,8,1:0:0:0:
280,96,78928,1,0,3:0:0:0:
408,136,79081,1,4,0:3:0:0:
336,152,79234,2,0,B|304:80|336:16,1,140,8|2,1:0|0:3,0:0:0:0:
335,16,79693,1,0,3:0:0:0:
328,336,79846,5,4,1:0:0:0:
328,336,80459,2,0,L|184:344,1,140,8|2,1:0|0:3,0:0:0:0:
96,256,81224,2,0,B|176:264|208:184,1,140,8|4,1:0|0:3,0:0:0:0:
84,100,81683,6,0,B|-16:156|-48:288|44:376,1,315.000012016297,12|0,1:2|0:0,0:0:0:0:
320,232,82295,1,4,1:0:0:0:
320,232,82907,2,0,B|344:160|304:96,1,140,8|2,1:0|0:3,0:0:0:0:
208,80,83672,1,8,1:0:0:0:
192,168,83825,1,0,3:0:0:0:
280,192,83978,1,4,0:3:0:0:
368,256,84132,6,0,L|512:256,1,140,8|2,1:0|0:3,0:0:0:0:
508,256,84591,1,0,3:0:0:0:
456,160,84744,2,0,L|368:168,1,70,4|0,1:0|0:0,0:0:0:0:
384,344,85050,2,0,L|456:336,1,70,0|0,3:0|0:0,0:0:0:0:
508,256,85356,6,0,L|368:256,1,140,8|8,1:2|1:2,0:0:0:0:
72,288,86121,1,2,1:0:0:0:
72,288,86580,1,10,1:0:0:0:
48,192,86733,1,0,3:0:0:0:
144,176,86886,1,2,1:0:0:0:
168,280,87039,1,0,3:0:0:0:
48,192,87192,6,0,B|48:144|72:112,1,70,4|0,1:0|0:0,0:0:0:0:
208,56,87498,1,0,3:0:0:0:
208,56,87804,2,0,L|376:64,2,140,8|0|2,1:0|3:0|0:3,0:0:0:0:
216,208,88570,6,0,L|288:200,1,70,8|4,1:0|0:3,0:0:0:0:
488,160,89029,1,8,1:0:0:0:
488,160,89335,1,2,0:3:0:0:
496,32,89488,1,0,3:0:0:0:
488,160,89641,6,0,B|440:216|480:296,1,140,4|12,1:0|1:2,0:0:0:0:
464,320,91477,2,0,L|384:328,1,70,8|2,1:0|0:3,0:0:0:0:
394,326,91936,1,0,3:0:0:0:
263,187,92089,6,0,B|255:115|255:43,1,140,4|8,1:0|1:2,0:0:0:0:
256,48,95762,5,0,1:0:0:0:
196,101,95915,1,2,1:0:0:0:
270,126,96068,1,0,0:0:0:0:
181,22,96222,5,0,1:0:0:0:
211,180,96375,1,0,1:0:0:0:
330,73,96528,1,0,1:0:0:0:
196,101,96681,1,2,1:0:0:0:
270,126,96834,1,0,3:0:0:0:
344,152,96987,6,0,B|416:192|480:136,1,136.499993751526,4|0,1:0|0:0,0:0:0:0:
464,8,97293,2,0,B|416:32|408:80,1,90.9999958343508,2|4,0:3|0:3,0:0:0:0:
320,240,97599,2,0,L|152:248,1,136.499993751526,10|0,1:0|0:0,0:0:0:0:
424,344,97905,1,2,1:0:0:0:
424,344,98211,6,0,B|480:288|440:216,1,136.499993751526,2|0,1:0|0:0,0:0:0:0:
432,208,98517,1,0,0:0:0:0:
328,232,98670,1,4,0:3:0:0:
296,128,98823,1,10,1:0:0:0:
400,96,98976,1,4,0:3:0:0:
328,232,99129,2,0,L|216:240,1,90.9999958343508,2|0,1:0|1:0,0:0:0:0:
208,160,99435,5,4,1:0:0:0:
168,232,99588,1,2,1:0:0:0:
136,144,99741,1,2,1:0:0:0:
96,224,99894,1,0,1:0:0:0:
64,136,100047,2,0,B|40:88|64:24,1,90.9999958343508,10|0,1:0|1:0,0:0:0:0:
96,224,100354,2,0,B|120:272|104:336,1,90.9999958343508,2|0,1:0|1:0,0:0:0:0:
104,320,100583,1,0,1:0:0:0:
96,328,100660,6,0,L|264:344,1,136.499993751526,4|0,1:0|0:0,0:0:0:0:
256,344,100966,1,0,1:0:0:0:
208,248,101119,1,4,0:3:0:0:
432,216,101272,2,0,B|352:192|312:264,1,136.499993751526,10|0,1:0|0:0,0:0:0:0:
184,128,101578,2,0,B|216:168|264:168,1,90.9999958343508,2|0,1:0|1:0,0:0:0:0:
376,72,101884,5,4,1:0:0:0:
512,56,102037,1,0,1:0:0:0:
376,72,102190,2,0,B|424:136|384:216,1,136.499993751526,2|0,0:3|0:0,0:0:0:0:
320,280,102496,2,0,B|238:271|238:271|221:280|221:280|114:268,2,181.999991668702,10|4|2,1:0|0:0|3:0,0:0:0:0:
400,352,103261,2,0,B|456:368|496:328,1,90.9999958343508,10|0,1:0|0:0,0:0:0:0:
416,248,103567,1,4,0:3:0:0:
320,280,103720,1,10,1:0:0:0:
400,352,103873,1,0,1:0:0:0:
512,224,104026,2,0,B|544:136|472:72,1,136.499993751526,4|0,1:3|0:0,0:0:0:0:
392,32,104333,6,0,B|328:72|328:72|224:56,1,136.499993751526,4|0,1:0|0:0,0:0:0:0:
256,56,104639,1,2,1:0:0:0:
128,88,104792,1,0,3:0:0:0:
232,160,104945,2,0,L|376:184,1,136.499993751526,10|0,1:0|0:0,0:0:0:0:
376,200,105251,2,0,B|352:248|360:304,1,90.9999958343508,2|0,1:0|0:0,0:0:0:0:
240,368,105557,6,0,B|168:320|88:360,1,136.499993751526,2|0,0:3|0:0,0:0:0:0:
96,344,105863,1,0,1:0:0:0:
0,232,106016,1,4,0:3:0:0:
144,200,106169,1,10,1:0:0:0:
48,288,106322,1,0,1:0:0:0:
72,216,106475,1,10,1:0:0:0:
120,272,106628,1,0,1:0:0:0:
0,232,106781,5,4,1:0:0:0:
144,200,106934,1,0,0:0:0:0:
96,344,107087,2,0,B|160:344|200:352,1,90.9999958343508,10|0,1:0|0:0,0:0:0:0:
248,256,107393,2,0,B|240:168|240:104,1,136.499993751526,10|0,1:0|0:0,0:0:0:0:
328,176,107699,2,0,B|336:240|336:288,1,90.9999958343508,0|4,1:0|0:3,0:0:0:0:
144,200,108005,6,0,B|144:128|160:40,1,136.499993751526,2|0,1:0|0:0,0:0:0:0:
168,40,108311,1,0,1:0:0:0:
240,120,108465,1,2,1:0:0:0:
64,136,108618,2,0,B|8:152|-24:120,1,90.9999958343508,10|0,1:0|1:0,0:0:0:0:
240,120,108924,2,0,B|296:104|344:136,1,90.9999958343508,2|0,1:0|1:0,0:0:0:0:
440,200,109153,1,0,1:0:0:0:
440,200,109230,6,0,B|512:136|464:48,1,157.500006008148,4|4,1:0|0:3,0:0:0:0:
264,208,109842,6,0,B|184:272|104:216,1,157.500006008148,12|0,1:2|1:0,0:0:0:0:
184,144,110454,6,0,B|216:104|272:120,1,90.9999958343508,2|10,1:0|1:0,0:0:0:0:
336,344,110760,2,0,B|280:344|256:296,1,90.9999958343508,2|0,1:0|1:0,0:0:0:0:
368,224,111066,2,0,B|464:256|536:184,2,181.999991668702,10|2|4,1:0|1:0|1:0,0:0:0:0:
280,176,111831,1,0,1:0:0:0:
368,128,111984,1,2,0:3:0:0:
368,224,112137,1,8,1:2:0:0:
288,280,112290,6,0,L|176:288,1,90.9999958343508,10|0,1:0|1:0,0:0:0:0:
80,168,112597,2,0,L|192:160,1,90.9999958343508,2|0,1:0|1:0,0:0:0:0:
352,48,112903,1,0,1:0:0:0:
272,8,113056,2,0,B|248:64|280:112,1,105.000004005432,8|0,1:2|3:0,0:0:0:0:
160,208,113515,2,0,L|168:152,1,52.5000020027161,10|0,1:0|1:0,0:0:0:0:
32,104,113821,2,0,L|40:160,1,52.5000020027161,2|0,1:0|0:0,0:0:0:0:
344,168,114127,5,4,1:0:0:0:
496,152,114280,1,0,1:0:0:0:
344,168,114433,2,0,B|312:216|336:272,1,90.9999958343508,2|0,1:0|1:0,0:0:0:0:
488,288,114739,2,0,B|472:232|416:224,1,90.9999958343508,10|0,1:0|1:0,0:0:0:0:
329,254,115045,1,2,1:0:0:0:
384,352,115198,1,0,1:0:0:0:
280,344,115351,6,0,B|240:312|240:264,1,90.9999958343508,2|8,1:0|1:0,0:0:0:0:
329,254,115657,1,2,1:0:0:0:
329,254,115810,1,4,0:3:0:0:
464,112,115963,5,8,1:0:0:0:
336,136,116116,1,8,1:0:0:0:
200,120,116269,1,8,1:0:0:0:
72,136,116422,1,8,1:0:0:0:
464,112,116576,6,2,B|472:56|472:16,1,90.9999958343508,4|0,1:0|3:0,1:0:0:0:
200,120,116882,2,0,B|200:176|208:216,1,90.9999958343508,2|0,1:0|0:0,0:0:0:0:
336,176,117188,2,0,B|344:112|344:32,1,136.499993751526,10|0,1:0|0:0,0:0:0:0:
343,39,117494,1,2,0:3:0:0:
256,16,117647,1,4,0:3:0:0:
240,104,117800,1,2,0:3:0:0:
344,208,117953,6,0,B|440:160|512:240,1,181.999991668702,8|0,1:0|1:0,0:0:0:0:
400,296,118412,2,0,B|352:328|296:304,1,90.9999958343508,2|0,1:0|1:0,0:0:0:0:
240,232,118718,1,2,1:0:0:0:
240,232,118871,1,0,1:0:0:0:
312,72,119024,5,4,1:0:0:0:
464,144,119177,1,0,1:0:0:0:
400,296,119330,1,0,1:0:0:0:
240,232,119483,1,0,1:0:0:0:
312,72,119636,2,0,B|320:144|312:176,1,90.9999958343508,10|0,1:0|0:0,0:0:0:0:
136,272,119942,2,0,B|136:208|144:168,1,90.9999958343508,2|0,1:0|1:0,0:0:0:0:
240,232,120248,5,0,1:0:0:0:
240,232,120325,1,0,1:0:0:0:
240,232,120401,2,0,B|248:296|248:376,1,136.499993751526,2|0,1:0|0:0,0:0:0:0:
224,384,120708,1,0,1:0:0:0:
128,312,120861,1,2,1:0:0:0:
336,296,121014,2,0,B|440:336|504:264,1,181.999991668702,2|0,1:0|3:0,0:0:0:0:
304,152,121473,6,0,B|264:112|202:132,1,90.9999958343508,4|0,1:0|0:0,0:0:0:0:
400,216,121779,2,0,B|456:208|472:144,1,90.9999958343508,2|0,1:0|1:0,0:0:0:0:
392,0,122085,2,2,B|344:72|392:136,1,136.499993751526,8|0,1:2|0:0,0:0:0:0:
386,127,122391,1,2,0:3:0:0:
208,136,122544,1,4,0:3:0:0:
304,208,122697,6,0,B|312:256|288:304,1,90.9999958343508,0|10,1:0|1:0,0:0:0:0:
200,368,123003,2,0,B|144:320|72:352,1,136.499993751526
291,296,123309,2,0,B|312:248|304:208,1,90.9999958343508,10|0,1:0|1:0,0:0:0:0:
208,136,123615,2,0,B|187:184|195:224,1,90.9999958343508,2|0,1:0|1:0,0:0:0:0:
400,352,123921,5,4,1:0:0:0:
416,344,124074,1,0,1:0:0:0:
432,336,124227,1,2,1:0:0:0:
448,328,124380,1,8,1:0:0:0:
472,200,124533,5,10,1:0:0:0:
360,256,124687,1,0,1:0:0:0:
240,304,124840,2,0,B|128:336|56:240,1,181.999991668702,2|4,1:0|0:3,0:0:0:0:
128,80,125299,2,0,B|232:64|296:160,1,181.999991668702,2|4,1:0|0:3,0:0:0:0:
408,64,125758,2,2,L|448:56,10,30.3333319447836,2|0|0|0|0|0|0|0|0|0|0,1:0|0:0|0:0|0:0|0:0|0:0|0:0|0:0|0:0|0:0|0:0,0:1:0:0:
392,80,126370,6,0,B|416:128|400:176,1,90.9999958343508,4|0,1:0|1:0,0:0:0:0:
272,328,126676,2,0,B|263:271|288:240,1,90.9999958343508,2|0,1:0|1:0,0:0:0:0:
294,249,126906,1,0,1:0:0:0:
294,249,126982,2,0,L|136:232,1,136.499993751526,10|0,1:0|0:0,0:0:0:0:
152,216,127288,5,2,1:0:0:0:
48,208,127441,1,0,1:0:0:0:
40,104,127594,1,2,0:3:0:0:
144,112,127747,2,0,L|245:124,1,90.9999958343508,10|0,1:0|0:0,0:0:0:0:
234,122,128053,1,4,0:3:0:0:
176,336,128206,2,0,L|75:324,1,90.9999958343508,10|0,1:0|1:0,0:0:0:0:
64,328,128512,1,10,1:0:0:0:
40,328,128666,1,0,1:0:0:0:
272,264,128819,6,0,L|392:256,1,90.9999958343508,4|0,1:0|1:0,0:0:0:0:
488,144,129125,2,0,L|384:152,1,90.9999958343508,2|0,1:0|1:0,0:0:0:0:
272,112,129431,2,0,B|197:149|137:86,1,136.499993751526,10|0,1:0|0:0,0:0:0:0:
145,94,129737,2,0,B|143:37|167:-7,1,90.9999958343508,2|0,1:3|3:0,0:0:0:0:
280,240,130043,2,0,B|240:312|272:384,1,136.499993751526,4|0,0:3|0:0,0:0:0:0:
266,371,130349,2,0,L|370:363,1,90.9999958343508,2|0,1:3|1:0,0:0:0:0:
160,288,130655,6,2,B|96:264|72:304|0:280,1,157.500006008148,10|0,1:0|1:0,0:1:0:0:
160,192,131267,6,0,B|208:200|256:176,1,90.9999958343508,4|0,1:0|0:0,0:0:0:0:
112,112,131573,2,0,B|64:112|24:144,1,90.9999958343508,2|0,1:0|3:0,0:0:0:0:
256,280,131879,2,0,B|328:256|392:296,1,136.499993751526,10|0,1:0|0:0,0:0:0:0:
400,304,132185,1,2,1:0:0:0:
504,216,132338,1,0,1:0:0:0:
368,176,132491,1,8,1:2:0:0:
424,232,132644,2,0,B|488:144|432:56,1,181.999991668702,10|4,1:0|0:3,0:0:0:0:
288,104,133104,2,0,L|184:112,1,90.9999958343508,8|0,1:0|1:0,0:0:0:0:
32,32,133410,2,0,L|136:24,1,90.9999958343508,2|0,1:0|1:0,0:0:0:0:
256,128,133716,6,0,L|240:272,1,136.499993751526,4|0,1:0|0:0,0:0:0:0:
240,280,134022,1,2,1:0:0:0:
136,264,134175,1,0,1:0:0:0:
152,168,134328,1,10,1:0:0:0:
320,240,134481,1,2,1:0:0:0:
176,360,134634,2,0,B|112:320|40:352,1,136.499993751526,0|0,1:0|0:0,0:0:0:0:
24,216,134940,6,0,B|16:152|16:152|24:120|24:120|8:24,1,181.999991668702,4|0,1:0|0:0,0:0:0:0:
136,152,135399,1,0,1:0:0:0:
280,208,135552,6,2,B|256:272|256:272|240:280|240:280|216:352,1,157.500006008148,6|0,1:0|1:0,0:1:0:0:
217,347,136164,1,6,1:0:0:0:
256,192,136317,12,2,143434,0:0:0:0:
