osu file format v14

[General]
AudioFilename: audio.ogg
AudioLeadIn: 0
PreviewTime: 57779
Countdown: 0
SampleSet: Soft
StackLeniency: 0.7
Mode: 0
LetterboxInBreaks: 0
WidescreenStoryboard: 1

[Editor]
DistanceSpacing: 1.05
BeatDivisor: 8
GridSize: 32
TimelineZoom: 1.4

[Metadata]
Title:Session
TitleUnicode:Session
Artist:Linkin Park
ArtistUnicode:Linkin Park
Creator:Ruiz Duchamp
Version:Normal
Source:
Tags:pw384 senseabel mirash pandahero semaphore evilelvis natteke_desu jounzan alternative rock instrumental meteora
BeatmapID:4267655
BeatmapSetID:2044718

[Difficulty]
HPDrainRate:4
CircleSize:3.5
OverallDifficulty:5
ApproachRate:5.5
SliderMultiplier:2
SliderTickRate:1

[Events]
//Background and Video events
0,0,"temporarybg.jpg",0,0
//Break Periods
2,92902,94637
//Storyboard Layer 0 (Background)
//Storyboard Layer 1 (Fail)
//Storyboard Layer 2 (Pass)
//Storyboard Layer 3 (Foreground)
//Storyboard Layer 4 (Overlay)
//Storyboard Sound Samples

[TimingPoints]
-957,612.151201346733,4,2,1,55,1,0
38220,-100,4,2,1,60,0,0
57809,-100,4,2,1,65,0,0
77398,-125,4,2,1,60,0,0
90406,-125,4,2,1,50,0,0
91324,-125,4,2,1,60,0,0
96987,-100,4,2,1,70,0,0
143434,-100,4,2,1,20,0,0

[Colours]
Combo1 : 137,173,140
Combo2 : 75,112,79

[HitObjects]
400,28,17560,5,8,1:0:0:0:
476,100,17866,1,4,0:3:0:0:
476,100,18019,1,8,1:0:0:0:
405,170,18325,1,2,0:3:0:0:
333,100,18631,1,4,1:0:0:0:
205,254,19243,2,0,L|194:345,1,50,8|0,1:0|0:0,0:0:0:0:
167,342,19550,1,0,3:0:0:0:
66,293,19856,1,2,0:3:0:0:
66,293,20009,2,0,L|54:176,1,100,8|4,1:0|0:3,0:0:0:0:
77,148,20468,1,8,1:0:0:0:
130,63,20774,1,2,0:3:0:0:
215,114,21080,5,4,1:0:0:0:
338,270,21692,2,0,L|347:349,1,50,8|0,1:0|0:0,0:0:0:0:
382,350,21998,1,0,3:0:0:0:
467,295,22304,1,2,0:3:0:0:
467,295,22457,2,0,L|487:169,1,100,8|4,1:0|0:3,0:0:0:0:
460,151,22916,1,8,1:0:0:0:
405,67,23222,1,2,0:3:0:0:
308,93,23529,5,4,1:0:0:0:
303,194,23835,1,10,1:0:0:0:
397,230,24141,1,10,1:0:0:0:
507,64,24753,1,2,0:3:0:0:
507,64,24906,1,8,1:0:0:0:
434,3,25212,1,4,0:3:0:0:
434,3,25365,2,0,P|386:10|328:2,1,100,8|2,1:0|0:3,0:0:0:0:
272,81,25977,5,4,1:0:0:0:
189,207,26436,1,4,0:3:0:0:
189,207,26589,1,8,1:0:0:0:
290,317,27048,1,8,1:0:0:0:
382,271,27354,1,4,0:3:0:0:
382,271,27508,2,0,L|437:283,1,50,4|4,0:3|0:3,0:0:0:0:
468,314,27814,1,8,1:0:0:0:
510,118,28426,5,4,1:0:0:0:
344,6,29038,2,0,P|299:11|232:4,1,100,8|0,1:0|3:0,0:0:0:0:
178,82,29650,1,2,0:3:0:0:
178,82,29803,2,0,P|107:59|40:69,1,100,8|4,1:0|0:3,0:0:0:0:
38,83,30262,1,8,1:0:0:0:
1,176,30568,1,2,0:3:0:0:
81,234,30874,5,4,1:0:0:0:
249,126,31487,1,8,0:0:0:0:
269,329,32099,1,2,0:3:0:0:
269,329,32252,1,8,1:0:0:0:
184,285,32558,1,4,0:3:0:0:
184,285,32711,1,8,0:0:0:0:
170,85,33323,5,4,1:0:0:0:
350,173,33935,1,0,1:0:0:0:
184,285,34547,1,2,0:3:0:0:
184,285,34700,1,8,1:0:0:0:
100,241,35006,1,4,0:3:0:0:
100,241,35159,1,8,1:0:0:0:
20,199,35465,1,2,0:3:0:0:
20,199,35619,1,0,3:0:0:0:
20,199,35772,6,0,P|5:147|31:46,1,150,4|8,1:2|1:0,0:0:0:0:
67,28,36384,1,8,1:0:0:0:
154,86,36690,1,2,0:3:0:0:
154,86,36843,1,8,1:0:0:0:
236,28,37149,1,4,0:3:0:0:
236,28,37302,2,0,L|296:41,1,50,2|4,0:3|0:3,0:0:0:0:
312,80,37608,1,12,1:0:0:0:
448,226,38220,5,6,1:0:0:0:
293,353,38832,1,8,1:0:0:0:
160,210,39444,1,2,0:3:0:0:
160,210,39598,1,8,1:0:0:0:
241,150,39904,1,4,0:3:0:0:
241,150,40057,1,8,1:0:0:0:
305,226,40363,1,2,0:3:0:0:
225,286,40669,5,4,1:0:0:0:
37,216,41281,2,0,P|28:182|37:91,1,100,8|0,1:0|3:0,0:0:0:0:
107,54,41893,1,2,0:3:0:0:
107,54,42046,2,0,P|160:66|207:60,1,100,8|4,1:0|0:3,0:0:0:0:
237,98,42505,2,0,L|298:91,1,50,8|0,1:0|0:0,0:0:0:0:
326,123,42811,1,2,0:3:0:0:
399,206,43117,5,2,1:2:0:0:
399,206,43270,1,2,3:3:0:0:
399,206,43423,1,2,0:3:0:0:
340,286,43730,2,2,L|245:333,2,100,8|0|2,1:0|3:0|0:3,0:1:0:0:
389,287,44495,1,8,1:0:0:0:
485,253,44801,1,4,0:3:0:0:
485,253,44954,1,8,1:0:0:0:
482,152,45260,1,2,0:3:0:0:
384,124,45566,5,4,1:0:0:0:
226,246,46178,2,0,L|126:221,1,100,8|0,1:0|3:0,0:0:0:0:
35,247,46790,1,2,0:3:0:0:
35,247,46943,1,8,1:0:0:0:
13,154,47249,1,4,0:3:0:0:
13,154,47402,1,8,1:0:0:0:
109,126,47709,1,2,0:3:0:0:
207,105,48015,5,6,1:0:0:0:
309,276,48627,2,0,L|318:338,1,50,8|0,1:0|0:0,0:0:0:0:
352,359,48933,1,0,3:0:0:0:
439,308,49239,1,2,0:3:0:0:
439,308,49392,1,8,1:0:0:0:
400,221,49698,1,4,0:3:0:0:
400,221,49851,2,0,P|383:159|391:59,1,150,12|0,1:2|3:0,0:0:0:0:
413,31,50463,5,4,1:0:0:0:
494,88,50769,1,2,0:3:0:0:
500,186,51075,1,8,1:0:0:0:
427,254,51381,1,0,3:0:0:0:
328,240,51688,1,2,0:3:0:0:
328,240,51841,2,0,P|264:245|209:273,1,100,8|4,1:0|0:3,0:0:0:0:
196,294,52300,1,8,1:0:0:0:
128,367,52606,1,2,0:3:0:0:
56,296,52912,5,4,1:0:0:0:
125,224,53218,1,2,0:3:0:0:
178,139,53524,1,4,1:0:0:0:
255,75,53830,1,0,3:0:0:0:
327,5,54136,1,2,0:3:0:0:
327,5,54289,1,8,1:0:0:0:
398,75,54595,1,4,0:3:0:0:
398,75,54748,1,8,1:0:0:0:
330,149,55054,1,2,0:3:0:0:
254,214,55360,6,0,P|246:268|249:302,2,75,4|4|2,1:0|1:2|1:2,0:0:0:0:
209,191,55973,2,0,L|203:129,1,50,8|8,1:2|1:2,0:0:0:0:
168,105,56279,1,8,1:0:0:0:
36,32,56738,1,8,1:0:0:0:
12,180,57197,2,2,L|-8:345,1,150,12|0,1:2|0:0,0:1:0:0:
25,368,57809,5,6,1:0:0:0:
166,227,58421,1,10,1:0:0:0:
311,90,59033,1,2,0:3:0:0:
311,90,59186,1,10,1:0:0:0:
384,21,59492,1,4,0:3:0:0:
384,21,59645,1,10,1:0:0:0:
460,84,59952,1,2,0:3:0:0:
389,155,60258,5,6,1:0:0:0:
243,292,60870,1,10,1:0:0:0:
104,155,61482,1,2,0:3:0:0:
104,155,61635,1,10,1:0:0:0:
179,88,61941,1,4,0:3:0:0:
179,88,62094,1,10,1:0:0:0:
243,164,62400,1,2,0:3:0:0:
166,227,62706,5,6,1:0:0:0:
87,289,63012,1,0,3:0:0:0:
22,212,63318,1,10,1:0:0:0:
100,26,63931,1,2,0:3:0:0:
100,26,64084,1,10,1:0:0:0:
179,88,64390,1,4,0:3:0:0:
179,88,64543,1,10,1:0:0:0:
244,11,64849,1,2,0:3:0:0:
317,78,65155,6,0,L|342:182,1,100,6|0,1:0|3:0,0:0:0:0:
384,198,65614,1,2,0:3:0:0:
428,221,65767,2,0,L|456:145,1,50,10|0,1:0|0:0,0:0:0:0:
495,172,66073,1,0,3:0:0:0:
450,83,66379,1,6,1:0:0:0:
351,97,66685,1,0,3:0:0:0:
332,195,66991,1,10,1:0:0:0:
422,242,67297,1,0,3:0:0:0:
371,328,67603,6,0,L|233:354,1,100,6|0,1:0|3:0,0:0:0:0:
193,285,68216,2,0,L|55:259,1,100,10|0,1:0|3:0,0:0:0:0:
31,188,68828,1,2,0:3:0:0:
31,188,68981,2,0,L|21:120,1,50,10|0,1:0|0:0,0:0:0:0:
56,101,69287,1,4,0:3:0:0:
56,101,69440,1,10,1:0:0:0:
143,149,69746,1,2,0:3:0:0:
237,117,70052,6,0,L|257:18,1,100,6|2,1:0|0:3,0:0:0:0:
304,2,70511,2,0,L|323:100,1,100,10|4,1:0|0:3,0:0:0:0:
371,115,70970,2,0,L|388:57,1,50,10|0,1:0|0:0,0:0:0:0:
430,45,71276,1,2,0:3:0:0:
485,128,71582,1,2,0:3:0:0:
412,196,71888,2,0,L|392:294,1,100,10|2,1:0|0:3,0:0:0:0:
298,329,72501,6,0,L|278:230,1,100,6|0,1:0|3:0,0:0:0:0:
183,197,73113,1,10,1:0:0:0:
128,280,73419,1,10,1:0:0:0:
32,254,73725,1,10,1:0:0:0:
27,154,74031,1,10,1:0:0:0:
120,119,74337,1,10,1:0:0:0:
189,191,74643,1,8,1:2:0:0:
279,148,74949,6,0,L|298:49,1,100,6|4,1:0|1:0,0:0:0:0:
346,34,75408,1,0,1:0:0:0:
393,19,75561,1,10,1:0:0:0:
469,83,75867,1,2,0:3:0:0:
430,177,76174,1,2,0:3:0:0:
430,177,76327,1,10,1:0:0:0:
334,170,76633,1,4,0:3:0:0:
334,170,76786,1,10,1:0:0:0:
308,73,77092,1,2,0:3:0:0:
220,99,77398,6,0,L|198:203,1,80,4|2,1:0|0:3,0:0:0:0:
124,231,78010,2,2,L|131:280,1,40,10|0,1:0|0:0,0:1:0:0:
107,312,78316,1,0,0:0:0:0:
199,352,78622,1,2,0:3:0:0:
199,352,78775,1,8,1:0:0:0:
255,275,79081,1,4,0:3:0:0:
255,275,79234,1,8,1:0:0:0:
343,312,79540,2,0,L|336:361,1,40,2|0,0:3|3:0,0:0:0:0:
373,383,79846,5,4,1:0:0:0:
479,219,80459,2,0,L|493:112,1,80,8|0,1:0|3:0,0:0:0:0:
415,79,81071,1,2,0:3:0:0:
415,79,81224,1,8,1:0:0:0:
334,133,81530,1,4,0:3:0:0:
334,133,81683,2,0,L|333:224,1,80,12|0,1:2|0:0,0:0:0:0:
255,275,82295,1,4,1:0:0:0:
76,200,82907,6,0,L|56:98,1,80,8|0,1:0|3:0,0:0:0:0:
132,56,83519,1,2,0:3:0:0:
132,56,83672,1,8,1:0:0:0:
223,99,83978,1,4,0:3:0:0:
223,99,84132,2,0,L|258:202,1,80,8|2,1:0|0:3,0:0:0:0:
222,266,84744,5,4,1:0:0:0:
41,198,85356,1,8,1:2:0:0:
131,25,85968,1,8,1:2:0:0:
131,25,86121,2,0,P|176:30|212:23,1,80,2|0,1:0|3:0,0:0:0:0:
249,51,86580,2,0,L|312:63,1,40,10|0,1:0|0:0,0:0:0:0:
330,36,86886,1,2,1:0:0:0:
415,79,87192,6,0,P|413:170|427:254,2,160,4|8|2,1:0|1:0|0:3,0:0:0:0:
458,58,88570,1,8,1:0:0:0:
512,143,88876,1,4,0:3:0:0:
512,143,89029,2,0,P|512:204|506:231,1,80,8|2,1:0|0:3,0:0:0:0:
429,277,89641,6,0,P|360:255|274:284,1,160,4|8,1:0|1:2,0:0:0:0:
255,322,90406,2,2,P|182:325|88:238,1,200,4|0,1:2|3:0,0:0:0:0:
101,201,91324,1,4,0:3:0:0:
101,201,91477,1,8,1:0:0:0:
187,157,91783,1,2,0:3:0:0:
275,194,92089,6,0,P|328:190|362:199,1,80,4|0,1:0|3:0,0:0:0:0:
388,106,92702,1,8,1:2:0:0:
388,106,95762,5,0,1:0:0:0:
388,106,95915,1,2,1:0:0:0:
458,179,96222,1,0,1:0:0:0:
458,179,96375,2,0,L|451:235,1,40,0|0,1:0|1:0,0:0:0:0:
476,260,96681,1,2,1:0:0:0:
395,319,96987,6,0,P|343:324|292:373,1,100,4|2,1:0|0:3,0:0:0:0:
240,274,97599,2,0,P|188:269|137:220,1,100,10|0,1:0|1:0,0:0:0:0:
57,269,98211,1,2,1:0:0:0:
57,269,98364,2,0,P|40:208|60:109,1,150,8|10,1:0|1:0,0:0:0:0:
143,81,99129,1,2,1:0:0:0:
222,141,99435,6,0,P|223:181|219:206,1,50,4|0,1:0|1:0,0:0:0:0:
249,232,99741,1,2,1:0:0:0:
340,273,100047,1,10,1:0:0:0:
384,249,100200,1,0,1:0:0:0:
429,269,100354,1,2,1:0:0:0:
503,202,100660,1,4,1:0:0:0:
503,202,100813,2,0,P|520:141|500:42,1,150,10|10,1:0|1:0,0:0:0:0:
421,4,101578,1,2,1:0:0:0:
328,42,101884,6,0,P|311:103|331:202,1,150,4|0,1:0|0:0,0:0:0:0:
329,237,102496,2,0,P|279:248|239:285,1,100,10|2,1:0|0:3,0:0:0:0:
165,219,103108,1,2,3:0:0:0:
165,219,103261,2,0,P|96:235|6:214,1,150,10|10,1:0|1:0,0:0:0:0:
4,176,103873,1,0,1:0:0:0:
4,176,104026,1,4,1:3:0:0:
45,80,104333,6,0,P|105:89|151:78,1,100,4|2,1:0|1:0,0:0:0:0:
185,116,104792,1,0,3:0:0:0:
185,116,104945,2,0,L|257:124,1,50,10|0,1:0|0:0,0:0:0:0:
282,106,105251,1,2,1:0:0:0:
365,169,105557,1,2,0:3:0:0:
365,169,105710,2,0,P|414:160|462:170,1,100,10|4,1:0|0:3,0:0:0:0:
500,202,106169,1,10,1:0:0:0:
458,293,106475,1,10,1:0:0:0:
365,255,106781,5,4,1:0:0:0:
291,322,107087,1,10,1:0:0:0:
200,279,107393,2,0,P|149:288|96:279,1,100,10|0,1:0|1:0,0:0:0:0:
11,319,108005,1,2,1:0:0:0:
11,319,108158,2,0,P|-6:266|3:164,1,150,0|10,1:0|1:0,0:0:0:0:
30,134,108771,1,0,1:0:0:0:
30,134,108924,1,2,1:0:0:0:
123,168,109230,6,0,P|178:170|304:93,2,200,4|12|2,1:0|1:2|1:0,0:0:0:0:
84,200,110607,1,10,1:0:0:0:
140,288,110913,1,0,1:0:0:0:
140,288,111066,2,0,P|140:327|136:348,1,50,10|0,1:0|1:0,0:0:0:0:
177,368,111372,1,2,1:0:0:0:
267,326,111678,6,0,P|263:282|269:223,1,100,4|2,1:0|0:3,0:0:0:0:
313,204,112137,1,0,1:0:0:0:
356,227,112290,1,10,1:0:0:0:
429,159,112597,1,2,1:0:0:0:
362,87,112903,1,0,3:0:0:0:
362,87,113056,2,2,P|314:94|215:44,1,150,8|10,1:2|1:0,0:0:0:0:
207,11,113668,1,0,1:0:0:0:
207,11,113821,1,2,1:0:0:0:
124,69,114127,6,0,P|127:120|122:175,1,100,4|2,1:0|1:0,0:0:0:0:
156,205,114586,1,0,1:0:0:0:
189,242,114739,2,0,P|188:282|190:296,1,50,10|0,1:0|1:0,0:0:0:0:
221,330,115045,1,2,1:0:0:0:
316,293,115351,1,2,1:0:0:0:
316,293,115504,1,8,1:0:0:0:
391,366,115810,1,4,0:3:0:0:
391,366,115963,2,0,P|428:363|456:373,1,50,10|12,1:0|1:2,0:0:0:0:
452,317,116269,2,0,P|489:320|517:310,1,50,10|12,1:0|1:2,0:0:0:0:
510,268,116576,6,0,P|515:219|503:145,1,100,4|0,1:0|1:0,0:0:0:0:
437,105,117188,1,10,1:0:0:0:
437,105,117341,2,0,P|434:74|439:43,1,50,0|2,3:0|0:3,0:0:0:0:
409,19,117647,1,4,0:3:0:0:
409,19,117800,2,0,P|346:28|283:7,1,100,2|0,0:3|1:0,0:0:0:0:
228,76,118412,1,2,1:0:0:0:
182,55,118565,1,0,1:0:0:0:
136,74,118718,1,2,1:0:0:0:
41,42,119024,6,0,P|32:134|48:226,1,150,4|0,1:0|1:0,0:0:0:0:
64,233,119636,1,10,1:0:0:0:
47,331,119942,2,0,P|76:329|96:331,1,50,2|0,1:0|1:0,0:0:0:0:
143,309,120248,1,0,1:0:0:0:
143,309,120401,2,0,P|217:322|293:309,1,150,2|2,1:0|1:0,0:0:0:0:
330,339,121014,1,2,1:0:0:0:
420,292,121320,1,0,3:0:0:0:
420,292,121473,6,0,P|423:261|415:223,1,50,4|0,1:0|0:0,0:0:0:0:
388,203,121779,2,0,P|385:172|393:134,1,50,2|0,1:0|1:0,0:0:0:0:
426,123,122085,2,2,P|440:66|434:17,1,100,8|2,1:2|0:3,0:0:0:0:
342,4,122697,1,0,1:0:0:0:
342,4,122850,2,0,P|290:11|238:1,1,100,10|4,1:0|0:3,0:0:0:0:
202,31,123309,2,0,L|132:42,1,50,10|0,1:0|1:0,0:0:0:0:
106,19,123615,1,2,1:0:0:0:
23,75,123921,6,0,P|27:137|21:177,1,100,4|0,1:0|1:0,0:0:0:0:
52,219,124380,1,8,1:0:0:0:
52,219,124533,2,0,P|51:258|55:278,1,50,10|0,1:0|1:0,0:0:0:0:
82,309,124840,1,2,1:0:0:0:
174,358,125146,1,4,0:3:0:0:
174,358,125299,1,2,1:0:0:0:
254,298,125605,1,4,0:3:0:0:
254,298,125758,2,2,P|327:313|402:298,1,150,2|0,1:0|0:0,0:1:0:0:
443,273,126370,6,0,P|445:248|442:214,1,50,4|0,1:0|1:0,0:0:0:0:
468,179,126676,1,2,1:0:0:0:
410,102,126982,1,10,1:0:0:0:
364,121,127135,1,0,1:0:0:0:
317,103,127288,1,2,1:0:0:0:
241,168,127594,1,2,0:3:0:0:
241,168,127747,2,0,P|201:146|130:147,1,100,10|4,1:0|0:3,0:0:0:0:
110,175,128206,2,0,P|78:172|52:177,1,50,10|0,1:0|1:0,0:0:0:0:
21,143,128512,1,10,1:0:0:0:
49,47,128819,6,0,P|81:50|107:45,1,50,4|0,1:0|1:0,0:0:0:0:
142,23,129125,1,2,1:0:0:0:
227,70,129431,2,0,P|267:48|338:49,1,100,10|2,1:0|1:3,0:0:0:0:
367,139,130043,1,4,0:3:0:0:
367,139,130196,2,0,P|407:161|478:160,1,100,2|0,1:0|1:0,0:0:0:0:
494,201,130655,2,0,P|494:239|500:266,1,50,10|0,1:0|1:0,0:0:0:0:
466,291,130961,1,2,1:0:0:0:
382,345,131267,6,0,P|310:337|254:351,1,100,4|0,1:0|1:0,0:0:0:0:
245,319,131726,1,0,3:0:0:0:
245,319,131879,2,0,P|173:326|120:311,1,100,10|2,1:0|1:0,0:0:0:0:
67,267,132491,1,8,1:2:0:0:
67,267,132644,2,0,P|64:232|68:211,1,50,10|0,1:0|0:0,0:0:0:0:
108,188,132951,1,4,0:3:0:0:
108,188,133104,2,0,P|143:191|164:187,1,50,8|0,1:0|1:0,0:0:0:0:
197,218,133410,1,2,1:0:0:0:
280,162,133716,6,0,P|344:171|383:161,1,100,4|2,1:0|1:0,0:0:0:0:
418,200,134175,1,0,1:0:0:0:
418,200,134328,2,0,L|476:206,1,50,10|2,1:0|1:0,0:0:0:0:
511,181,134634,1,0,1:0:0:0:
486,88,134940,1,0,1:0:0:0:
486,88,135093,1,2,1:0:0:0:
393,120,135399,1,0,1:0:0:0:
393,120,135552,1,2,1:0:0:0:
357,26,135858,1,0,1:0:0:0:
263,61,136164,1,6,1:0:0:0:
256,192,136317,12,2,143434,0:0:0:0:
