osu file format v14

[General]
AudioFilename: audio.ogg
AudioLeadIn: 0
PreviewTime: 57779
Countdown: 0
SampleSet: Soft
StackLeniency: 0.8
Mode: 0
LetterboxInBreaks: 0
WidescreenStoryboard: 1

[Editor]
DistanceSpacing: 1.3
BeatDivisor: 4
GridSize: 32
TimelineZoom: 1.299999

[Metadata]
Title:Session
TitleUnicode:Session
Artist:Linkin Park
ArtistUnicode:Linkin Park
Creator:Ruiz Duchamp
Version:Hard
Source:
Tags:pw384 senseabel mirash pandahero semaphore evilelvis natteke_desu jounzan alternative rock instrumental meteora
BeatmapID:4267653
BeatmapSetID:2044718

[Difficulty]
HPDrainRate:5
CircleSize:4
OverallDifficulty:7
ApproachRate:7.5
SliderMultiplier:2.8
SliderTickRate:0.5

[Events]
//Background and Video events
0,0,"temporarybg.jpg",0,0
//Break Periods
2,92902,94937
//Storyboard Layer 0 (Background)
//Storyboard Layer 1 (Fail)
//Storyboard Layer 2 (Pass)
//Storyboard Layer 3 (Foreground)
//Storyboard Layer 4 (Overlay)
//Storyboard Sound Samples

[TimingPoints]
-957,612.151201346733,4,2,1,55,1,0
-957,-100,4,2,1,55,0,0
38220,-100,4,2,1,60,0,0
57809,-100,4,2,1,65,0,0
77398,-125,4,2,1,60,0,0
90330,-125,4,2,1,30,0,0
91324,-125,4,2,1,60,0,0
96987,-100,4,2,1,70,0,0
125758,-100,4,2,2,20,0,0
125911,-100,4,2,1,30,0,0
126064,-100,4,2,2,40,0,0
126217,-100,4,2,1,50,0,0
126370,-100,4,2,1,70,0,0
143434,-100,4,2,1,20,0,0

[Colours]
Combo1 : 137,173,140
Combo2 : 75,112,79

[HitObjects]
412,15,17560,5,8,1:0:0:0:
482,125,17866,1,4,0:3:0:0:
447,193,18019,1,8,1:0:0:0:
493,318,18325,2,0,P|458:313|420:318,1,70,2|0,0:3|3:0,0:0:0:0:
325,361,18631,6,0,P|251:357|193:310,1,140,4|0,1:0|3:0,0:0:0:0:
269,210,19243,2,0,P|272:174|268:134,1,70,8|0,1:0|0:0,0:0:0:0:
210,92,19550,1,0,3:0:0:0:
115,180,19856,1,2,0:3:0:0:
60,235,20009,2,0,P|57:271|61:311,1,70,8|0,1:0|0:0,0:0:0:0:
137,364,20315,1,4,0:3:0:0:
200,319,20468,2,0,P|274:315|339:278,1,140,8|2,1:0|0:3,0:0:0:0:
424,317,20927,1,0,3:0:0:0:
498,293,21080,5,4,1:0:0:0:
498,293,21692,2,0,P|501:257|497:217,1,70,8|0,1:0|0:0,0:0:0:0:
433,183,21998,1,0,3:0:0:0:
495,70,22304,1,2,0:3:0:0:
439,15,22457,2,0,P|379:28|296:15,1,140,8|4,1:0|0:3,0:0:0:0:
225,78,22916,2,0,L|151:89,1,70,8|4,1:0|0:3,0:0:0:0:
86,57,23222,1,2,0:3:0:0:
18,166,23529,6,0,P|19:219|14:248,1,70,4|0,1:0|0:0,0:0:0:0:
80,307,23835,1,10,1:0:0:0:
200,359,24141,2,0,P|256:319|325:317,1,140,10|0,1:0|3:0,0:0:0:0:
220,193,24753,1,2,0:3:0:0:
276,137,24906,2,0,P|316:142|353:137,1,70,8|0,1:0|0:0,0:0:0:0:
400,61,25212,1,4,0:3:0:0:
475,32,25365,2,0,P|483:96|468:182,1,140,8|2,1:0|0:3,0:0:0:0:
434,240,25824,1,0,3:0:0:0:
464,309,25977,5,4,1:0:0:0:
285,384,26436,1,4,0:3:0:0:
221,338,26589,2,0,P|181:343|137:335,1,70,8|0,1:0|0:0,0:0:0:0:
85,376,26895,1,2,0:3:0:0:
18,305,27048,2,0,P|11:258|20:161,1,140,8|4,1:0|0:3,0:0:0:0:
102,116,27508,1,4,0:3:0:0:
162,170,27661,1,4,0:3:0:0:
231,140,27814,2,0,P|271:145|315:137,1,70,8|0,1:0|0:0,0:0:0:0:
365,211,28120,1,2,0:3:0:0:
334,285,28273,1,0,3:0:0:0:
363,358,28426,5,4,1:0:0:0:
363,358,29038,2,0,P|397:354|432:359,1,70,8|0,1:0|0:0,0:0:0:0:
497,317,29344,1,0,3:0:0:0:
444,199,29650,1,2,0:3:0:0:
486,133,29803,2,0,P|494:77|484:-6,1,140,8|4,1:0|0:3,0:0:0:0:
407,0,30262,1,8,1:0:0:0:
337,112,30568,2,0,P|335:150|340:184,1,70,2|0,0:3|3:0,0:0:0:0:
294,265,30874,5,4,1:0:0:0:
294,265,31487,1,8,0:0:0:0:
294,265,32099,1,2,0:3:0:0:
243,326,32252,2,0,L|163:319,1,70,8|0,1:0|0:0,0:0:0:0:
92,373,32558,1,4,0:3:0:0:
27,335,32711,1,8,0:0:0:0:
27,335,33323,6,0,P|21:286|32:175,1,140,4|2,1:0|0:3,0:0:0:0:
87,119,33782,1,0,0:0:0:0:
39,61,33935,1,0,1:0:0:0:
39,61,34547,1,2,0:3:0:0:
119,8,34700,2,0,P|186:32|255:18,1,140,8|0,1:0|0:0,0:0:0:0:
310,99,35159,2,0,P|311:168|314:178,1,70,8|0,1:0|3:0,0:0:0:0:
251,246,35465,1,2,0:3:0:0:
182,209,35619,1,0,3:0:0:0:
127,291,35772,6,0,P|58:294|1:334,1,140,4|0,1:2|0:0,0:0:0:0:
84,384,36231,1,8,1:0:0:0:
159,364,36384,2,0,P|202:368|231:363,1,70,8|0,1:0|0:0,0:0:0:0:
311,315,36690,1,2,0:3:0:0:
380,351,36843,2,0,P|423:347|452:352,1,70,8|0,1:0|0:0,0:0:0:0:
494,264,37149,1,4,0:3:0:0:
450,197,37302,1,2,0:3:0:0:
483,129,37455,1,4,0:3:0:0:
422,52,37608,2,0,P|353:48|296:8,1,140,12|0,1:0|3:0,0:0:0:0:
179,63,38220,6,0,P|181:117|176:151,1,70,6|0,1:0|3:0,0:0:0:0:
214,203,38526,1,2,0:3:0:0:
327,266,38832,2,0,P|325:320|330:354,1,70,8|0,1:0|0:0,0:0:0:0:
262,381,39138,1,2,0:3:0:0:
143,330,39444,1,2,0:3:0:0:
67,357,39598,2,0,P|69:303|64:269,1,70,8|0,1:0|0:0,0:0:0:0:
8,208,39904,1,4,0:3:0:0:
42,135,40057,2,0,P|110:146|179:132,1,140,8|2,1:0|0:3,0:0:0:0:
276,39,40669,5,4,1:0:0:0:
375,120,40975,1,2,0:3:0:0:
495,68,41281,2,0,P|493:122|498:156,1,70,8|0,1:0|0:0,0:0:0:0:
512,215,41587,1,0,3:0:0:0:
444,325,41893,1,2,0:3:0:0:
377,282,42046,2,0,P|308:297|239:283,1,140,8|4,1:0|0:3,0:0:0:0:
168,346,42505,2,0,L|95:356,1,70,8|0,1:0|0:0,0:0:0:0:
32,313,42811,1,2,0:3:0:0:
98,200,43117,5,2,1:2:0:0:
174,174,43270,1,2,3:3:0:0:
250,148,43423,1,2,0:3:0:0:
364,206,43730,2,2,L|437:216,1,70,8|0,1:0|0:0,0:1:0:0:
496,129,44036,2,0,L|426:119,1,70,2|0,1:0|0:0,0:0:0:0:
361,45,44342,1,2,0:3:0:0:
291,7,44495,2,0,P|237:9|203:4,1,70,8|0,1:0|0:0,0:0:0:0:
160,85,44801,1,4,0:3:0:0:
89,51,44954,1,8,1:0:0:0:
9,153,45260,2,0,P|11:207|6:241,1,70,2|0,0:3|3:0,0:0:0:0:
66,305,45566,6,0,P|134:302|191:263,1,140,4|0,1:0|3:0,0:0:0:0:
286,351,46178,2,0,P|344:351|373:359,1,70,8|0,1:0|0:0,0:0:0:0:
420,306,46484,1,0,3:0:0:0:
472,186,46790,1,2,0:3:0:0:
427,120,46943,2,0,P|358:117|301:78,1,140,8|4,1:0|0:3,0:0:0:0:
235,5,47402,2,0,P|177:5|148:-3,1,70,8|0,1:0|0:0,0:0:0:0:
111,60,47709,1,2,0:3:0:0:
39,27,47862,1,0,3:0:0:0:
0,118,48015,6,0,P|4:192|-3:262,1,140,6|0,1:0|3:0,0:0:0:0:
152,333,48627,2,0,P|146:263|153:193,1,140,8|0,1:0|3:0,0:0:0:0:
268,122,49239,1,2,0:3:0:0:
337,157,49392,2,0,P|337:215|329:244,1,70,8|8,1:0|1:0,0:0:0:0:
404,296,49698,1,4,0:3:0:0:
476,264,49851,2,0,P|485:193|478:43,1,210,4|0,1:2|3:0,0:0:0:0:
414,10,50463,5,4,1:0:0:0:
414,10,51075,1,8,1:0:0:0:
291,51,51381,1,0,3:0:0:0:
168,10,51688,1,2,0:3:0:0:
104,59,51841,2,0,P|106:111|100:150,1,70,8|0,1:0|0:0,0:0:0:0:
178,193,52147,1,4,0:3:0:0:
256,172,52300,2,0,P|252:261|261:327,1,140,8|2,1:0|0:3,0:0:0:0:
331,365,52759,5,0,3:0:0:0:
331,365,52835,1,0,3:0:0:0:
331,365,52912,1,4,1:0:0:0:
437,284,53218,1,2,0:3:0:0:
334,207,53524,1,4,1:0:0:0:
228,288,53830,1,0,3:0:0:0:
111,234,54136,5,2,0:3:0:0:
38,262,54289,2,0,P|26:219|34:120,1,140,8|4,1:0|0:3,0:0:0:0:
104,59,54748,2,0,P|140:66|177:59,1,70,8|0,1:0|0:0,0:0:0:0:
232,115,55054,1,2,0:3:0:0:
304,84,55207,1,0,3:0:0:0:
388,135,55360,6,0,P|386:214|394:249,2,105,4|4|4,1:0|1:2|1:2,0:0:0:0:
475,87,55973,1,8,1:2:0:0:
475,87,56049,1,8,1:2:0:0:
475,87,56126,1,8,1:2:0:0:
512,158,56279,1,8,1:0:0:0:
461,278,56585,1,2,0:3:0:0:
498,349,56738,1,8,1:0:0:0:
370,326,57044,1,4,0:3:0:0:
302,370,57197,2,2,B|189:394|213:265|112:290,1,210,4|0,1:2|0:0,0:1:0:0:
62,339,57809,5,6,1:0:0:0:
62,339,58421,1,10,1:0:0:0:
62,339,59033,1,2,0:3:0:0:
0,265,59186,2,0,P|-3:234|1:183,1,70,10|0,1:0|3:0,0:0:0:0:
79,134,59492,1,4,0:3:0:0:
146,173,59645,1,10,1:0:0:0:
187,48,59952,2,0,P|231:54|259:48,1,70,2|0,0:3|3:0,0:0:0:0:
317,129,60258,6,0,P|387:98|452:107,1,140,6|0,1:0|3:0,0:0:0:0:
370,251,60870,2,0,P|300:220|235:229,1,140,10|0,1:0|3:0,0:0:0:0:
204,299,61329,1,0,3:0:0:0:
254,360,61482,1,2,0:3:0:0:
326,333,61635,2,0,P|368:339|415:323,1,70,10|0,1:0|0:0,0:0:0:0:
454,384,61941,1,4,0:3:0:0:
512,334,62094,1,10,1:0:0:0:
512,334,62706,6,0,P|518:274|508:183,1,140,6|0,1:0|3:0,0:0:0:0:
369,112,63318,2,0,P|363:172|373:263,1,140,10|0,1:0|3:0,0:0:0:0:
326,333,63777,1,0,3:0:0:0:
249,272,63931,1,2,0:3:0:0:
181,313,64084,2,0,P|184:344|180:395,2,70,10|8|4,1:0|1:0|0:3,0:0:0:0:
110,242,64543,2,0,P|104:182|114:91,1,140,10|2,1:0|0:3,0:0:0:0:
221,29,65155,5,6,1:0:0:0:
336,85,65461,1,0,3:0:0:0:
407,53,65614,1,2,0:3:0:0:
478,21,65767,1,10,1:0:0:0:
442,148,66073,2,0,P|439:179|443:230,1,70,0|0,3:0|3:0,0:0:0:0:
497,296,66379,1,6,1:0:0:0:
395,379,66685,1,0,3:0:0:0:
324,347,66838,1,0,3:0:0:0:
253,315,66991,1,10,1:0:0:0:
138,378,67297,2,0,P|107:375|56:379,1,70,0|0,3:0|3:0,0:0:0:0:
7,299,67603,5,6,1:0:0:0:
7,299,68216,2,0,P|13:243|7:152,1,140,10|0,1:0|3:0,0:0:0:0:
127,46,68828,1,2,0:3:0:0:
188,98,68981,2,0,P|182:154|188:245,1,140,10|4,1:0|0:3,0:0:0:0:
253,315,69440,1,10,1:0:0:0:
359,235,69746,1,2,0:3:0:0:
425,280,69899,1,0,3:0:0:0:
493,243,70052,6,0,P|497:212|492:168,1,70,6|0,1:0|0:0,0:0:0:0:
412,118,70358,1,2,0:3:0:0:
339,86,70511,2,0,P|335:117|340:161,1,70,10|0,1:0|0:0,0:0:0:0:
273,230,70817,1,4,0:3:0:0:
214,282,70970,2,0,P|218:313|213:357,1,70,10|0,1:0|0:0,0:0:0:0:
121,384,71276,1,2,0:3:0:0:
16,258,71582,1,2,0:3:0:0:
42,184,71735,1,4,0:3:0:0:
68,110,71888,1,10,1:0:0:0:
188,53,72195,1,2,0:3:0:0:
294,132,72501,6,0,P|354:145|437:128,1,140,6|0,1:0|3:0,0:0:0:0:
486,252,73113,1,10,1:0:0:0:
389,342,73419,1,10,1:0:0:0:
273,277,73725,1,10,1:0:0:0:
298,147,74031,1,10,1:0:0:0:
344,82,74184,1,8,1:2:0:0:
390,17,74337,2,0,P|428:22|468:15,1,70,10|8,1:0|1:2,0:0:0:0:
512,103,74643,2,0,P|507:141|514:181,1,70,8|0,1:2|1:0,0:0:0:0:
476,270,74949,5,6,1:0:0:0:
476,270,75561,1,10,1:0:0:0:
476,270,76174,1,2,0:3:0:0:
430,336,76327,2,0,P|392:331|352:338,1,70,10|0,1:0|0:0,0:0:0:0:
273,296,76633,1,4,0:3:0:0:
205,334,76786,1,10,1:0:0:0:
124,231,77092,1,2,0:3:0:0:
6,288,77398,6,0,P|0:222|9:154,1,112,4|2,1:0|0:3,0:0:0:0:
99,83,78010,1,10,1:0:0:0:
99,83,78622,1,2,0:3:0:0:
172,55,78775,2,0,P|174:12|170:-10,2,56,8|0|4,1:0|1:0|0:3,0:0:0:0:
226,114,79234,1,8,1:0:0:0:
344,58,79540,1,2,0:3:0:0:
413,90,79693,1,0,3:0:0:0:
490,130,79846,5,4,1:0:0:0:
490,130,80459,1,8,1:0:0:0:
490,130,81071,1,2,0:3:0:0:
451,200,81224,2,0,P|454:239|451:267,1,56,8|8,1:0|1:0,0:0:0:0:
382,323,81530,1,4,0:3:0:0:
315,288,81683,1,12,1:2:0:0:
315,288,82295,6,0,P|255:291|203:338,1,112,4|0,1:0|3:0,0:0:0:0:
125,225,82907,2,0,P|65:222|13:175,1,112,8|0,1:0|3:0,0:0:0:0:
89,80,83519,1,2,0:3:0:0:
159,116,83672,2,0,P|193:121|228:110,1,56,8|0,1:0|0:0,0:0:0:0:
294,174,83978,1,4,0:3:0:0:
365,137,84132,1,8,1:0:0:0:
471,215,84438,1,2,0:3:0:0:
409,332,84744,6,0,P|375:327|340:338,1,56,4|0,1:0|0:0,0:0:0:0:
290,377,85050,1,0,0:0:0:0:
185,302,85356,1,8,1:2:0:0:
185,302,85968,1,8,1:2:0:0:
118,344,86121,1,2,1:0:0:0:
118,344,86580,1,10,1:0:0:0:
17,256,86886,1,2,1:0:0:0:
49,183,87039,1,0,3:0:0:0:
128,177,87192,6,0,P|181:187|241:175,1,112,4|0,1:0|3:0,0:0:0:0:
338,258,87804,2,0,P|391:248|451:260,1,112,8|0,1:0|3:0,0:0:0:0:
506,140,88417,1,2,0:3:0:0:
450,87,88570,2,0,P|416:92|381:81,1,56,8|0,1:0|0:0,0:0:0:0:
337,143,88876,1,4,0:3:0:0:
269,105,89029,1,8,1:0:0:0:
185,2,89335,1,2,0:3:0:0:
112,36,89488,1,0,3:0:0:0:
39,6,89641,6,0,P|31:84|40:132,1,112,4|0,1:0|3:0,0:0:0:0:
136,204,90253,2,2,L|139:234,14,28,12|0|0|0|0|0|0|0|0|0|0|0|0|0|4,1:2|0:0|3:0|0:0|3:0|0:0|3:0|0:0|3:0|0:0|3:0|0:0|3:0|0:0|0:3,0:0:0:0:
188,147,91477,1,8,1:0:0:0:
294,221,91783,1,2,0:3:0:0:
384,126,92089,1,4,1:0:0:0:
384,126,92702,1,8,1:2:0:0:
384,126,95762,5,0,1:0:0:0:
440,183,95915,1,2,1:0:0:0:
397,250,96068,1,0,0:0:0:0:
456,305,96222,5,0,1:0:0:0:
419,375,96375,1,0,1:0:0:0:
342,355,96528,1,0,1:0:0:0:
261,303,96681,6,0,P|217:309|173:300,1,84,2|0,1:0|3:0,0:0:0:0:
152,326,96987,5,4,1:0:0:0:
54,196,97293,1,2,0:3:0:0:
147,62,97599,1,10,1:0:0:0:
303,109,97905,1,2,1:0:0:0:
306,271,98211,1,2,1:0:0:0:
367,322,98364,1,8,1:0:0:0:
491,216,98670,1,4,0:3:0:0:
455,147,98823,2,0,P|452:116|455:71,1,70,10|4,1:0|0:3,0:0:0:0:
386,9,99129,1,2,1:0:0:0:
303,109,99435,5,4,1:0:0:0:
269,182,99588,1,0,1:0:0:0:
235,255,99741,2,0,P|238:286|235:331,1,70,2|0,1:0|1:0,0:0:0:0:
143,370,100047,2,0,P|140:339|143:294,1,70,10|0,1:0|1:0,0:0:0:0:
45,307,100354,2,0,P|48:276|45:231,1,70,2|0,1:0|1:0,0:0:0:0:
0,150,100660,1,4,1:0:0:0:
35,80,100813,1,10,1:0:0:0:
159,126,101119,1,4,0:3:0:0:
208,64,101272,2,0,P|287:76|364:58,1,140,10|2,1:0|1:0,0:0:0:0:
479,156,101884,6,0,P|453:238|450:301,1,140,4|2,1:0|0:3,0:0:0:0:
365,342,102343,1,0,0:0:0:0:
293,374,102496,1,10,1:0:0:0:
180,300,102802,1,2,0:3:0:0:
64,360,103108,1,2,3:0:0:0:
2,309,103261,2,0,P|-4:256|8:158,1,140,10|4,1:0|0:3,0:0:0:0:
68,94,103720,1,10,1:0:0:0:
144,72,103873,1,0,1:0:0:0:
220,50,104026,1,4,1:3:0:0:
180,181,104333,6,0,P|261:183|317:210,1,140,4|2,1:0|1:0,0:0:0:0:
372,154,104792,1,0,3:0:0:0:
439,223,104945,2,0,P|445:276|433:374,1,140,10|2,1:0|1:0,0:0:0:0:
316,305,105557,1,2,0:3:0:0:
239,329,105710,2,0,P|235:292|240:258,1,70,10|0,1:0|0:0,0:0:0:0:
180,181,106016,1,4,0:3:0:0:
116,226,106169,1,10,1:0:0:0:
56,346,106475,1,10,1:0:0:0:
0,192,106781,5,4,1:0:0:0:
30,65,107087,1,10,1:0:0:0:
160,54,107393,1,10,1:0:0:0:
225,96,107546,2,0,P|263:100|302:94,2,70,4|0|4,0:3|1:0|0:3,0:0:0:0:
180,181,108005,2,0,P|174:234|186:332,1,140,2|0,1:0|1:0,0:0:0:0:
266,375,108465,1,2,1:0:0:0:
334,333,108618,2,0,P|372:337|411:331,1,70,10|0,1:0|1:0,0:0:0:0:
490,384,108924,1,2,1:0:0:0:
512,223,109230,6,0,P|519:132|505:3,1,210,4|4,1:0|0:3,0:0:0:0:
404,51,109842,2,2,P|397:142|411:271,1,210,12|0,1:2|1:0,0:1:0:0:
334,333,110454,1,2,1:0:0:0:
271,288,110607,2,0,P|236:292|201:287,1,70,10|0,1:0|0:0,0:0:0:0:
134,359,110913,1,0,1:0:0:0:
134,359,110990,1,0,1:0:0:0:
134,359,111066,2,0,P|70:319|-7:323,1,140,10|2,1:0|1:0,0:0:0:0:
37,224,111525,5,0,1:0:0:0:
37,224,111602,1,0,1:0:0:0:
37,224,111678,1,4,1:0:0:0:
182,44,112137,1,0,1:0:0:0:
182,44,112214,1,0,1:0:0:0:
182,44,112290,2,0,P|227:49|262:39,1,70,10|0,1:0|1:0,0:0:0:0:
311,118,112597,2,0,P|356:113|391:123,1,70,2|0,1:0|1:0,0:0:0:0:
458,61,112903,1,0,3:0:0:0:
512,121,113056,2,2,P|518:171|505:266,1,140,12|0,1:2|3:0,0:1:0:0:
423,316,113515,1,10,1:0:0:0:
341,262,113668,1,0,1:0:0:0:
270,300,113821,2,0,P|236:294|187:301,1,70,2|0,1:0|0:0,0:0:0:0:
127,361,114127,5,4,1:0:0:0:
15,242,114433,1,2,1:0:0:0:
93,99,114739,1,10,1:0:0:0:
253,128,115045,1,2,1:0:0:0:
376,23,115351,1,2,1:0:0:0:
450,53,115504,1,8,1:0:0:0:
484,182,115810,1,4,0:3:0:0:
410,212,115963,1,10,1:0:0:0:
336,242,116116,1,12,1:2:0:0:
262,272,116269,2,0,L|254:349,1,70,10|12,1:0|1:2,0:0:0:0:
166,384,116576,6,0,L|157:228,1,140,4|2,1:0|1:0,0:0:0:0:
0,282,117188,2,0,L|9:126,1,140,10|2,1:0|0:3,0:0:0:0:
78,71,117647,1,4,0:3:0:0:
173,117,117800,2,0,L|165:47,1,70,2|8,0:3|1:0,0:0:0:0:
266,13,118106,2,0,L|258:82,1,70,2|0,1:0|1:0,0:0:0:0:
325,156,118412,1,2,1:0:0:0:
397,121,118565,1,0,1:0:0:0:
452,178,118718,1,2,1:0:0:0:
414,248,118871,1,0,1:0:0:0:
331,302,119024,6,0,P|334:352|330:378,2,70,4|0|0,1:0|1:0|1:0,0:0:0:0:
283,238,119483,1,0,1:0:0:0:
198,290,119636,2,0,P|185:233|192:148,1,140,10|2,1:0|1:0,0:0:0:0:
283,56,120248,1,0,1:0:0:0:
351,97,120401,2,0,P|405:95|479:45,1,140,2|0,1:0|1:0,0:0:0:0:
512,143,120861,1,2,1:0:0:0:
462,206,121014,2,0,P|472:267|463:350,1,140,2|0,1:0|3:0,0:0:0:0:
372,382,121473,5,4,1:0:0:0:
298,350,121626,1,0,0:0:0:0:
224,318,121779,2,0,L|149:331,1,70,2|0,1:0|1:0,0:0:0:0:
64,373,122085,2,2,P|54:312|63:229,1,140,8|2,1:2|0:3,0:0:0:0:
146,188,122544,1,4,0:3:0:0:
232,232,122697,1,0,1:0:0:0:
307,210,122850,2,0,P|317:149|308:66,1,140,10|4,1:0|0:3,0:0:0:0:
230,23,123309,2,0,L|155:36,1,70,10|0,1:0|1:0,0:0:0:0:
117,100,123615,1,2,1:0:0:0:
212,232,123921,5,4,1:0:0:0:
265,293,124074,1,0,1:0:0:0:
339,261,124227,1,2,1:0:0:0:
331,181,124380,1,8,1:0:0:0:
253,163,124533,1,10,1:0:0:0:
174,308,124840,1,2,1:0:0:0:
327,363,125146,1,4,0:3:0:0:
396,321,125299,1,2,1:0:0:0:
459,171,125605,1,4,0:3:0:0:
398,122,125758,2,2,B|293:142|311:13|201:36,1,210,2|0,1:0|0:0,0:1:0:0:
141,91,126370,6,0,L|132:170,1,70,4|0,1:0|1:0,0:0:0:0:
59,223,126676,2,0,L|68:302,1,70,2|0,1:0|1:0,0:0:0:0:
123,375,126982,1,10,1:0:0:0:
265,293,127288,1,2,1:0:0:0:
334,334,127441,1,0,1:0:0:0:
399,288,127594,1,2,0:3:0:0:
472,313,127747,2,0,P|486:258|476:170,1,140,10|4,1:0|0:3,0:0:0:0:
393,129,128206,1,10,1:0:0:0:
330,177,128359,1,0,1:0:0:0:
259,146,128512,2,0,P|254:106|262:62,1,70,10|0,1:0|1:0,0:0:0:0:
178,17,128819,5,4,1:0:0:0:
42,107,129125,1,2,1:0:0:0:
85,264,129431,1,10,1:0:0:0:
247,271,129737,1,2,1:3:0:0:
303,119,130043,1,4,0:3:0:0:
356,59,130196,2,0,P|395:66|439:55,1,70,2|0,1:0|0:0,0:0:0:0:
493,132,130502,1,0,1:0:0:0:
450,200,130655,1,10,1:0:0:0:
407,268,130808,1,0,1:0:0:0:
436,366,130961,2,0,P|397:359|353:370,1,70,2|0,1:0|1:0,0:0:0:0:
291,300,131267,6,0,P|222:341|153:325,1,140,4|0,1:0|1:0,0:0:0:0:
79,193,131879,1,10,1:0:0:0:
127,129,132032,1,8,1:0:0:0:
201,155,132185,1,2,1:0:0:0:
279,45,132491,1,8,1:2:0:0:
347,86,132644,2,0,P|382:91|421:84,1,70,10|0,1:0|0:0,0:0:0:0:
489,149,132951,1,4,0:3:0:0:
446,216,133104,1,8,1:0:0:0:
495,278,133257,1,0,1:0:0:0:
454,345,133410,1,2,1:0:0:0:
340,277,133716,6,0,P|274:292|194:277,1,140,4|2,1:0|1:0,0:0:0:0:
95,208,134328,1,10,1:0:0:0:
138,141,134481,1,2,1:0:0:0:
89,79,134634,1,0,1:0:0:0:
130,12,134787,1,0,1:0:0:0:
215,60,134940,1,0,1:0:0:0:
284,20,135093,2,0,P|323:27|354:22,1,70,2|0,1:0|0:0,0:0:0:0:
414,96,135399,1,0,1:0:0:0:
370,161,135552,2,2,P|331:154|300:159,1,70,2|0,1:0|3:0,0:1:0:0:
249,242,135858,1,0,1:0:0:0:
287,313,136011,1,0,1:0:0:0:
250,381,136164,5,6,1:0:0:0:
256,192,136241,12,2,143434,0:0:0:0:
