osu file format v14

[General]
AudioFilename: audio.ogg
AudioLeadIn: 0
PreviewTime: 57779
Countdown: 0
SampleSet: Soft
StackLeniency: 0.4
Mode: 0
LetterboxInBreaks: 0
WidescreenStoryboard: 1

[Editor]
DistanceSpacing: 1.05
BeatDivisor: 16
GridSize: 32
TimelineZoom: 2.619999

[Metadata]
Title:Session
TitleUnicode:Session
Artist:Linkin Park
ArtistUnicode:Linkin Park
Creator:Ruiz Duchamp
Version:384's Insane
Source:
Tags:pw384 senseabel mirash pandahero semaphore evilelvis natteke_desu jounzan alternative rock instrumental meteora
BeatmapID:4267650
BeatmapSetID:2044718

[Difficulty]
HPDrainRate:6
CircleSize:4
OverallDifficulty:8
ApproachRate:9
SliderMultiplier:3.2
SliderTickRate:1

[Events]
//Background and Video events
0,0,"temporarybg.jpg",0,0
//Break Periods
//Storyboard Layer 0 (Background)
//Storyboard Layer 1 (Fail)
//Storyboard Layer 2 (Pass)
//Storyboard Layer 3 (Foreground)
//Storyboard Layer 4 (Overlay)
//Storyboard Sound Samples

[TimingPoints]
-957,612.151201346733,4,2,0,70,1,0
-957,-100,4,2,0,70,0,0
31487,-100,4,2,0,60,0,0
31793,-100,4,2,0,60,0,0
32711,-100,4,2,0,60,0,0
33323,-100,4,2,0,70,0,0
33935,-150,4,2,0,55,0,0
34241,-100,4,2,0,55,0,0
34547,-100,4,2,0,60,0,0
35772,-100,4,2,0,70,0,0
38220,-100,4,2,0,70,0,0
44801,-100,4,2,0,70,0,0
49851,-100,4,2,0,60,0,0
50463,-100,4,2,0,70,0,0
57197,-111.111111111111,4,2,0,70,0,0
57809,-133.333333333333,4,2,0,75,0,0
58421,-133.333333333333,4,2,0,75,0,0
59033,-133.333333333333,4,2,0,75,0,0
59645,-100,4,2,0,75,0,0
60258,-133.333333333333,4,2,0,75,0,0
73113,-83.3333333333333,4,2,0,75,0,0
74949,-133.333333333333,4,2,0,75,0,0
77398,-166.666666666667,4,2,0,60,0,0
84744,-166.666666666667,4,2,0,50,0,0
85968,-100,4,2,0,55,0,0
87192,-133.333333333333,4,2,0,55,0,0
91477,-100,4,2,0,55,0,0
92089,-133.333333333333,4,2,0,55,0,0
92702,-100,4,2,0,45,0,0
93237,-100,4,2,0,5,0,0
93314,-100,4,2,0,35,0,0
93467,-100,4,2,0,25,0,0
95762,-83.3333333333333,4,2,0,55,0,0
96987,-100,4,2,0,75,0,0
97599,-100,4,2,0,75,0,0
101578,-100,4,2,0,75,0,0
102496,-83.3333333333333,4,2,0,75,0,0
103108,-100,4,2,0,75,0,0
104026,-83.3333333333333,4,2,0,75,0,0
104333,-100,4,2,0,75,0,0
107087,-83.3333333333333,4,2,0,75,0,0
107699,-100,4,2,0,75,0,0
108618,-83.3333333333333,4,2,0,75,0,0
109230,-100,4,2,0,75,0,0
109842,-100,4,2,0,75,0,0
111372,-83.3333333333333,4,2,0,75,0,0
111678,-100,4,2,0,75,0,0
113056,-111.111111111111,4,2,0,75,0,0
113515,-100,4,2,0,75,0,0
115351,-83.3333333333333,4,2,0,75,0,0
115963,-100,4,2,0,75,0,0
116576,-100,4,2,0,80,0,0
117188,-83.3333333333333,4,2,0,80,0,0
117494,-100,4,2,0,80,0,0
122085,-83.3333333333333,4,2,0,80,0,0
122391,-100,4,2,0,80,0,0
125758,-58.8235294117647,4,2,0,80,0,0
126370,-100,4,2,0,80,0,0
127747,-83.3333333333333,4,2,0,80,0,0
128206,-100,4,2,0,80,0,0
129431,-83.3333333333333,4,2,0,80,0,0
130043,-100,4,2,0,80,0,0
135093,-83.3333333333333,4,2,0,80,0,0
136164,-1000,4,2,0,70,0,0
136203,-1000,4,2,0,50,0,0

[Colours]
Combo1 : 137,173,140
Combo2 : 75,112,79

[HitObjects]
183,143,17560,6,0,B|177:183|176:231,1,80,4|0,1:0|3:0,0:0:0:0:
196,299,17866,1,0,0:0:0:0:
37,286,18019,2,0,B|112:289|210:301,1,160,4|0,1:2|3:0,0:0:0:0:
262,345,18478,1,2,0:3:0:0:
442,272,18631,5,4,1:0:0:0:
478,201,18937,1,2,0:3:0:0:
421,144,19243,1,8,1:2:0:0:
350,180,19550,1,2,0:3:0:0:
362,259,19856,5,2,0:3:0:0:
380,49,20009,1,8,1:2:0:0:
272,231,20162,6,0,B|271:192|262:150,1,80,0|0,0:0|1:0,0:0:0:0:
198,102,20468,2,0,B|154:112|39:126,1,160,4|0,1:2|3:0,0:0:0:0:
2,55,20927,1,2,0:3:0:0:
70,272,21080,5,4,1:0:0:0:
34,201,21386,1,2,0:3:0:0:
91,144,21692,1,8,1:2:0:0:
162,180,21998,1,2,0:3:0:0:
150,259,22304,5,0,1:0:0:0:
132,49,22457,1,8,1:2:0:0:
240,231,22610,6,0,B|240:192|249:150,1,80,0|0,0:0|1:0,0:0:0:0:
314,102,22916,2,0,B|358:112|473:126,1,160,8|0,1:2|3:0,0:0:0:0:
510,55,23376,1,2,0:3:0:0:
406,17,23529,6,0,B|397:57|396:96,1,80,4|0,1:0|0:0,0:0:0:0:
432,342,23835,2,0,B|426:282|419:223,1,80,8|0,1:2|0:0,0:0:0:0:
419,223,24141,2,0,B|375:213|260:199,1,160,8|2,1:2|0:3,0:0:0:0:
260,199,24753,5,0,1:0:0:0:
82,231,24906,1,8,1:2:0:0:
225,343,25059,2,0,B|212:306|211:260,1,80,0|0,0:0|1:0,0:0:0:0:
283,23,25365,2,0,B|364:66|334:160,1,160,8|0,1:2|3:0,0:0:0:0:
260,199,25824,1,2,0:3:0:0:
139,122,25977,6,0,B|181:123|222:117,2,80,4|0|2,1:0|3:0|0:3,0:0:0:0:
66,88,26436,1,0,1:0:0:0:
14,220,26589,2,0,B|110:195|157:271,1,160,8|2,1:2|0:3,0:0:0:0:
182,342,27048,1,8,1:2:0:0:
182,342,27354,5,0,1:0:0:0:
261,332,27508,1,0,1:0:0:0:
340,322,27661,1,0,1:0:0:0:
501,354,27814,1,8,1:2:0:0:
501,354,28120,2,0,B|497:308|497:262,1,80,0|2,3:0|0:3,0:0:0:0:
453,79,28426,5,4,1:0:0:0:
465,158,28732,1,2,0:3:0:0:
386,170,29038,1,8,1:2:0:0:
374,91,29344,1,0,3:0:0:0:
453,79,29650,5,0,1:0:0:0:
394,289,29803,1,8,1:2:0:0:
233,259,29956,2,0,B|279:255|325:255,1,80,0|0,0:0|1:0,0:0:0:0:
453,79,30262,2,0,B|462:163|465:238,1,160,8|0,1:2|3:0,0:0:0:0:
394,289,30721,1,2,0:3:0:0:
453,79,30874,5,4,1:2:0:0:
453,79,31487,2,0,B|462:163|465:238,1,160,0|0,1:0|3:0,0:0:0:0:
453,79,32099,5,2,0:3:0:0:
394,289,32252,1,8,1:2:0:0:
233,259,32405,2,0,B|279:255|325:255,1,80,0|0,3:0|1:0,0:0:0:0:
453,79,32711,6,0,B|462:163|465:238,1,160,4|2,1:2|0:3,0:0:0:0:
394,289,33170,1,0,1:0:0:0:
233,259,33323,6,0,B|279:255|325:255,1,80,4|0,1:0|0:0,0:0:0:0:
394,289,33629,1,2,0:3:0:0:
465,238,33935,6,0,B|462:163|453:79,1,160,2|0,0:3|0:0,0:0:0:0:
453,79,34547,5,4,1:2:0:0:
394,289,34700,1,8,1:2:0:0:
233,259,34853,2,0,B|279:255|325:255,1,80,0|0,3:0|1:0,0:0:0:0:
453,79,35159,2,0,B|462:163|465:238,1,160,8|0,1:2|3:0,0:0:0:0:
394,289,35619,1,2,0:3:0:0:
277,168,35772,6,0,B|202:171|118:180,1,160,4|0,1:0|3:0,0:0:0:0:
45,214,36231,1,10,1:2:0:0:
146,99,36384,2,0,B|229:145|185:239,1,160,10|2,1:2|0:3,0:0:0:0:
110,260,36843,6,0,B|194:251|269:248,1,160,8|0,1:2|1:0,0:0:0:0:
343,278,37302,1,2,0:3:0:0:
343,278,37455,1,0,1:0:0:0:
481,136,37608,6,0,B|442:96|368:111|353:173,2,160,6|2|4,1:2|1:3|1:0,0:0:0:0:
419,350,38526,6,0,B|420:266|427:185,2,160,2|8|2,0:3|1:2|0:3,0:0:0:0:
419,350,39444,1,0,3:0:0:0:
335,223,39598,2,0,B|334:178|330:137,2,80,8|0|0,1:2|3:0|1:0,0:0:0:0:
283,287,40057,2,0,B|206:278|112:276,1,160,8|2,1:2|0:3,0:0:0:0:
43,289,40516,1,0,3:0:0:0:
93,350,40669,1,4,1:2:0:0:
93,350,40975,6,0,B|92:266|85:185,2,160,2|8|2,0:3|1:2|0:3,0:0:0:0:
93,350,41893,1,2,0:3:0:0:
177,223,42046,2,0,B|178:178|182:137,2,80,8|0|0,1:2|3:0|1:0,0:0:0:0:
229,287,42505,2,0,B|306:278|400:276,1,160,8|2,1:2|0:3,0:0:0:0:
469,289,42964,1,0,3:0:0:0:
419,350,43117,5,0,1:0:0:0:
423,354,43270,1,0,1:0:0:0:
427,358,43423,1,0,3:0:0:0:
431,362,43576,1,0,3:0:0:0:
442,201,43730,6,0,L|444:173,6,20,0|0|0|0|0|0|0,3:0|3:0|3:0|3:0|3:0|3:0|3:0,3:3:0:0:
459,165,44036,2,0,L|457:137,6,20,0|0|0|0|0|0|0,3:0|3:0|3:0|3:0|3:0|3:0|3:0,3:3:0:0:
449,125,44342,5,0,1:0:0:0:
326,286,44495,2,0,B|367:282|408:280,1,80,8|0,1:2|0:0,0:0:0:0:
484,284,44801,1,0,1:0:0:0:
449,125,44954,6,0,B|408:129|367:131,1,80,8|0,1:2|0:0,0:0:0:0:
291,127,45260,1,2,0:3:0:0:
291,127,45413,1,0,3:0:0:0:
191,218,45566,5,4,1:0:0:0:
191,218,45872,2,0,B|273:210|355:206,2,160,2|8|2,0:3|1:2|0:3,0:0:0:0:
191,218,46790,5,4,1:2:0:0:
142,154,46943,1,8,1:2:0:0:
143,283,47096,2,0,B|128:324|127:388,1,80,0|0,0:0|1:0,0:0:0:0:
142,154,47402,2,0,B|57:111|5:193,1,160,8|2,1:2|0:3,0:0:0:0:
25,270,47862,1,0,3:0:0:0:
11,348,48015,5,4,1:0:0:0:
11,348,48321,2,0,B|86:348|181:363,2,160,2|8|2,0:3|1:2|0:3,0:0:0:0:
206,292,49239,6,0,B|248:285|285:285,1,80,2|8,0:3|1:2,0:0:0:0:
352,332,49545,1,0,3:0:0:0:
206,292,49698,1,0,1:0:0:0:
352,332,49851,6,0,B|427:332|522:347,2,160,4|2|4,1:2|3:3|1:0,0:0:0:0:
159,241,50769,6,0,B|159:166|174:71,2,160,2|8|2,0:3|1:2|0:3,0:0:0:0:
159,241,51688,5,2,0:3:0:0:
118,25,51841,1,8,1:2:0:0:
9,153,51994,2,0,B|54:149|92:165,1,80,0|0,3:0|1:0,0:0:0:0:
244,224,52300,2,0,L|407:219,1,160,8|2,1:2|0:3,0:0:0:0:
469,265,52759,6,0,L|473:292,4,20,0|0|0|0|4,3:0|3:0|3:0|3:0|1:0,3:3:0:0:
469,265,53218,2,0,B|460:306|458:351,1,80,2|0,0:3|0:0,0:0:0:0:
393,139,53524,1,4,1:0:0:0:
393,139,53830,2,0,B|402:180|404:225,1,80,2|0,0:3|0:0,0:0:0:0:
366,289,54136,5,2,0:3:0:0:
208,366,54289,2,0,B|164:287|225:212,1,160,8|0,1:2|1:0,0:0:0:0:
291,177,54748,2,0,L|285:14,1,160,8|2,1:2|0:3,0:0:0:0:
212,51,55207,1,0,3:0:0:0:
360,80,55360,6,0,B|427:83|489:90,2,120,4|0|0,1:2|1:0|1:0,0:0:0:0:
140,102,55973,1,0,3:0:0:0:
140,102,56049,1,0,3:0:0:0:
140,102,56126,1,0,3:0:0:0:
140,102,56202,1,0,3:0:0:0:
140,102,56279,2,0,B|146:146|147:183,1,80,8|0,1:2|3:0,3:3:0:0:
88,296,56585,5,2,0:3:0:0:
76,217,56738,1,8,1:2:0:0:
147,181,56891,1,0,1:0:0:0:
204,238,57044,1,0,1:0:0:0:
167,309,57197,6,0,B|174:313|174:313|183:310|183:310|191:311|191:311|199:316|199:316|206:313|206:313|214:314|214:314|221:319|221:319|229:316|229:316|238:316|238:316|246:321|246:321|254:318|254:318|262:319|262:319|269:324|269:324|278:320|278:320|286:321|286:321|293:326|293:326|302:323|302:323|310:324|310:324|317:328|317:328|326:325|326:325|334:326|334:326|341:331|341:331|349:328|349:328|357:329|357:329|365:333,1,215.999993408203,4|0,1:2|0:0,3:3:0:0:
499,353,57809,5,4,1:0:0:0:
373,224,58421,1,8,1:2:0:0:
499,353,59033,5,0,1:0:0:0:
373,224,59186,1,8,1:2:0:0:
437,56,59339,2,0,B|440:94|440:142,1,60.0000022888184,0|0,0:0|1:0,0:0:0:0:
373,224,59645,2,0,B|295:268|216:213,1,160,8|2,1:2|0:0,0:0:0:0:
174,152,60105,1,0,1:0:0:0:
18,178,60258,5,4,1:0:0:0:
174,152,60870,1,8,1:2:0:0:
18,178,61482,5,0,1:0:0:0:
174,152,61635,1,8,1:2:0:0:
82,35,61788,2,0,B|78:70|75:115,1,60.0000022888184,0|0,0:0|1:0,0:0:0:0:
54,350,62094,2,0,B|103:306|74:239,1,120.000004577637,4|2,1:2|0:0,0:0:0:0:
18,178,62553,1,0,0:0:0:0:
0,283,62706,5,4,1:0:0:0:
0,283,63012,1,2,0:0:0:0:
215,226,63318,1,8,1:2:0:0:
215,226,63624,1,2,0:0:0:0:
0,283,63931,5,0,1:0:0:0:
215,226,64084,1,8,1:2:0:0:
148,113,64237,2,0,B|144:148|141:193,1,60.0000022888184,0|0,0:0|1:0,0:0:0:0:
249,313,64543,2,0,B|312:307|385:306,1,120.000004577637,2|2,1:2|0:0,0:0:0:0:
455,331,65002,1,2,0:3:0:0:
368,307,65155,6,0,B|366:273|366:243,1,60.0000022888184,4|0,1:0|0:0,0:0:0:0:
444,174,65461,1,2,0:0:0:0:
368,234,65614,1,0,0:0:0:0:
444,174,65767,2,0,B|443:148|445:114,1,60.0000022888184,8|0,1:2|0:0,0:0:0:0:
501,43,66073,1,2,0:0:0:0:
371,70,66226,1,0,0:0:0:0:
499,234,66379,6,0,B|409:192|317:212,1,180.000006866455,0|0,1:0|1:0,0:0:0:0:
68,289,66991,1,8,1:2:0:0:
68,289,67297,1,2,0:3:0:0:
185,313,67450,1,0,3:0:0:0:
68,289,67603,6,0,B|67:228|55:165,1,120.000004577637,4|2,1:0|0:0,0:0:0:0:
223,43,68216,2,0,B|212:101|211:162,1,120.000004577637,8|2,1:2|0:0,0:0:0:0:
211,162,68828,5,0,1:0:0:0:
292,121,68981,1,8,1:2:0:0:
133,84,69134,2,0,B|95:86|59:89,1,60.0000022888184,0|0,1:0|1:0,0:0:0:0:
41,267,69440,2,0,B|103:254|164:280,1,120.000004577637,8|2,1:2|0:0,0:0:0:0:
230,333,69899,1,2,0:3:0:0:
444,289,70052,6,0,B|445:228|457:165,1,120.000004577637,4|2,1:0|0:0,0:0:0:0:
302,162,70511,2,0,B|301:101|289:43,1,120.000004577637,8|0,1:2|1:0,0:0:0:0:
223,140,70970,1,8,1:2:0:0:
201,220,71123,1,0,0:0:0:0:
281,242,71276,5,0,3:0:0:0:
379,84,71429,1,2,0:3:0:0:
465,180,71582,2,0,B|443:178|405:176,1,60.0000022888184,0|0,1:0|1:0,0:0:0:0:
281,242,71888,2,0,B|257:297|270:359,1,120.000004577637,4|2,1:2|0:0,0:0:0:0:
355,327,72348,1,0,3:0:0:0:
439,294,72501,6,0,L|516:291,2,60.0000022888184,4|0|2,1:0|0:0|0:0,0:0:0:0:
41,353,73113,6,0,B|38:275|30:162,6,191.999994140625,8|8|4|2|4|2|4,1:2|1:2|1:2|1:2|1:2|1:2|1:0,0:0:0:0:
41,353,75255,1,2,3:2:0:0:
21,83,75561,5,4,1:2:0:0:
21,83,75867,1,2,0:0:0:0:
41,353,76174,5,0,1:0:0:0:
118,307,76327,1,8,1:2:0:0:
147,133,76480,2,0,B|145:164|141:208,1,60.0000022888184,0|0,1:0|1:0,0:0:0:0:
203,335,76786,2,0,B|265:337|349:343,2,120.000004577637,8|2|4,1:2|0:0|1:2,0:0:0:0:
118,307,77551,5,0,3:0:0:0:
118,307,77704,1,0,3:0:0:0:
373,190,78010,2,0,B|378:239|383:291,1,95.9999970703126,0|0,1:0|0:0,0:0:0:0:
382,285,78622,5,0,3:0:0:0:
485,136,78775,1,8,1:2:0:0:
460,258,78928,2,0,B|461:224|464:203,1,47.9999985351563,0|0,3:0|0:0,0:0:0:0:
420,18,79234,2,0,B|415:67|410:113,1,95.9999970703126,0|0,1:0|3:0,0:0:0:0:
410,113,79693,1,2,0:3:0:0:
258,218,79846,5,4,1:0:0:0:
258,218,80153,2,0,B|283:217|316:214,1,47.9999985351563
189,176,80459,2,0,B|166:173|141:172,1,47.9999985351563,8|0,1:2|0:0,0:0:0:0:
70,206,80765,1,2,0:3:0:0:
70,206,81071,5,2,0:3:0:0:
178,82,81224,1,8,1:2:0:0:
98,5,81377,2,0,B|99:46|100:68,1,47.9999985351563,0|0,1:0|1:0,0:0:0:0:
70,206,81683,2,0,B|66:253|64:310,1,95.9999970703126,8|0,1:2|0:0,0:0:0:0:
64,301,82142,1,2,3:2:0:0:
23,138,82295,5,4,1:2:0:0:
23,138,82907,1,8,1:2:0:0:
162,173,83213,1,2,0:0:0:0:
23,138,83519,5,2,0:3:0:0:
162,173,83672,1,8,1:2:0:0:
162,173,83978,5,0,1:0:0:0:
23,138,84132,1,8,1:2:0:0:
23,138,84438,5,0,3:0:0:0:
162,173,84591,1,2,0:3:0:0:
104,0,84744,6,0,B|101:65|97:144,1,143.999995605469,4|0,1:2|0:0,0:0:0:0:
120,301,85356,1,0,1:0:0:0:
120,301,85968,6,0,B|154:276|197:283,1,80,0|2,1:0|0:0,0:0:0:0:
334,362,86274,2,0,B|293:369|259:344,1,80,0|2,3:0|0:0,0:0:0:0:
208,290,86580,2,0,B|264:360|347:353,1,160,8|2,1:2|0:0,0:0:0:0:
420,321,87039,1,2,0:0:0:0:
401,240,87192,6,0,B|401:197|403:176,1,60.0000022888184,4|0,1:2|0:0,0:0:0:0:
328,68,87498,2,0,B|329:84|329:127,1,60.0000022888184,2|0,0:3|0:0,0:0:0:0:
269,177,87804,2,0,B|331:175|413:171,2,120.000004577637,8|2|0,1:2|0:0|1:0,0:0:0:0:
108,232,88570,5,8,1:2:0:0:
108,232,88876,1,0,1:0:0:0:
140,65,89029,1,8,1:2:0:0:
140,65,89335,1,0,3:0:0:0:
269,177,89488,1,2,0:3:0:0:
108,232,89641,6,0,B|75:236|35:242,1,60.0000022888184,4|0,1:2|0:0,0:0:0:0:
0,145,89947,2,0,B|33:149|73:155,1,60.0000022888184,2|0,0:3|0:0,0:0:0:0:
136,313,90253,2,0,B|86:319|46:324,1,90.0000034332277,8|0,1:2|0:0,0:0:0:0:
22,342,90559,6,0,L|20:366,16,15.0000005722046,0|0|0|0|0|0|0|0|0|0|0|0|0|0|0|0|0,3:0|3:0|3:0|3:0|3:0|3:0|3:0|3:0|3:0|3:0|3:0|3:0|3:0|3:0|3:0|3:0|3:0,3:3:0:0:
32,249,91324,5,0,1:0:0:0:
11,46,91477,2,0,B|8:83|7:129,1,80,8|0,1:2|0:0,0:0:0:0:
112,223,91783,2,0,B|149:220|195:219,1,80,2|0,0:0|1:0,0:0:0:0:
263,255,92089,6,0,L|505:267,1,240.000009155274,0|0,1:0|1:0,0:0:0:0:
256,192,92855,12,0,95457,0:0:0:0:
137,116,95762,5,0,1:0:0:0:
230,95,95915,1,8,0:0:0:0:
137,116,96068,5,0,1:0:0:0:
72,45,96222,1,8,0:0:0:0:
137,116,96375,5,2,0:0:0:0:
165,24,96528,1,2,0:0:0:0:
137,116,96681,6,0,L|142:262,1,143.999995605469,2|0,0:0|3:0,3:3:0:0:
130,270,96987,6,0,B|165:302|221:286,1,80,4|2,1:0|0:3,0:0:0:0:
289,72,97293,2,0,B|257:107|273:163,1,80,8|0,0:0|1:0,0:0:0:0:
340,210,97599,2,0,B|417:202|500:202,2,160,8|2|4,1:0|0:0|1:2,0:0:0:0:
213,94,98364,5,8,1:0:0:0:
137,116,98517,1,0,1:0:0:0:
137,116,98670,1,0,1:0:0:0:
289,72,98823,6,0,B|332:71|385:74,1,80,8|2,1:0|0:3,0:0:0:0:
509,23,99129,2,0,B|508:66|511:119,1,80,2|2,0:3|0:0,0:0:0:0:
419,292,99435,5,4,1:0:0:0:
398,289,99588,1,2,0:0:0:0:
324,326,99741,5,2,0:0:0:0:
303,329,99894,1,0,1:0:0:0:
229,292,100047,5,8,1:0:0:0:
134,326,100200,1,2,0:0:0:0:
208,289,100354,5,2,0:0:0:0:
113,329,100507,1,0,1:0:0:0:
18,289,100660,5,2,0:3:0:0:
133,63,100813,2,0,L|126:230,1,160,8|0,1:0|1:0,0:0:0:0:
230,189,101272,2,0,B|252:154|236:112,1,80,4|0,1:2|0:0,0:0:0:0:
24,146,101578,2,2,L|29:271,1,120,4|0,1:2|2:0,0:0:0:0:
18,289,101884,6,0,B|61:294|102:306,1,80,4|0,1:0|1:0,0:0:0:0:
226,369,102190,2,0,B|261:358|304:353,1,80,8|0,0:0|1:0,0:0:0:0:
480,298,102496,2,0,B|424:312|370:277|356:225|391:166,2,191.999994140625,8|2|0,1:0|0:0|1:0,0:0:0:0:
291,247,103261,6,0,B|291:203|283:157,1,80,8|0,1:0|0:0,0:0:0:0:
452,221,103567,1,0,1:0:0:0:
441,38,103720,2,0,B|434:73|434:117,1,80,8|2,1:0|0:0,0:0:0:0:
452,221,104026,2,0,B|375:207|298:240,1,143.999995605469,0|0,1:0|0:0,0:0:0:0:
291,247,104333,6,0,L|211:251,1,80,0|0,1:0|3:0,0:0:0:0:
141,104,104639,1,2,0:0:0:0:
118,339,104792,2,0,P|118:319|120:300,1,40,0|2,3:0|3:0,0:0:0:0:
108,281,104945,6,0,B|72:270|29:265,1,80,8|0,1:0|3:0,0:0:0:0:
9,163,105251,2,0,B|44:173|87:178,1,80,2|0,0:0|3:0,0:0:0:0:
346,116,105557,5,4,1:2:0:0:
141,104,105710,2,0,B|202:99|262:82,1,120,8|0,1:0|0:0,0:0:0:0:
276,70,106016,1,0,1:0:0:0:
426,87,106169,5,8,1:0:0:0:
280,163,106322,1,2,0:0:0:0:
430,180,106475,1,8,1:2:0:0:
284,256,106628,1,2,0:0:0:0:
431,371,106781,6,0,B|411:332|426:284,1,80,4|0,1:0|0:0,0:0:0:0:
506,122,107087,2,0,B|544:193|498:260,1,143.999995605469,8|0,1:0|0:0,0:0:0:0:
499,257,107393,2,0,L|351:265,1,143.999995605469,8|0,1:0|0:0,0:0:0:0:
355,264,107699,1,2,0:0:0:0:
286,352,107852,1,0,1:0:0:0:
288,126,108005,6,0,B|295:165|295:211,1,80,4|0,1:2|1:0,0:0:0:0:
200,177,108311,1,0,3:0:0:0:
200,177,108388,1,2,3:0:0:0:
200,177,108465,1,0,3:0:0:0:
50,263,108618,6,0,B|102:254|144:282,1,95.9999970703126,8|0,1:0|3:0,0:0:0:0:
286,352,108924,2,0,B|245:378|193:369,1,95.9999970703126,0|2,3:0|0:0,0:0:0:0:
0,158,109230,6,0,B|50:145|122:144,1,120,4|0,1:0|0:0,0:0:0:0:
118,144,109536,2,0,B|118:104|115:58,1,80,8|0,0:0|0:0,0:0:0:0:
240,28,109842,2,0,B|239:107|244:216,1,160,4|2,1:2|0:0,0:0:0:0:
290,252,110301,1,0,3:0:0:0:
355,89,110454,5,0,1:0:0:0:
507,125,110607,2,0,B|466:126|422:121,1,80,8|0,1:0|3:0,0:0:0:0:
296,290,110913,6,0,L|301:271,2,20,0|0|0,1:0|3:0|3:0,3:3:0:0:
290,252,111066,2,0,B|331:251|375:256,1,80,0|2,3:0|0:3,0:0:0:0:
484,365,111372,2,0,B|486:298|500:206,1,143.999995605469,4|0,1:2|3:0,0:0:0:0:
509,205,111678,6,0,L|507:122,1,80,4|0,1:0|1:0,0:0:0:0:
491,46,111984,1,8,0:0:0:0:
359,26,112137,6,0,L|364:45,2,20,0|0|0,1:0|3:0|3:0,3:3:0:0:
381,60,112290,2,0,L|383:143,1,80,4|2,1:2|0:0,0:0:0:0:
307,352,112597,2,0,B|306:313|316:272,1,80,8|2,0:0|0:0,0:0:0:0:
377,220,112903,5,4,1:2:0:0:
241,120,113056,6,0,B|232:123|232:123|225:118|225:118|217:117|217:117|208:121|208:121|201:116|201:116|193:115|193:115|184:119|184:119|177:114|177:114|169:113|169:113|160:117|160:117|153:112|153:112|145:111|145:111|137:114|137:114|129:110|129:110|121:109|121:109|113:112|113:112|105:108,1,143.999995605469,8|0,0:0|3:0,3:3:0:0:
94,215,113515,6,0,B|140:226|174:187,1,80,4|2,1:2|0:0,0:0:0:0:
57,41,113821,2,0,B|1:87|34:165,1,120,8|0,1:0|0:0,0:0:0:0:
12,165,114127,6,0,B|15:203|19:251,1,80,4|0,1:0|1:0,0:0:0:0:
180,271,114433,1,2,0:0:0:0:
7,323,114586,1,8,0:0:0:0:
174,351,114739,6,0,B|177:313|181:265,1,80,8|0,1:0|1:0,0:0:0:0:
342,245,115045,1,2,0:0:0:0:
169,193,115198,1,0,1:0:0:0:
301,323,115351,6,0,B|350:345|393:315,1,95.9999970703126,4|8,1:2|1:0,0:0:0:0:
382,166,115657,2,0,B|334:145|291:175,1,95.9999970703126,0|0,0:0|1:0,0:0:0:0:
184,255,115963,5,8,1:0:0:0:
263,250,116116,1,2,1:2:0:0:
342,245,116269,1,8,1:0:0:0:
421,240,116422,1,2,1:2:0:0:
500,235,116576,6,0,B|496:196|510:156,1,80,4|2,1:0|0:0,0:0:0:0:
410,19,116882,2,0,B|424:59|420:98,1,80,8|2,0:0|0:0,0:0:0:0:
382,166,117188,6,0,L|233:173,1,143.999995605469,8|0,1:0|0:0,0:0:0:0:
219,166,117494,1,4,1:2:0:0:
147,200,117647,1,0,3:0:0:0:
130,71,117800,5,0,1:0:0:0:
130,71,117953,1,0,1:0:0:0:
130,71,118106,1,8,0:0:0:0:
130,71,118259,1,2,0:0:0:0:
92,142,118412,5,0,1:0:0:0:
130,71,118565,1,2,0:0:0:0:
209,85,118718,1,2,0:3:0:0:
219,166,118871,1,2,0:0:0:0:
147,200,119024,6,0,B|142:246|142:288,1,80,4|0,1:0|1:0,0:0:0:0:
199,335,119330,1,0,1:0:0:0:
63,272,119483,1,0,1:0:0:0:
219,258,119636,2,0,B|302:251|381:249,1,160,8|8,1:0|0:0,3:3:0:0:
452,279,120095,1,2,3:0:0:0:
424,66,120248,5,0,1:0:0:0:
269,88,120401,2,0,B|306:95|351:99,1,80,4|0,1:2|0:0,0:0:0:0:
342,178,120708,5,8,0:0:0:0:
497,156,120861,1,2,0:0:0:0:
417,145,121014,2,0,B|460:149|497:156,1,80,2|0,0:0|1:0,0:0:0:0:
452,279,121320,1,0,0:0:0:0:
273,214,121473,6,0,B|264:252|262:305,1,80,4|0,1:0|0:0,0:0:0:0:
349,352,121779,2,0,B|358:314|360:261,1,80,2|8,1:2|0:0,0:0:0:0:
382,20,122085,2,2,B|452:64|415:146,1,143.999995605469,8|0,1:0|0:0,0:0:0:0:
395,152,122391,2,0,B|352:148|307:147,1,80,2|0,0:0|1:0,0:0:0:0:
250,100,122697,5,8,0:0:0:0:
44,236,122850,2,2,B|87:240|132:241,1,80,2|0,1:2|0:0,0:0:0:0:
196,206,123156,1,2,0:0:0:0:
58,72,123309,5,0,1:0:0:0:
70,151,123462,1,2,0:0:0:0:
149,139,123615,1,8,0:0:0:0:
137,60,123768,1,0,1:0:0:0:
44,236,123921,6,0,B|87:240|132:241,1,80,4|2,1:0|0:0,0:0:0:0:
188,288,124227,1,8,0:0:0:0:
240,123,124380,1,2,0:0:0:0:
319,253,124533,6,0,B|362:257|407:258,1,80,4|8,0:0|0:0,0:0:0:0:
488,345,124840,2,0,B|423:339|368:337,1,120,8|0,1:0|0:0,0:0:0:0:
348,345,125146,5,0,1:0:0:0:
396,168,125299,2,0,B|331:162|276:160,1,120,8|0,1:0|0:0,0:0:0:0:
256,168,125605,1,2,0:0:0:0:
20,76,125758,6,0,B|20:84|20:84|28:92|28:92|28:100|28:100|36:104|36:104|36:112|36:112|52:112|52:112|52:120|52:120|68:116|68:116|68:124|68:124|84:112|84:112|84:120|84:120|100:104|100:104|100:112|100:112|108:92|108:92|108:100|108:100|116:84|116:84|116:68|116:68|124:52|124:52|124:60|124:60|132:40|132:40|132:48|132:48|148:32|148:32|148:40|148:40|164:28|164:28|164:36|164:36|180:32|180:32|180:40|180:40|196:40|196:40|196:48|196:48|204:52|204:52|204:60|204:60|212:68|212:68|212:76,1,408.000007781983,0|0,3:0|3:0,3:3:0:0:
203,241,126370,6,0,B|196:283|193:326,1,80,4|2,1:0|0:0,0:0:0:0:
119,275,126676,1,8,0:0:0:0:
277,292,126829,1,2,0:0:0:0:
17,365,126982,2,0,B|58:360|108:357,1,80,8|2,1:0|0:0,0:0:0:0:
132,194,127288,2,0,B|93:191|52:186,1,80,0|0,1:0|1:0,0:0:0:0:
1,125,127594,5,8,0:0:0:0:
178,16,127747,2,0,B|231:77|199:156,1,143.999995605469,8|0,1:0|0:0,0:0:0:0:
201,150,128053,1,0,1:0:0:0:
25,38,128206,6,0,B|63:40|104:45,1,80,8|2,1:0|0:0,0:0:0:0:
353,33,128512,2,0,B|314:30|273:25,1,80,0|0,1:0|1:0,0:0:0:0:
201,150,128819,5,4,1:0:0:0:
280,145,128972,1,8,0:0:0:0:
359,140,129125,1,2,0:0:0:0:
438,135,129278,1,8,0:0:0:0:
495,326,129431,6,0,B|439:340|385:305|371:253|406:194,2,191.999994140625,8|4|0,1:0|1:2|1:0,0:0:0:0:
306,275,130196,6,0,B|306:231|298:185,1,80,0|2,1:0|0:0,0:0:0:0:
467,249,130502,1,8,0:0:0:0:
456,66,130655,2,0,B|449:101|449:145,1,80,8|2,1:0|0:0,0:0:0:0:
420,341,130961,2,0,B|376:341|330:349,1,80,0|2,1:0|0:0,0:0:0:0:
168,311,131267,6,0,B|82:298|0:301,2,160,4|2|8,1:0|0:0|1:0,0:0:0:0:
239,346,132032,1,8,1:2:0:0:
247,155,132185,2,0,B|207:145|155:172,1,80,2|8,0:0|0:0,0:0:0:0:
117,226,132491,5,0,1:0:0:0:
162,159,132644,1,4,0:0:0:0:
112,95,132798,1,2,0:0:0:0:
36,123,132951,1,8,0:0:0:0:
38,203,133104,5,8,1:0:0:0:
196,249,133257,1,2,0:0:0:0:
0,292,133410,2,0,B|44:287|87:283,1,80,0|8,1:0|0:0,0:0:0:0:
262,300,133716,6,0,B|276:336|272:377,1,80,4|8,1:0|0:0,0:0:0:0:
145,334,134022,1,2,0:0:0:0:
196,249,134175,1,8,0:0:0:0:
247,164,134328,6,0,L|239:70,1,80,8|2,1:0|0:0,0:0:0:0:
32,133,134634,2,0,L|40:227,1,80,4|0,1:2|1:0,0:0:0:0:
145,334,134940,5,8,1:0:0:0:
196,249,135093,2,0,B|316:209|345:344,1,191.999994140625,8|8,0:0|0:0,0:0:0:0:
456,258,135552,6,0,B|520:247|487:136,1,143.999995605469,12|0,1:2|0:0,0:0:0:0:
470,122,135858,1,0,1:0:0:0:
349,179,136011,1,0,1:0:0:0:
437,381,136164,6,2,L|421:0,1,380,6|2,1:0|0:0,0:1:0:0:
