osu file format v14

[General]
AudioFilename: audio.mp3
AudioLeadIn: 0
PreviewTime: 183246
Countdown: 0
SampleSet: Normal
StackLeniency: 0.3
Mode: 0
LetterboxInBreaks: 0
EpilepsyWarning: 1
WidescreenStoryboard: 0

[Editor]
DistanceSpacing: 1
BeatDivisor: 6
GridSize: 32
TimelineZoom: 1

[Metadata]
Title:Roads Untraveled
TitleUnicode:Roads Untraveled
Artist:Linkin Park
ArtistUnicode:Linkin Park
Creator:pw384
Version:The Finale
Source:
Tags:need for speed living things english rock metal alternative 384059043 Chester Bennington Rob Bourdon Brad Delson Dave Farrel Joe Hahn Mike Shinoda untravelled
BeatmapID:2927290
BeatmapSetID:1066119

[Difficulty]
HPDrainRate:5
CircleSize:4
OverallDifficulty:7.5
ApproachRate:8
SliderMultiplier:3.59999990463257
SliderTickRate:3

[Events]
//Background and Video events
0,0,"b.jpg",0,0
//Break Periods
2,4946,11046
//Storyboard Layer 0 (Background)
//Storyboard Layer 1 (Fail)
//Storyboard Layer 2 (Pass)
//Storyboard Layer 3 (Foreground)
//Storyboard Layer 4 (Overlay)
Sprite,Overlay,TopLeft,"SB\BG_EFFECT\black.png",0,0 V,0,182946,,1,0.75 F,0,182946,183746,0.2 M,0,182946,184746,0,0 S,0,182946,184746,640
Sprite,Overlay,TopLeft,"SB\BG_EFFECT\black.png",0,0 V,0,226146,,1,0.75 M,0,226146,227046,0,0 F,0,226146,227046,1 S,0,226146,227046,640
//Storyboard Sound Samples

[TimingPoints]
4746,900,4,1,1,60,1,0
12696,-100,4,1,1,5,0,0
12846,-100,4,1,1,60,0,0
13746,-100,4,1,1,45,0,0
15546,-100,4,1,1,30,0,0
19146,-100,4,1,1,60,0,0
19896,-100,4,1,1,5,0,0
20046,-100,4,1,1,60,0,0
20946,-100,4,1,1,50,0,0
22746,-100,4,1,1,40,0,0
26346,-100,4,1,1,60,0,0
27096,-100,4,1,1,5,0,0
27246,-100,4,1,1,60,0,0
28146,-100,4,1,1,45,0,0
29946,-100,4,1,1,60,0,0
31746,-100,4,1,1,45,0,0
34446,-100,4,1,1,55,0,0
36246,-100,4,1,1,45,0,0
37146,-100,4,1,1,30,0,0
40746,-133.333333333333,4,1,1,60,0,0
42246,-133.333333333333,4,1,1,45,0,0
44346,-133.333333333333,4,1,1,35,0,0
47946,-133.333333333333,4,1,1,60,0,0
50646,-133.333333333333,4,1,1,45,0,0
51546,-133.333333333333,4,1,1,30,0,0
55146,-133.333333333333,4,1,1,60,0,0
56646,-133.333333333333,4,1,1,45,0,0
58746,-133.333333333333,4,1,1,60,0,0
60246,-133.333333333333,4,1,1,45,0,0
62346,-133.333333333333,4,1,1,60,0,0
65946,-133.333333333333,4,1,1,45,0,0
69546,-100,4,1,1,65,0,0
71046,-100,4,1,1,45,0,0
72846,-100,4,1,1,65,0,0
78246,-100,4,1,1,45,0,0
80046,-100,4,1,1,65,0,0
83346,-100,4,1,1,45,0,0
83946,-100,4,1,1,65,0,0
84546,-100,4,1,1,45,0,0
87246,-100,4,1,1,65,0,0
88146,-100,4,1,1,45,0,0
91146,-100,4,1,1,65,0,0
91746,-100,4,1,1,55,0,0
94446,-100,4,1,1,65,0,0
94746,-133.333333333333,4,1,1,70,0,0
98346,-100,4,1,1,70,0,0
123546,-200,4,1,1,70,0,0
127146,-83.3333333333333,4,1,1,85,0,1
129846,-66.6666666666667,4,1,1,85,0,1
130446,-83.3333333333333,4,1,1,85,0,1
137046,-66.6666666666667,4,1,1,85,0,1
137646,-83.3333333333333,4,1,1,85,0,1
141246,-83.3333333333333,4,1,1,85,0,0
141546,-62.5,4,1,1,85,0,1
146946,-50,4,1,1,85,0,1
147846,-62.5,4,1,1,85,0,1
152346,-55.5555555555556,4,1,1,85,0,1
155646,-55.5555555555556,4,1,1,85,0,0
155946,-200,4,1,1,85,0,1
156246,-200,4,1,1,30,0,0
170496,-200,4,1,1,5,0,0
171096,-200,4,1,1,30,0,0
172296,-200,4,1,1,5,0,0
172896,-200,4,1,1,30,0,0
174096,-200,4,1,1,5,0,0
174696,-200,4,1,1,30,0,0
175896,-200,4,1,1,5,0,0
176496,-200,4,1,1,30,0,0
184189,900,4,1,1,30,1,0
184189,-200,4,1,1,30,0,0
184746,900,4,1,1,85,1,1
184746,-66.6666666666667,4,1,1,85,0,1
198846,-66.6666666666667,4,1,1,85,0,0
199146,-66.6666666666667,4,1,1,85,0,1
204546,-55.5555555555556,4,1,1,85,0,1
205446,-66.6666666666667,4,1,1,85,0,1
213246,-66.6666666666667,4,1,1,85,0,0
213546,-62.5,4,1,1,85,0,1
218946,-50,4,1,1,85,0,1
219846,-62.5,4,1,1,85,0,1
225846,-62.5,4,1,1,85,0,0
226146,-100,4,1,1,85,0,1
226446,-100,4,1,1,85,0,0

[Colours]
Combo1 : 222,222,222
Combo2 : 170,105,74
Combo3 : 120,89,54
Combo4 : 207,187,118
Combo5 : 64,64,64

[HitObjects]
256,192,21,12,2,4746,2:2:0:0:
194,166,11946,54,0,B|286:120|423:90|433:211|370:229,1,299.999992052714,4|0,0:0|2:0,2:0:0:0:
363,236,12846,1,0,0:0:0:0:
278,281,13746,1,0,3:0:0:0:
189,318,14646,1,0,3:0:0:0:
97,345,15546,1,2,3:2:0:0:
119,306,19146,6,0,B|185:288|230:284|293:332|359:368|433:352|400:293|313:303,1,299.999992052714,4|0,0:0|2:0,2:0:0:0:
356,300,20046,1,0,0:0:0:0:
248,307,20946,1,0,3:0:0:0:
235,290,21846,1,0,3:0:0:0:
143,359,22746,1,2,3:2:0:0:
347,111,25746,1,0,3:0:0:0:
347,111,26046,1,0,3:0:0:0:
267,65,26346,54,0,B|245:112|260:178|309:218|283:329|162:294|253:163,1,299.999992052714,4|0,0:0|2:0,2:0:0:0:
242,185,27246,1,0,0:0:0:0:
347,207,28146,1,2,3:2:0:0:
347,207,29046,1,2,3:2:0:0:
127,249,29946,1,0,0:0:0:0:
127,249,30846,1,0,0:0:0:0:
347,207,31746,1,2,3:2:0:0:
347,207,32646,1,2,3:2:0:0:
44,141,33546,5,4,0:0:0:0:
144,179,34446,1,0,0:0:0:0:
318,134,35346,1,0,0:0:0:0:
480,371,36246,1,0,3:0:0:0:
508,305,37146,1,2,3:2:0:0:
508,305,40746,54,0,B|428:288|382:283|313:308|398:351,1,180.000002098084,4|0,0:3|2:0,2:0:0:0:
508,305,41646,1,0,0:0:0:0:
347,206,42246,1,0,3:0:0:0:
347,206,42546,1,0,3:0:0:0:
168,350,43446,1,0,3:0:0:0:
55,102,44346,2,0,P|45:136|43:197,1,90.0000010490418,2|0,3:2|2:0,2:0:0:0:
508,305,47946,6,0,B|428:288|382:283|313:308|398:351,1,180.000002098084,4|0,1:3|2:0,2:0:0:0:
508,305,48846,1,0,0:0:0:0:
347,206,49446,1,0,3:0:0:0:
347,206,49746,1,0,3:0:0:0:
168,350,50646,1,0,3:0:0:0:
55,102,51546,1,2,3:2:0:0:
42,190,54546,2,0,P|43:145|55:102,1,90.0000010490418,0|0,3:0|2:0,2:0:0:0:
157,42,55146,54,0,B|217:24|243:54|274:88|328:70,1,180.000002098084,4|0,0:3|2:0,2:0:0:0:
411,34,56046,1,0,0:0:0:0:
188,118,56646,1,0,3:0:0:0:
188,118,56946,1,0,3:0:0:0:
478,152,57846,1,0,0:0:0:0:
388,139,58146,1,0,3:0:0:0:
280,198,58446,1,0,3:0:0:0:
108,177,58746,5,4,0:3:0:0:
455,215,59646,1,0,0:0:0:0:
150,290,60246,1,0,3:0:0:0:
150,290,60546,1,0,3:0:0:0:
482,350,61446,1,0,0:0:0:0:
482,350,61746,1,0,3:0:0:0:
397,318,62046,1,0,3:0:0:0:
245,339,62346,54,0,B|178:345|139:348|73:336|76:307,1,180.000002098084,4|0,0:3|2:0,2:0:0:0:
108,226,63246,1,0,0:0:0:0:
44,57,63846,1,0,3:0:0:0:
44,57,64146,1,0,3:0:0:0:
506,210,65046,1,0,0:0:0:0:
4,363,65946,1,2,3:2:0:0:
9,355,69546,6,0,B|85:335|161:271|92:176|25:225,1,239.999993642171,4|0,0:0|2:0,2:0:0:0:
105,336,70446,1,0,0:0:0:0:
199,352,71046,1,0,3:0:0:0:
199,352,71346,1,0,3:0:0:0:
333,299,72246,1,0,0:0:0:0:
279,91,72846,1,4,3:0:0:0:
234,31,73146,54,0,L|230:172,1,119.999996821086,4|0,0:3|3:0,2:0:0:0:
234,31,76446,1,0,3:0:0:0:
230,150,76746,6,0,B|301:138|342:175|394:222|474:148|456:94,1,239.999993642171,4|0,0:3|2:0,2:0:0:0:
380,88,77646,1,0,0:0:0:0:
331,197,78246,1,0,3:0:0:0:
331,197,78546,1,0,3:0:0:0:
435,343,79446,1,0,0:0:0:0:
107,290,80046,53,4,0:3:0:0:
226,277,80346,1,4,0:3:0:0:
118,288,83346,1,0,3:0:0:0:
214,278,83646,1,0,3:0:0:0:
46,265,83946,6,0,P|112:263|285:379,1,239.999993642171,4|0,0:3|2:0,2:0:0:0:
291,221,84846,1,0,0:0:0:0:
329,133,85146,1,0,3:0:0:0:
337,151,85446,1,0,3:0:0:0:
317,37,85746,54,0,P|312:101|307:292,1,239.999993642171,0|0,3:3|2:0,2:0:0:0:
331,357,86646,1,0,0:0:0:0:
342,367,86946,1,0,3:0:0:0:
436,336,87246,1,4,3:0:0:0:
215,261,87546,6,0,P|229:339|141:278,1,239.999993642171,4|0,0:3|2:0,2:0:0:0:
164,142,88446,1,0,0:0:0:0:
155,162,88746,1,0,3:0:0:0:
53,130,89046,1,0,3:0:0:0:
217,79,89346,54,0,B|290:58|341:54|411:108|485:148|568:130|531:64|434:75,1,359.999990463257,0|0,3:3|0:0,2:0:0:0:
290,104,90546,1,0,3:0:0:0:
313,100,90846,1,0,3:0:0:0:
400,144,91146,6,0,P|312:136|175:193,1,239.999993642171,4|0,0:3|2:0,2:0:0:0:
84,53,92046,2,0,P|72:130|71:299,1,239.999993642171,0|0,0:0|0:0,2:0:0:0:
10,367,92946,53,4,0:3:0:0:
128,345,93246,1,0,3:0:0:0:
270,365,93546,1,0,3:0:0:0:
436,343,93846,2,0,P|344:345|188:321,1,239.999993642171,0|4,0:0|2:3,2:0:0:0:
40,284,94746,6,0,B|181:338|407:303|461:213|461:213|411:211|362:238,1,540.000006294251,4|0,0:2|2:0,2:0:0:0:
251,283,96846,54,0,P|248:232|252:179,1,90.0000010490418
262,19,97446,2,0,P|265:70|262:202,1,180.000002098084
103,297,98346,6,0,P|157:295|226:313,1,119.999996821086,4|0,0:2|0:0,2:0:0:0:
234,325,98796,2,0,L|416:318,1,179.999995231629,0|8,0:0|0:0,2:0:0:0:
489,172,99546,1,0,0:0:0:0:
489,172,99696,1,0,0:0:0:0:
489,172,99846,1,0,0:0:0:0:
390,5,100146,54,0,P|377:127|375:251,1,239.999993642171,0|0,0:0|0:0,2:0:0:0:
374,244,101046,1,8,0:0:0:0:
374,244,101646,1,0,0:0:0:0:
323,189,101946,6,0,P|333:252|333:312,1,119.999996821086,4|0,0:2|0:0,2:0:0:0:
324,327,102396,2,0,P|258:321|125:312,1,179.999995231629,0|8,0:0|0:0,2:0:0:0:
36,341,103146,1,0,0:0:0:0:
57,264,103296,1,0,0:0:0:0:
0,208,103446,1,0,0:0:0:0:
0,208,103746,54,0,P|66:214|199:223,1,179.999995231629,0|0,0:0|2:0,2:0:0:0:
197,216,104346,1,0,0:0:0:0:
433,249,104646,1,8,0:0:0:0:
362,203,104946,1,0,0:0:0:0:
278,192,105246,1,0,0:0:0:0:
384,293,105546,6,0,P|379:230|380:166,1,119.999996821086,4|0,0:2|0:0,2:0:0:0:
396,163,105996,2,0,P|397:233|406:350,1,179.999995231629,0|8,0:0|0:0,2:0:0:0:
499,137,106746,1,0,0:0:0:0:
416,152,106896,1,0,0:0:0:0:
470,215,107046,1,0,0:0:0:0:
470,215,107346,54,0,P|409:204|222:186,1,239.999993642171,0|0,0:0|0:0,2:0:0:0:
232,186,108246,1,8,0:0:0:0:
232,186,108846,1,0,0:0:0:0:
141,3,109146,6,0,P|137:58|136:129,1,119.999996821086,4|0,0:2|0:0,2:0:0:0:
152,131,109596,2,0,P|155:229|156:329,1,179.999995231629,0|8,0:0|0:0,2:0:0:0:
144,324,110346,53,0,0:0:0:0:
155,240,110496,1,0,0:0:0:0:
166,156,110646,1,0,0:0:0:0:
166,156,110946,6,0,P|255:151|361:148,1,179.999995231629,0|0,0:0|2:0,2:0:0:0:
362,157,111546,1,0,0:0:0:0:
291,202,111846,1,8,0:0:0:0:
273,278,112146,1,0,0:0:0:0:
314,344,112446,53,0,0:0:0:0:
299,210,112596,1,0,0:0:0:0:
284,76,112746,6,0,P|270:118|269:77,1,119.999996821086,4|0,0:2|0:0,2:0:0:0:
275,8,113196,2,0,P|278:117|286:202,1,179.999995231629,0|8,0:0|0:0,2:0:0:0:
437,341,113946,53,0,0:0:0:0:
409,261,114096,1,0,0:0:0:0:
354,325,114246,1,0,0:0:0:0:
137,190,114546,6,0,B|183:177|215:174|259:208|306:233|358:222|335:180|273:187,1,239.999993642171,0|0,0:0|0:0,2:0:0:0:
150,288,115446,1,8,0:0:0:0:
409,261,115746,53,0,0:0:0:0:
437,341,115896,1,0,0:0:0:0:
354,325,116046,1,0,0:0:0:0:
137,190,116346,6,0,B|183:177|215:174|259:208|306:233|358:222|335:180,1,179.999995231629,4|0,0:2|0:0,2:0:0:0:
329,202,116946,1,0,0:0:0:0:
150,288,117246,1,8,0:0:0:0:
354,325,117546,53,0,0:0:0:0:
437,341,117696,1,0,0:0:0:0:
409,261,117846,1,0,0:0:0:0:
137,190,118146,6,0,B|183:177|215:174|259:208|306:233|358:222|335:180|273:187,1,239.999993642171,4|0,0:2|0:0,2:0:0:0:
150,288,119046,1,8,0:0:0:0:
187,73,119346,2,0,P|124:78|59:82,1,119.999996821086,0|0,0:0|0:0,2:0:0:0:
67,81,119946,54,0,P|126:84|186:89,1,119.999996821086,4|0,0:2|0:0,2:0:0:0:
199,105,120396,2,0,P|201:205|202:292,1,179.999995231629,0|8,0:0|0:0,2:0:0:0:
312,135,121146,2,0,P|310:82|311:14,1,119.999996821086,0|0,0:0|0:0,2:0:0:0:
498,151,121746,6,0,P|421:136|286:230,1,239.999993642171,0|0,0:0|0:0,2:0:0:0:
0,63,122646,2,0,P|77:48|212:142,1,239.999993642171,8|0,0:0|0:0,2:0:0:0:
456,218,123546,54,0,P|309:209|200:306,1,299.999992052714,4|0,0:2|0:0,2:0:0:0:
213,205,125346,5,8,0:0:0:0:
211,225,125646,1,0,0:0:0:0:
109,161,125946,1,0,0:0:0:0:
232,129,126246,1,8,0:0:0:0:
337,197,126546,1,2,0:2:0:0:
340,208,126696,1,2,0:2:0:0:
343,219,126846,1,2,0:2:0:0:
404,162,127146,54,0,P|437:164|481:171,1,71.9999958953859,4|0,0:2|2:0,2:0:0:0:
374,298,127446,2,0,P|338:303|302:305,1,71.9999958953859,0|0,0:0|2:0,2:0:0:0:
295,297,127746,2,0,P|259:291|223:289,1,71.9999958953859,0|0,0:0|2:0,2:0:0:0:
91,316,128046,6,0,L|98:236,1,71.9999958953859,8|0,0:0|2:0,2:0:0:0:
221,32,128346,2,0,L|228:112,1,71.9999958953859,0|0,0:0|2:0,2:0:0:0:
192,213,128646,1,0,0:0:0:0:
192,213,128796,1,0,0:0:0:0:
91,316,128946,54,0,P|124:318|168:325,1,71.9999958953859,0|0,0:0|2:0,2:0:0:0:
252,352,129246,2,0,P|285:350|329:343,1,71.9999958953859,0|0,0:0|2:0,2:0:0:0:
425,229,129546,2,0,P|458:231|502:238,1,71.9999958953859,0|0,0:0|2:0,2:0:0:0:
390,302,129846,6,0,B|369:265|363:217|399:208|454:133|428:63|376:68|368:132,1,270.000003147125,8|0,0:0|2:0,2:0:0:0:
366,132,130446,1,0,0:0:0:0:
298,174,130596,1,0,0:0:0:0:
298,174,130746,54,0,P|381:164|452:162,1,143.999991790772,4|0,0:2|0:0,2:0:0:0:
463,150,131196,2,0,P|447:212|433:363,1,215.999987686158,0|8,0:0|0:0,2:0:0:0:
227,330,131946,1,0,0:0:0:0:
312,318,132096,1,0,0:0:0:0:
259,249,132246,1,0,0:0:0:0:
259,249,132546,6,0,P|181:260|119:277,1,143.999991790772,0|0,0:0|0:0,2:0:0:0:
104,292,132996,2,0,P|122:222|118:150,1,143.999991790772,0|0,0:0|0:0,2:0:0:0:
111,135,133446,2,0,P|108:96|123:33,1,71.9999958953859,8|0,0:0|2:0,2:0:0:0:
267,105,133746,2,0,P|270:144|255:207,1,71.9999958953859,0|0,0:0|2:0,2:0:0:0:
193,336,134046,1,8,0:0:0:0:
278,324,134196,1,8,0:0:0:0:
206,316,134346,54,0,L|284:324,1,71.9999958953859,4|0,0:2|2:0,2:0:0:0:
428,289,134646,2,0,P|430:252|422:213,1,71.9999958953859,0|0,0:0|2:0,2:0:0:0:
417,206,134946,2,0,P|415:169|423:130,1,71.9999958953859,0|0,0:0|2:0,2:0:0:0:
334,39,135246,6,0,L|338:115,1,71.9999958953859,8|0,0:0|2:0,2:0:0:0:
509,158,135546,2,0,L|505:82,1,71.9999958953859,0|0,0:0|2:0,2:0:0:0:
330,128,135846,1,0,0:0:0:0:
330,128,135996,1,0,0:0:0:0:
231,259,136146,54,0,P|225:223|232:182,1,71.9999958953859,0|0,0:0|2:0,2:0:0:0:
417,206,136446,2,0,P|423:242|416:283,1,71.9999958953859,0|0,0:0|2:0,2:0:0:0:
407,292,136746,2,0,L|336:289,1,71.9999958953859,0|0,0:0|2:0,2:0:0:0:
93,331,137046,6,0,B|130:352|178:358|187:322|262:267|332:293|327:345|263:353,1,270.000003147125,8|0,0:0|2:0,2:0:0:0:
263,355,137646,1,0,0:0:0:0:
177,301,137796,1,0,0:0:0:0:
177,301,137946,54,0,L|182:157,1,143.999991790772,4|0,0:2|0:0,2:0:0:0:
406,245,138546,1,0,0:0:0:0:
406,245,138696,1,0,0:0:0:0:
406,245,138846,6,0,L|411:101,1,143.999991790772,8|0,0:0|0:0,2:0:0:0:
43,191,139446,1,0,0:0:0:0:
43,191,139596,1,0,0:0:0:0:
43,191,139746,54,0,L|45:119,1,71.9999958953859,4|0,0:2|2:0,2:0:0:0:
266,231,140046,2,0,L|268:159,1,71.9999958953859,4|0,0:2|2:0,2:0:0:0:
489,271,140346,2,0,L|491:199,1,71.9999958953859,4|0,0:0|2:0,2:0:0:0:
145,283,140646,2,0,L|147:211,1,71.9999958953859,12|0,0:0|2:0,2:0:0:0:
368,323,140946,5,4,0:2:0:0:
370,251,141096,1,0,0:0:0:0:
381,335,141246,1,8,0:0:0:0:
285,283,141396,1,8,0:0:0:0:
456,220,141546,6,0,L|361:216,1,95.9999974568685,4|0,0:0|2:0,2:0:0:0:
214,95,141846,2,0,P|198:125|198:191,1,95.9999974568685,0|0,0:0|2:0,2:0:0:0:
360,215,142146,2,0,P|376:185|376:119,1,95.9999974568685,0|0,0:0|2:0,2:0:0:0:
170,14,142446,6,0,P|175:109|177:205,1,191.999994913737,8|0,0:0|0:0,2:0:0:0:
130,334,142896,1,0,0:0:0:0:
89,149,143046,2,0,P|88:200|84:250,1,95.9999974568685,0|0,0:0|2:0,2:0:0:0:
268,351,143346,6,0,P|264:303|263:255,1,95.9999974568685,4|0,0:2|2:0,2:0:0:0:
389,89,143646,2,0,P|403:137|396:190,1,95.9999974568685,0|0,0:0|2:0,2:0:0:0:
255,247,143946,2,0,P|241:199|248:146,1,95.9999974568685,0|0,0:0|2:0,2:0:0:0:
512,204,144246,38,0,L|309:193,1,191.999994913737,8|0,0:0|0:0,2:0:0:0:
165,222,144696,1,0,0:0:0:0:
353,340,144846,2,0,P|300:332|245:330,1,95.9999974568685,0|0,0:0|2:0,2:0:0:0:
52,354,145146,6,0,L|61:251,1,95.9999974568685,4|0,0:2|2:0,2:0:0:0:
156,317,145446,2,0,L|165:214,1,95.9999974568685,0|0,0:0|2:0,2:0:0:0:
260,280,145746,2,0,L|269:177,1,95.9999974568685,0|0,0:0|2:0,2:0:0:0:
476,258,146046,6,0,L|467:155,1,95.9999974568685,8|0,0:0|2:0,2:0:0:0:
372,221,146346,2,0,L|363:118,1,95.9999974568685,0|0,0:0|2:0,2:0:0:0:
268,184,146646,2,0,L|259:81,1,95.9999974568685,0|0,0:0|2:0,2:0:0:0:
127,36,146946,38,0,B|112:83|133:138|133:138|159:206|48:236|29:102|142:96|153:150|153:150|161:204|98:237|120:329,1,479.999987284343,4|0,0:2|0:0,2:0:0:0:
116,303,147846,5,8,0:0:0:0:
419,318,148146,2,0,P|370:311|311:296,1,95.9999974568685,0|0,0:0|2:0,2:0:0:0:
263,187,148446,1,8,0:0:0:0:
313,309,148596,1,8,0:0:0:0:
319,127,148746,6,0,L|323:18,1,95.9999974568685,4|0,0:2|2:0,2:0:0:0:
263,187,149046,1,0,0:0:0:0:
437,108,149196,2,0,P|410:23|321:32,1,191.999994913737,0|0,0:0|0:0,2:0:0:0:
378,184,149646,38,0,L|474:187,1,95.9999974568685,8|0,0:0|2:0,2:0:0:0:
413,270,149946,2,0,L|317:267,1,95.9999974568685,0|0,1:0|2:0,2:0:0:0:
134,184,150246,1,0,0:0:0:0:
134,184,150396,1,0,0:0:0:0:
193,127,150546,6,0,L|189:18,1,95.9999974568685,4|0,0:2|2:0,2:0:0:0:
249,187,150846,1,0,0:0:0:0:
75,108,150996,2,0,P|101:23|190:32,1,191.999994913737,0|0,0:0|0:0,2:0:0:0:
134,184,151446,6,0,L|38:187,1,95.9999974568685,8|0,0:0|2:0,2:0:0:0:
99,270,151746,2,0,L|195:267,1,95.9999974568685,0|0,1:0|2:0,2:0:0:0:
254,336,152046,1,0,0:0:0:0:
254,336,152196,1,0,0:0:0:0:
418,270,152346,38,0,P|421:214|401:158,1,107.999993843079,4|0,0:2|2:0,2:0:0:0:
201,125,152646,2,0,P|184:176|188:229,1,107.999993843079,0|0,0:0|2:0,2:0:0:0:
328,321,152946,2,0,P|344:269|340:216,1,107.999993843079,0|0,0:0|2:0,2:0:0:0:
150,312,153246,6,0,P|206:315|262:295,1,107.999993843079,8|0,0:0|2:0,2:0:0:0:
403,154,153546,2,0,P|351:137|298:141,1,107.999993843079,0|0,0:0|2:0,2:0:0:0:
83,217,153846,2,0,P|134:233|187:229,1,107.999993843079,0|0,0:0|2:0,2:0:0:0:
155,44,154146,6,0,P|165:94|167:167,1,107.999993843079,4|0,0:2|2:0,2:0:0:0:
286,248,154446,2,0,P|288:194|299:142,1,107.999993843079,0|0,0:0|2:0,2:0:0:0:
83,217,154746,2,0,P|93:267|95:340,1,107.999993843079,0|0,0:0|2:0,2:0:0:0:
345,384,155046,2,0,P|347:330|358:278,1,107.999993843079,12|0,0:0|2:0,2:0:0:0:
438,210,155346,37,0,0:0:0:0:
438,210,155496,1,0,0:0:0:0:
286,248,155646,1,8,0:0:0:0:
484,276,155796,1,8,0:0:0:0:
410,91,155946,5,4,0:0:0:0:
369,130,159546,2,0,L|365:192,1,59.9999984105428,0|0,3:0|2:0,3:0:0:0:
58,321,163146,21,0,3:0:0:0:
144,295,164046,1,0,3:0:0:0:
231,314,164646,1,0,3:0:0:0:
249,322,164946,1,0,3:0:0:0:
338,334,165846,1,0,3:0:0:0:
427,346,166746,1,0,3:0:0:0:
465,152,170346,6,0,P|396:155|344:175,1,119.999996821086,0|0,0:0|2:0,2:0:0:0:
479,168,171246,1,0,0:0:0:0:
275,99,172146,54,0,P|206:102|154:122,1,119.999996821086,0|0,0:0|2:0,2:0:0:0:
289,115,173046,1,0,0:0:0:0:
99,273,173946,6,0,P|168:276|220:296,1,119.999996821086,0|0,0:0|2:0,2:0:0:0:
85,289,174846,1,0,0:0:0:0:
289,220,175746,54,0,P|358:223|410:243,1,119.999996821086,0|0,0:0|2:0,2:0:0:0:
417,248,177546,5,0,0:0:0:0:
459,312,179346,1,0,0:0:0:0:
508,370,181146,1,0,3:0:0:0:
453,208,184189,2,0,L|450:238,1,29.9999992052714
459,243,184746,6,0,P|460:194|449:139,1,90.0000010490418,4|0,0:2|2:0,2:0:0:0:
332,93,185046,2,0,P|324:137|326:182,1,90.0000010490418,0|0,0:0|2:0,2:0:0:0:
333,190,185346,2,0,P|340:234|338:279,1,90.0000010490418,0|0,0:0|2:0,2:0:0:0:
133,301,185646,6,0,P|173:257|198:341,1,180.000002098084,8|0,0:0|0:0,2:0:0:0:
196,349,186096,1,0,0:0:0:0:
43,303,186246,1,0,0:0:0:0:
112,231,186396,1,0,0:0:0:0:
99,207,186546,6,0,P|92:169|102:118,1,90.0000010490418,4|0,0:2|2:0,2:0:0:0:
174,23,186846,2,0,L|265:31,1,90.0000010490418,0|0,0:0|2:0,2:0:0:0:
191,126,187146,2,0,L|100:118,1,90.0000010490418,0|0,0:0|2:0,2:0:0:0:
5,99,187446,38,0,L|187:115,1,180.000002098084,8|0,0:0|0:0,2:0:0:0:
334,194,187896,1,0,0:0:0:0:
420,170,188046,1,0,0:0:0:0:
420,170,188346,6,0,P|366:199|289:291,1,180.000002098084,4|0,0:2|0:0,2:0:0:0:
321,373,188796,2,0,P|292:319|200:242,1,180.000002098084,0|0,0:0|0:0,2:0:0:0:
33,299,189246,6,0,L|135:294,1,90.0000010490418,8|0,0:0|2:0,2:0:0:0:
368,241,189546,2,0,L|266:246,1,90.0000010490418,0|0,0:0|2:0,2:0:0:0:
77,171,189846,2,0,L|179:166,1,90.0000010490418,0|0,0:0|2:0,2:0:0:0:
470,257,190146,38,0,L|368:252,1,90.0000010490418,4|0,0:2|2:0,2:0:0:0:
135,199,190446,2,0,L|237:204,1,90.0000010490418,0|0,0:0|2:0,2:0:0:0:
426,129,190746,2,0,L|324:124,1,90.0000010490418,0|0,0:0|2:0,2:0:0:0:
100,62,191046,6,0,P|247:45|188:181,1,360.000004196167,8|0,0:0|0:0,2:0:0:0:
58,256,191796,1,0,0:0:0:0:
53,243,191946,6,0,P|52:194|63:139,1,90.0000010490418,4|0,0:2|2:0,2:0:0:0:
180,93,192246,2,0,P|188:137|186:182,1,90.0000010490418,0|0,0:0|2:0,2:0:0:0:
179,190,192546,2,0,P|172:234|174:279,1,90.0000010490418,0|0,0:0|2:0,2:0:0:0:
379,301,192846,38,0,P|339:257|314:341,1,180.000002098084,8|0,0:0|0:0,2:0:0:0:
316,349,193296,1,0,0:0:0:0:
469,303,193446,1,0,0:0:0:0:
400,231,193596,1,0,0:0:0:0:
413,207,193746,6,0,P|420:169|410:118,1,90.0000010490418,4|0,0:2|2:0,2:0:0:0:
338,23,194046,2,0,L|247:31,1,90.0000010490418,0|0,0:0|2:0,2:0:0:0:
321,126,194346,2,0,L|412:118,1,90.0000010490418,0|0,0:0|2:0,2:0:0:0:
507,99,194646,6,0,L|325:115,1,180.000002098084,8|0,0:0|0:0,2:0:0:0:
178,194,195096,1,0,0:0:0:0:
92,170,195246,1,0,0:0:0:0:
92,170,195546,38,0,P|86:234|83:362,1,180.000002098084,4|0,0:2|0:0,2:0:0:0:
382,52,196146,1,0,0:0:0:0:
382,52,196296,1,0,0:0:0:0:
382,52,196446,6,0,P|388:116|391:244,1,180.000002098084,8|0,0:0|0:0,2:0:0:0:
60,20,197046,1,0,0:0:0:0:
60,20,197196,1,0,0:0:0:0:
60,20,197346,6,0,L|149:29,1,90.0000010490418,4|0,0:2|2:0,2:0:0:0:
431,91,197646,2,0,L|342:82,1,90.0000010490418,4|0,0:2|2:0,2:0:0:0:
152,149,197946,2,0,L|241:158,1,90.0000010490418,4|0,0:0|2:0,2:0:0:0:
495,177,198246,38,0,L|406:186,1,90.0000010490418,12|0,0:0|2:0,2:0:0:0:
76,277,198546,2,0,L|165:268,1,90.0000010490418,4|0,0:2|2:0,2:0:0:0:
474,279,198846,1,8,0:0:0:0:
210,349,198996,1,8,0:0:0:0:
395,359,199146,38,0,P|323:328|209:344,1,180.000002098084,4|0,0:0|0:0,2:0:0:0:
131,179,199596,2,0,P|121:266|116:367,1,180.000002098084,0|0,0:0|0:0,2:0:0:0:
117,193,200046,2,0,L|113:91,1,90.0000010490418,8|0,0:0|2:0,2:0:0:0:
308,45,200346,2,0,L|312:147,1,90.0000010490418,0|0,0:0|2:0,2:0:0:0:
199,292,200646,1,0,0:0:0:0:
199,292,200796,1,0,0:0:0:0:
117,359,200946,6,0,P|189:328|303:344,1,180.000002098084,4|0,0:2|0:0,2:0:0:0:
381,179,201396,2,0,P|391:266|396:367,1,180.000002098084,0|0,0:0|0:0,2:0:0:0:
395,193,201846,2,0,L|399:91,1,90.0000010490418,8|0,0:0|2:0,2:0:0:0:
204,45,202146,2,0,L|200:147,1,90.0000010490418,0|0,0:0|2:0,2:0:0:0:
313,292,202446,1,0,0:0:0:0:
313,292,202596,1,0,0:0:0:0:
177,231,202746,54,0,P|175:186|191:145,1,90.0000010490418,4|0,0:2|2:0,2:0:0:0:
313,292,203046,2,0,P|314:336|299:378,1,90.0000010490418,0|0,0:0|2:0,2:0:0:0:
122,321,203346,2,0,L|226:319,1,90.0000010490418,0|0,0:0|2:0,2:0:0:0:
368,202,203646,6,0,L|264:204,1,90.0000010490418,8|0,0:0|2:0,2:0:0:0:
87,229,203946,2,0,L|191:231,1,90.0000010490418,0|0,0:0|2:0,2:0:0:0:
402,293,204246,2,0,L|298:291,1,90.0000010490418,0|0,0:0|2:0,2:0:0:0:
26,165,204546,54,0,B|11:48|11:48|110:102|110:102|41:300,1,431.999975372315,4|0,0:2|0:0,2:0:0:0:
43,292,205446,1,8,0:0:0:0:
365,168,205746,1,0,0:0:0:0:
365,168,206046,1,0,0:0:0:0:
365,168,206346,6,0,L|454:167,1,90.0000010490418,4|0,0:2|2:0,2:0:0:0:
396,74,206646,1,0,0:0:0:0:
261,31,206796,2,0,P|245:119|256:208,1,180.000002098084,0|0,0:0|0:0,2:0:0:0:
328,333,207246,54,0,L|417:332,1,90.0000010490418,8|0,0:0|2:0,2:0:0:0:
217,292,207546,2,0,L|127:291,1,90.0000010490418,0|0,0:0|2:0,2:0:0:0:
256,208,207846,2,0,L|345:208,1,90.0000010490418,0|0,0:0|2:0,2:0:0:0:
147,168,208146,6,0,L|57:167,1,90.0000010490418,4|0,0:2|2:0,2:0:0:0:
116,74,208446,1,0,0:0:0:0:
252,31,208596,2,0,P|267:119|256:208,1,180.000002098084,0|0,0:0|0:0,2:0:0:0:
184,333,209046,54,0,L|94:332,1,90.0000010490418,8|0,0:0|2:0,2:0:0:0:
295,292,209346,2,0,L|384:291,1,90.0000010490418,0|0,0:0|2:0,2:0:0:0:
256,208,209646,2,0,L|166:208,1,90.0000010490418,0|0,0:0|2:0,2:0:0:0:
95,129,209946,6,0,P|96:59|172:101,1,180.000002098084,4|0,0:2|0:0,2:0:0:0:
417,129,210546,1,0,0:0:0:0:
417,129,210696,1,0,0:0:0:0:
417,129,210846,54,0,P|416:59|340:101,1,180.000002098084,12|0,0:0|0:0,2:0:0:0:
190,193,211446,1,0,0:0:0:0:
190,193,211596,1,0,0:0:0:0:
190,193,211746,6,0,P|184:236|184:285,1,90.0000010490418,4|0,0:2|2:0,2:0:0:0:
318,339,212046,2,0,P|324:296|324:247,1,90.0000010490418,0|0,0:0|2:0,2:0:0:0:
188,293,212346,1,0,0:0:0:0:
435,251,212646,1,12,0:0:0:0:
248,160,212946,53,0,0:0:0:0:
253,175,213096,1,0,0:0:0:0:
352,112,213246,5,12,0:0:0:0:
313,22,213396,1,8,0:0:0:0:
194,85,213546,6,0,P|207:173|208:275,1,191.999994913737,4|0,0:2|0:0,2:0:0:0:
0,314,213996,2,0,P|78:296|178:370,1,191.999994913737,0|0,0:0|0:0,2:0:0:0:
396,320,214446,2,0,P|409:274|405:216,1,95.9999974568685,8|0,0:0|2:0,2:0:0:0:
402,217,214746,2,0,L|498:215,1,95.9999974568685,0|0,0:0|2:0,2:0:0:0:
264,160,215046,1,0,0:0:0:0:
259,175,215196,1,0,0:0:0:0:
318,85,215346,6,0,P|304:173|304:275,1,191.999994913737,4|0,0:2|0:0,2:0:0:0:
512,314,215796,2,0,P|434:296|334:370,1,191.999994913737,0|0,0:0|0:0,2:0:0:0:
116,320,216246,2,0,P|103:274|107:216,1,95.9999974568685,8|0,0:0|2:0,2:0:0:0:
110,217,216546,2,0,L|14:215,1,95.9999974568685,0|0,0:0|2:0,2:0:0:0:
248,160,216846,1,0,0:0:0:0:
253,175,216996,1,0,0:0:0:0:
294,296,217146,6,0,P|348:293|397:314,1,95.9999974568685,4|0,0:2|2:0,2:0:0:0:
363,218,217446,2,0,P|338:266|295:298,1,95.9999974568685,0|0,0:0|2:0,2:0:0:0:
396,316,217746,2,0,P|366:270|360:217,1,95.9999974568685,0|0,0:0|2:0,2:0:0:0:
203,240,218046,38,0,P|149:237|100:258,1,95.9999974568685,8|0,0:0|2:0,2:0:0:0:
134,162,218346,2,0,P|158:210|201:242,1,95.9999974568685,0|0,0:0|2:0,2:0:0:0:
101,260,218646,2,0,P|130:214|136:161,1,95.9999974568685,0|0,0:0|2:0,2:0:0:0:
81,67,218946,6,0,B|147:193|320:236|351:104|255:-12|170:47|125:184,1,479.999987284343,4|0,0:2|0:0,2:0:0:0:
165,362,219846,5,8,0:0:0:0:
165,362,220146,1,0,0:0:0:0:
165,362,220446,1,8,0:0:0:0:
251,310,220596,1,8,0:0:0:0:
438,341,220746,38,0,P|395:343|244:307,1,191.999994913737,4|0,0:2|0:0,2:0:0:0:
105,153,221196,2,0,P|76:244|74:340,1,191.999994913737,0|0,0:0|0:0,2:0:0:0:
30,253,221646,2,0,L|136:248,1,95.9999974568685,8|0,0:0|2:0,2:0:0:0:
181,78,221946,2,0,P|193:124|187:182,1,95.9999974568685,0|0,0:0|2:0,2:0:0:0:
74,341,222246,1,0,0:0:0:0:
74,341,222396,1,0,0:0:0:0:
74,341,222546,6,0,P|117:343|268:307,1,191.999994913737,4|0,0:2|0:0,2:0:0:0:
407,153,222996,2,0,P|435:244|437:340,1,191.999994913737,0|0,0:0|0:0,2:0:0:0:
482,253,223446,2,0,L|376:248,1,95.9999974568685,8|0,0:0|2:0,2:0:0:0:
331,78,223746,2,0,P|319:124|325:182,1,95.9999974568685,0|0,0:0|2:0,2:0:0:0:
438,341,224046,1,0,0:0:0:0:
438,341,224196,1,0,0:0:0:0:
438,341,224346,6,0,L|332:336,1,95.9999974568685,4|0,0:2|2:0,2:0:0:0:
74,341,224646,2,0,L|180:336,1,95.9999974568685,0|0,0:0|2:0,2:0:0:0:
482,253,224946,2,0,L|376:248,1,95.9999974568685,0|0,0:0|2:0,2:0:0:0:
30,253,225246,38,0,L|136:248,1,95.9999974568685,8|0,0:0|2:0,2:0:0:0:
512,165,225546,2,0,L|406:160,1,95.9999974568685,0|0,0:0|2:0,2:0:0:0:
0,165,225846,2,0,L|106:160,1,95.9999974568685,8|0,0:0|2:2,2:0:0:0:
256,10,226146,53,4,0:0:0:0:
