osu file format v14

[General]
AudioFilename: audio.mp3
AudioLeadIn: 0
PreviewTime: 183246
Countdown: 0
SampleSet: Normal
StackLeniency: 0.5
Mode: 0
LetterboxInBreaks: 0
EpilepsyWarning: 1
WidescreenStoryboard: 0

[Editor]
DistanceSpacing: 1.2
BeatDivisor: 6
GridSize: 32
TimelineZoom: 1

[Metadata]
Title:Roads Untraveled
TitleUnicode:Roads Untraveled
Artist:Linkin Park
ArtistUnicode:Linkin Park
Creator:pw384
Version:Easy
Source:
Tags:need for speed living things english rock metal alternative 384059043 Chester Bennington Rob Bourdon Brad Delson Dave Farrel Joe Hahn Mike Shinoda untravelled
BeatmapID:2251544
BeatmapSetID:1066119

[Difficulty]
HPDrainRate:2
CircleSize:3
OverallDifficulty:2
ApproachRate:3.5
SliderMultiplier:1.99999990463257
SliderTickRate:1

[Events]
//Background and Video events
0,0,"c.jpg",0,0
//Break Periods
2,4946,10566
2,159546,168966
//Storyboard Layer 0 (Background)
//Storyboard Layer 1 (Fail)
//Storyboard Layer 2 (Pass)
//Storyboard Layer 3 (Foreground)
//Storyboard Layer 4 (Overlay)
//Storyboard Sound Samples

[TimingPoints]
4746,900,4,1,1,60,1,0
13746,-100,4,1,0,45,0,0
15546,-100,4,1,1,30,0,0
19146,-100,4,1,1,60,0,0
20946,-100,4,1,0,50,0,0
22746,-100,4,1,1,40,0,0
26346,-100,4,1,1,60,0,0
28146,-100,4,1,1,45,0,0
29946,-100,4,1,1,60,0,0
31746,-100,4,1,1,45,0,0
34446,-100,4,1,1,55,0,0
36246,-100,4,1,1,45,0,0
37146,-100,4,1,1,30,0,0
40746,-100,4,1,1,60,0,0
42246,-100,4,1,1,45,0,0
44346,-100,4,1,1,35,0,0
47946,-100,4,1,1,60,0,0
50646,-100,4,1,1,45,0,0
51546,-100,4,1,1,30,0,0
55146,-100,4,1,1,60,0,0
56646,-100,4,1,1,45,0,0
58746,-100,4,1,1,60,0,0
60246,-100,4,1,1,45,0,0
62346,-100,4,1,1,60,0,0
65946,-100,4,1,1,45,0,0
69546,-100,4,1,1,65,0,0
71046,-100,4,1,1,45,0,0
72846,-100,4,1,1,65,0,0
78246,-100,4,1,1,45,0,0
80046,-100,4,1,1,65,0,0
83346,-100,4,1,1,45,0,0
83946,-100,4,1,1,65,0,0
84546,-100,4,1,1,45,0,0
87246,-100,4,1,1,65,0,0
88146,-100,4,1,1,45,0,0
91146,-100,4,1,1,65,0,0
91746,-100,4,1,1,55,0,0
94446,-100,4,1,1,65,0,0
94746,-100,4,1,1,70,0,0
98346,-100,4,1,1,70,0,0
123546,-100,4,1,1,70,0,0
127146,-100,4,1,1,85,0,1
129846,-100,4,1,1,85,0,1
130446,-100,4,1,1,85,0,1
137046,-100,4,1,1,85,0,1
137646,-100,4,1,1,85,0,1
141246,-100,4,1,1,85,0,0
141546,-100,4,1,1,85,0,1
146946,-100,4,1,1,85,0,1
147846,-100,4,1,1,85,0,1
152346,-100,4,1,1,85,0,1
155646,-100,4,1,1,85,0,0
155946,-100,4,1,1,85,0,1
156246,-133.333333333333,4,1,1,30,0,0
170496,-133.333333333333,4,1,1,5,0,0
171096,-133.333333333333,4,1,1,30,0,0
172296,-133.333333333333,4,1,1,5,0,0
172896,-133.333333333333,4,1,1,30,0,0
174096,-133.333333333333,4,1,1,5,0,0
174696,-133.333333333333,4,1,1,30,0,0
184189,900,4,1,1,30,1,0
184189,-133.333333333333,4,1,1,30,0,0
184746,900,4,1,1,30,1,0
184746,-100,4,1,1,85,0,1
198846,-100,4,1,1,85,0,0
199146,-100,4,1,1,85,0,1
204546,-100,4,1,1,85,0,1
205446,-100,4,1,1,85,0,1
213246,-100,4,1,1,85,0,0
213546,-100,4,1,1,85,0,1
218946,-100,4,1,1,85,0,1
219846,-100,4,1,1,85,0,1
225846,-100,4,1,1,85,0,0
226146,-100,4,1,1,85,0,1
226446,-100,4,1,1,85,0,0

[Colours]
Combo1 : 222,222,222
Combo2 : 170,105,74
Combo3 : 120,89,54
Combo4 : 207,187,118
Combo5 : 64,64,64

[HitObjects]
256,192,21,12,2,4746,2:2:0:0:
80,62,11946,54,0,P|84:128|90:278,1,199.999990463257,4|0,0:0|0:0,2:2:0:0:
283,311,13746,2,0,P|279:245|273:95,1,199.999990463257,0|0,3:0|3:0,2:0:0:0:
116,234,15546,1,2,3:2:0:0:
116,234,19146,6,0,P|220:230|339:230,1,199.999990463257,4|0,0:0|0:0,2:2:0:0:
411,53,20946,2,0,P|307:57|188:57,1,199.999990463257,0|0,3:0|3:0,2:0:0:0:
315,229,22746,1,2,3:2:0:0:
315,229,26346,54,0,L|306:15,1,199.999990463257,4|0,0:0|0:0,2:2:0:0:
111,74,28146,1,2,3:2:0:0:
111,74,29046,1,2,3:2:0:0:
111,74,29946,6,0,L|325:83,1,199.999990463257,0|0,0:0|0:0,2:2:0:0:
458,216,31746,1,2,3:2:0:0:
458,216,32646,1,2,3:2:0:0:
458,216,33546,54,0,P|392:217|256:237,1,199.999990463257,4|0,0:0|0:0,2:2:0:0:
76,317,35346,2,0,P|175:320|274:337,1,199.999990463257,0|0,0:0|3:0,2:0:0:0:
470,375,37146,1,2,3:2:0:0:
470,375,40746,6,0,L|476:170,1,199.999990463257,4|0,0:3|0:0,2:0:0:0:
352,17,42546,2,0,P|320:103|340:212,1,199.999990463257,0|0,3:0|3:0,2:0:0:0:
447,375,44346,1,2,3:2:0:0:
470,375,47946,54,0,L|476:170,1,199.999990463257,4|0,1:3|0:0,2:0:0:0:
352,17,49746,2,0,P|320:103|340:212,1,199.999990463257,0|0,3:0|3:0,2:0:0:0:
144,258,51546,1,2,3:2:0:0:
144,258,55146,6,0,P|240:262|373:277,2,199.999990463257,4|0|0,0:3|0:0|3:0,2:2:0:0:
318,355,57846,1,0,0:0:0:0:
485,245,58746,2,0,P|494:145|483:33,2,199.999990463257,4|0|0,0:3|0:0|3:0,2:2:0:0:
485,245,62346,54,0,P|413:238|294:288,1,199.999990463257,4|0,0:3|0:0,2:2:0:0:
142,158,64146,2,0,P|214:151|333:201,1,199.999990463257,0|0,3:0|0:0,2:0:0:0:
452,356,65946,1,2,3:2:0:0:
452,356,69546,6,0,P|465:277|453:148,2,199.999990463257,4|0|0,0:0|0:0|3:0,2:2:0:0:
151,210,72846,2,0,L|222:217,1,66.6666634877523,4|4,3:0|0:3,2:0:0:0:
217,216,76746,54,0,P|312:223|421:238,2,199.999990463257,4|0|0,0:3|0:0|3:0,2:2:0:0:
151,210,80046,2,0,L|222:217,1,66.6666634877523,4|4,0:3|0:3,2:0:0:0:
435,146,83946,6,0,P|353:200|256:192,1,199.999990463257,4|0,0:3|0:0,2:2:0:0:
76,237,85746,2,0,P|158:183|256:192,1,199.999990463257,0|0,3:3|0:0,2:2:0:0:
378,245,87246,1,4,3:0:0:0:
432,303,87546,54,0,L|424:90,1,199.999990463257,4|0,0:3|0:0,2:2:0:0:
232,30,89346,2,0,L|240:243,1,199.999990463257,0|0,3:3|0:0,2:2:0:0:
57,324,91146,6,0,L|49:111,2,199.999990463257,4|0|0,0:3|0:0|3:3,2:2:0:0:
251,372,93846,1,0,0:0:0:0:
364,301,94446,2,0,L|432:309,1,66.6666634877523,4|4,2:3|0:2,2:2:0:0:
337,313,96846,54,0,P|399:317|477:331,2,133.333326975505
262,343,98346,5,4,0:2:0:0:
42,246,99246,2,0,P|34:182|46:98,1,133.333326975505,8|0,0:0|0:0,2:2:0:0:
74,40,100146,2,0,L|279:50,1,199.999990463257,0|8,0:0|0:0,2:2:0:0:
311,286,101946,54,0,P|411:122|385:312,1,533.333307902019,4|0,0:2|0:0,2:2:0:0:
325,365,104646,1,8,0:0:0:0:
89,318,105546,6,0,L|100:105,1,199.999990463257,4|8,0:2|0:0,2:2:0:0:
240,42,107046,1,0,0:0:0:0:
289,102,107346,2,0,P|355:113|419:97,1,133.333326975505,0|0,0:0|0:0,2:0:0:0:
470,35,108246,1,8,0:0:0:0:
506,272,109146,54,0,P|411:262|301:264,1,199.999990463257,4|0,0:2|0:0,2:2:0:0:
72,314,110946,2,0,P|131:321|205:319,1,133.333326975505,0|0,0:0|0:0,2:0:0:0:
276,283,111846,1,8,0:0:0:0:
428,97,112746,6,0,P|354:105|233:140,1,199.999990463257,4|8,0:2|0:0,2:2:0:0:
30,12,114546,2,0,P|104:20|225:55,1,199.999990463257,0|8,0:0|0:0,2:2:0:0:
459,5,116346,2,0,P|488:100|501:199,1,199.999990463257,4|8,0:2|0:0,2:2:0:0:
267,249,118146,2,0,P|237:153|224:54,1,199.999990463257,4|8,0:2|0:0,2:2:0:0:
14,174,119946,54,0,L|222:190,1,199.999990463257,4|8,0:2|0:0,2:2:0:0:
267,249,121146,2,0,P|310:253|408:241,1,133.333326975505,0|0,0:0|0:0,2:2:0:0:
228,74,122646,1,8,0:0:0:0:
216,313,123546,6,0,B|198:273|214:221|214:221|289:202|384:238|426:312,1,333.333317438762,4|0,0:2|0:0,2:2:0:0:
489,262,125346,2,0,P|501:202|491:131,1,133.333326975505,8|0,0:0|0:0,2:0:0:0:
463,55,126246,1,8,0:0:0:0:
223,75,127146,54,0,P|211:135|221:206,1,133.333326975505,4|0,0:2|0:0,2:2:0:0:
279,260,128046,2,0,L|275:336,2,66.6666634877523,8|0|0,0:0|0:0|0:0,2:2:0:0:
297,182,128946,2,0,L|152:185,1,133.333326975505,0|0,0:0|0:0,2:2:0:0:
93,145,129846,1,8,0:0:0:0:
6,368,130746,6,0,P|75:341|155:340,1,133.333326975505,4|0,0:2|0:0,2:0:0:0:
181,273,131646,2,0,P|247:278|308:303,1,133.333326975505,8|0,0:0|0:0,2:2:0:0:
359,365,132546,1,0,0:0:0:0:
502,294,133146,1,0,0:0:0:0:
502,294,133446,2,0,L|499:154,1,133.333326975505,8|8,0:0|0:0,2:0:0:0:
458,91,134346,54,0,P|418:83|305:88,1,133.333326975505,4|0,0:2|0:0,2:2:0:0:
258,126,135246,2,0,P|218:134|105:129,1,133.333326975505,8|0,0:0|0:0,2:2:0:0:
54,96,136146,1,0,0:0:0:0:
192,291,137046,2,0,P|232:283|345:288,1,133.333326975505,8|0,0:0|0:0,2:2:0:0:
392,323,137946,6,0,P|369:171|488:270,1,399.999980926514,4|4,0:2|0:2,2:0:0:0:
352,71,140646,2,0,P|288:53|221:58,1,133.333326975505,12|8,0:0|0:0,0:0:0:0:
150,95,141546,6,0,B|16:85|16:85|65:148,1,199.999990463257,4|8,0:0|0:0,2:2:0:0:
196,331,143346,2,0,B|330:341|330:341|281:278,1,199.999990463257,4|8,0:2|0:0,2:2:0:0:
220,249,144546,2,0,P|217:216|222:171,1,66.6666634877523,0|0,0:0|0:0,2:0:0:0:
278,128,145146,6,0,P|377:141|471:91,2,199.999990463257,4|8|4,0:2|0:0|0:2,2:2:0:0:
141,44,147546,1,0,0:0:0:0:
76,91,147846,2,0,P|68:132|80:229,1,133.333326975505,8|8,0:0|0:0,2:0:0:0:
12,268,148746,6,0,L|211:262,1,199.999990463257,4|8,0:2|0:0,2:2:0:0:
347,347,150246,1,0,0:0:0:0:
347,347,150546,2,0,L|148:353,2,199.999990463257,4|8|4,0:2|0:0|0:2,2:2:0:0:
256,192,152646,12,4,155946,0:0:0:0:
169,130,170346,5,0,0:0:0:0:
348,148,171246,1,0,0:0:0:0:
169,130,172146,1,0,0:0:0:0:
348,148,173046,1,0,0:0:0:0:
506,232,173946,5,0,0:0:0:0:
327,250,174846,1,0,0:0:0:0:
148,232,175746,1,0,0:0:0:0:
148,232,177546,53,0,0:0:0:0:
93,296,179346,1,0,0:0:0:0:
38,360,181146,1,0,3:0:0:0:
143,48,184746,22,0,P|131:108|141:179,1,133.333326975505,4|0,0:2|0:0,2:2:0:0:
199,234,185646,2,0,L|195:310,2,66.6666634877523,8|0|0,0:0|0:0|0:0,2:2:0:0:
272,200,186546,2,0,L|417:203,1,133.333326975505,4|0,0:2|0:0,2:2:0:0:
462,145,187446,1,8,0:0:0:0:
512,378,188346,6,0,P|352:334|187:354,1,333.333317438762,4|0,0:2|0:0,2:0:0:0:
111,379,190146,1,4,0:2:0:0:
33,239,190746,1,0,0:0:0:0:
33,239,191046,2,0,P|25:199|30:86,1,133.333326975505,8|0,0:0|0:0,2:2:0:0:
76,44,191946,6,0,P|116:36|229:41,1,133.333326975505,4|0,0:2|0:0,2:2:0:0:
269,89,192846,2,0,P|277:129|272:242,1,133.333326975505,8|0,0:0|0:0,2:2:0:0:
219,277,193746,1,4,0:2:0:0:
372,322,194346,1,0,0:0:0:0:
372,322,194646,2,0,P|374:255|384:187,1,133.333326975505,8|0,0:0|0:0,2:2:0:0:
425,120,195546,38,0,P|270:131|379:21,1,399.999980926514,4|4,0:2|0:2,2:0:0:0:
241,225,198246,2,0,P|180:223|108:243,1,133.333326975505,12|8,0:0|0:0,0:0:0:0:
49,190,199146,38,0,B|25:91|25:91|69:3,1,199.999990463257,4|8,0:0|0:0,2:2:0:0:
309,24,200946,2,0,B|333:123|333:123|288:210,1,199.999990463257,4|8,0:2|0:0,2:2:0:0:
214,179,202146,2,0,P|181:176|132:171,1,66.6666634877523,0|0,0:0|0:0,2:0:0:0:
68,185,202746,6,0,P|47:285|47:383,2,199.999990463257,4|8|4,0:2|0:0|0:2,2:2:0:0:
170,61,205146,1,0,0:0:0:0:
245,35,205446,2,0,P|253:76|241:173,1,133.333326975505,8|0,0:0|0:0,2:2:0:0:
169,197,206346,54,0,L|368:191,1,199.999990463257,4|8,0:2|0:0,2:2:0:0:
463,320,207846,1,0,0:0:0:0:
463,320,208146,2,0,L|264:326,1,199.999990463257,4|8,0:2|0:0,2:2:0:0:
199,94,209946,6,0,L|0:88,2,199.999990463257,4|8|4,0:2|0:0|0:2,2:2:0:0:
269,134,212046,2,0,P|323:129|423:157,1,133.333326975505,0|8,0:0|0:0,2:0:0:0:
451,296,213246,1,8,0:0:0:0:
451,296,213546,6,0,P|397:301|297:273,1,133.333326975505,4|0,0:0|0:0,2:2:0:0:
243,311,214446,2,0,L|34:305,1,199.999990463257,8|4,0:0|0:2,2:2:0:0:
82,149,215946,1,0,0:0:0:0:
82,149,216246,2,0,L|215:152,1,133.333326975505,8|0,0:0|0:0,2:2:0:0:
267,92,217146,6,0,P|355:75|460:104,2,199.999990463257,4|8|4,0:2|0:0|0:2,2:2:0:0:
218,244,219546,1,0,0:0:0:0:
218,244,219846,2,0,P|150:254|83:236,1,133.333326975505,8|8,0:0|0:0,2:2:0:0:
45,170,220746,6,0,L|36:376,1,199.999990463257,4|8,0:2|0:0,2:2:0:0:
192,335,222246,1,0,0:0:0:0:
192,335,222546,2,0,L|391:343,1,199.999990463257,4|8,0:2|0:0,2:2:0:0:
256,192,224346,12,4,226146,0:0:0:0:
