osu file format v14

[General]
AudioFilename: audio.mp3
AudioLeadIn: 0
PreviewTime: 124588
Countdown: 1
SampleSet: Normal
StackLeniency: 0.7
Mode: 0
LetterboxInBreaks: 0
WidescreenStoryboard: 0

[Editor]
Bookmarks: 9923,22723,182948
DistanceSpacing: 1
BeatDivisor: 4
GridSize: 32
TimelineZoom: 0.9

[Metadata]
Title:Papercut
TitleUnicode:Papercut
Artist:Linkin Park
ArtistUnicode:Linkin Park
Creator:Veridian
Version:Normal
Source:
Tags:
BeatmapID:1782979
BeatmapSetID:853133

[Difficulty]
HPDrainRate:2
CircleSize:3
OverallDifficulty:2
ApproachRate:2
SliderMultiplier:1
SliderTickRate:1

[Events]
//Background and Video events
0,0,"night-rain-artwork-cities-1366x768-wallpaper.jpg",0,0
//Break Periods
2,61652,65886
2,113196,120228
//Storyboard Layer 0 (Background)
//Storyboard Layer 1 (Fail)
//Storyboard Layer 2 (Pass)
//Storyboard Layer 3 (Foreground)
//Storyboard Sound Samples

[TimingPoints]
318,399.57378795951,4,1,1,70,1,0
22194,-100,4,1,1,5,0,0
22294,-100,4,1,1,70,0,0
22394,-100,4,1,1,5,0,0
22494,-100,4,1,1,70,0,0
22594,-100,4,1,1,5,0,0
22694,-100,4,2,2,70,0,0
38077,-100,4,2,2,5,0,0
38677,-100,4,2,2,70,0,0
41274,-100,4,1,4,100,0,0
42672,-100,4,1,4,70,0,0
42772,-100,4,2,2,5,0,0
42872,-100,4,2,2,70,0,0
47292,-100,4,2,2,5,0,0
47667,-100,4,2,2,70,0,0
48266,-100,4,1,3,85,0,1
48666,-100,4,1,6,85,0,1
48766,-100,4,1,3,85,0,1
49066,-100,4,1,6,85,0,1
49165,-100,4,1,3,85,0,1
49465,-100,4,1,6,85,0,1
49565,-100,4,1,3,85,0,1
49865,-100,4,1,6,85,0,1
49965,-100,4,1,3,85,0,1
50064,-100,4,1,6,85,0,1
50164,-100,4,1,3,85,0,1
50464,-100,4,1,6,85,0,1
50564,-100,4,1,3,85,0,1
50764,-100,4,1,3,5,0,1
50864,-100,4,1,3,85,0,1
51063,-100,4,1,6,85,0,1
51163,-100,4,1,3,85,0,1
51863,-100,4,1,6,85,0,1
51962,-100,4,1,3,85,0,1
52262,-100,4,1,6,85,0,1
52362,-100,4,1,3,85,0,1
52562,-100,4,1,3,5,0,1
52662,-100,4,1,3,85,0,1
53061,-100,4,1,6,85,0,1
53161,-100,4,1,3,85,0,1
53261,-100,4,1,6,85,0,1
53361,-100,4,1,3,85,0,1
53661,-100,4,1,6,85,0,1
53760,-100,4,1,3,85,0,1
54260,-100,4,1,6,85,0,1
54360,-100,4,1,3,85,0,1
54460,-100,4,1,6,85,0,1
54560,-100,4,1,3,85,0,1
55059,-100,4,1,6,85,0,1
55159,-100,4,1,3,85,0,1
55359,-100,4,1,3,5,0,1
55459,-100,4,1,3,85,0,1
55858,-100,4,1,6,85,0,1
55958,-100,4,1,3,85,0,1
56258,-100,4,1,6,85,0,1
56358,-100,4,1,3,85,0,1
56458,-100,4,1,6,85,0,1
56558,-100,4,1,3,85,0,1
56857,-100,4,1,6,85,0,1
56957,-100,4,1,3,85,0,1
57157,-100,4,1,3,5,0,1
57257,-100,4,1,3,85,0,1
57457,-100,4,1,6,85,0,1
57556,-100,4,1,3,85,0,1
57656,-100,4,1,6,85,0,1
57756,-100,4,1,3,85,0,1
57856,-100,4,1,6,85,0,1
57956,-100,4,1,3,85,0,1
58156,-100,4,1,6,85,0,1
58256,-100,4,1,3,85,0,1
59954,-100,4,1,3,5,0,1
60054,-100,4,1,4,100,0,1
60254,-100,4,1,3,85,0,1
60453,-100,4,1,4,85,0,1
61053,-100,4,1,4,100,0,0
61452,-100,4,1,4,85,0,1
62052,-100,4,2,2,75,0,0
76439,-100,4,2,2,5,0,0
77036,-100,4,1,4,100,0,0
77039,-100,4,2,2,70,0,0
81031,-100,4,1,4,70,0,0
81131,-100,4,2,2,5,0,0
81231,-100,4,2,2,75,0,0
85627,-100,4,1,0,75,0,0
85651,-100,4,1,3,5,0,0
85926,-100,4,1,3,75,0,0
85951,-100,4,1,3,5,0,0
86226,-100,4,1,3,75,0,0
86625,-100,4,1,3,85,0,1
87025,-100,4,1,6,85,0,1
87125,-100,4,1,3,85,0,1
87425,-100,4,1,6,85,0,1
87524,-100,4,1,3,85,0,1
87824,-100,4,1,6,85,0,1
87924,-100,4,1,3,85,0,1
88224,-100,4,1,6,85,0,1
88324,-100,4,1,3,85,0,1
88424,-100,4,1,6,85,0,1
88523,-100,4,1,3,85,0,1
88823,-100,4,1,6,85,0,1
88923,-100,4,1,3,85,0,1
89123,-100,4,1,3,5,0,1
89223,-100,4,1,3,85,0,1
89422,-100,4,1,6,85,0,1
89522,-100,4,1,3,85,0,1
90222,-100,4,1,6,85,0,1
90621,-100,4,1,6,85,0,1
90721,-100,4,1,3,85,0,1
90921,-100,4,1,3,5,0,1
91021,-100,4,1,3,85,0,1
91420,-100,4,1,6,85,0,1
91520,-100,4,1,3,85,0,1
91620,-100,4,1,6,85,0,1
91720,-100,4,1,3,85,0,1
92020,-100,4,1,6,85,0,1
92120,-100,4,1,3,85,0,1
92319,-100,4,1,3,5,0,1
92419,-100,4,1,3,85,0,1
92619,-100,4,1,6,85,0,1
92719,-100,4,1,3,85,0,1
92819,-100,4,1,6,85,0,1
92919,-100,4,1,3,85,0,1
93418,-100,4,1,6,85,0,1
93518,-100,4,1,3,85,0,1
93718,-100,4,1,3,5,0,1
93818,-100,4,1,3,85,0,1
94117,-100,4,1,3,5,0,1
94217,-100,4,1,6,85,0,1
94317,-100,4,1,3,85,0,1
94617,-100,4,1,6,85,0,1
94717,-100,4,1,3,85,0,1
94817,-100,4,1,6,85,0,1
94917,-100,4,1,3,85,0,1
95216,-100,4,1,6,85,0,1
95316,-100,4,1,3,85,0,1
95516,-100,4,1,3,5,0,1
95616,-100,4,1,3,85,0,1
95816,-100,4,1,6,85,0,1
95916,-100,4,1,3,85,0,1
96015,-100,4,1,6,85,0,1
96115,-100,4,1,3,85,0,1
96215,-100,4,1,6,85,0,1
96315,-100,4,1,3,85,0,1
96515,-100,4,1,6,85,0,1
96615,-100,4,1,3,85,0,1
97714,-100,4,1,3,5,0,1
97815,-100,4,1,3,85,0,1
98313,-100,4,1,3,85,0,1
98812,-100,4,1,4,100,0,1
99412,-100,4,1,4,100,0,0
99811,-100,4,1,4,85,0,1
99836,-100,4,1,4,85,0,1
100211,-100,4,1,3,85,0,1
100611,-100,4,1,6,85,0,1
100710,-100,4,1,3,85,0,1
101010,-100,4,1,6,85,0,1
101110,-100,4,1,3,85,0,1
101210,-100,4,1,6,85,0,1
101310,-100,4,1,3,85,0,1
101609,-100,4,1,6,85,0,1
101709,-100,4,1,3,85,0,1
101909,-100,4,1,3,5,0,1
102009,-100,4,1,3,85,0,1
102209,-100,4,1,6,85,0,1
102309,-100,4,1,3,85,0,1
103008,-100,4,1,6,85,0,1
103108,-100,4,1,3,85,0,1
103408,-100,4,1,6,85,0,1
103507,-100,4,1,3,85,0,1
103707,-100,4,1,3,5,0,1
103807,-100,4,1,3,85,0,1
104207,-100,4,1,6,85,0,1
104307,-100,4,1,3,85,0,1
104406,-100,4,1,6,85,0,1
104506,-100,4,1,3,85,0,1
104806,-100,4,1,6,85,0,1
104906,-100,4,1,3,85,0,1
105405,-100,4,1,6,85,0,1
105505,-100,4,1,3,85,0,1
105605,-100,4,1,6,85,0,1
105705,-100,4,1,3,85,0,1
106205,-100,4,1,6,85,0,1
106304,-100,4,1,3,85,0,1
106504,-100,4,1,3,5,0,1
106604,-100,4,1,3,85,0,1
107004,-100,4,1,6,85,0,1
107104,-100,4,1,3,85,0,1
107403,-100,4,1,6,85,0,1
107503,-100,4,1,3,85,0,1
107603,-100,4,1,6,85,0,1
107703,-100,4,1,3,85,0,1
108003,-100,4,1,6,85,0,1
108103,-100,4,1,3,85,0,1
108302,-100,4,1,3,5,0,1
108402,-100,4,1,3,85,0,1
108602,-100,4,1,6,85,0,1
108702,-100,4,1,3,85,0,1
108802,-100,4,1,6,85,0,1
108902,-100,4,1,3,85,0,1
109002,-100,4,1,6,85,0,1
109101,-100,4,1,3,85,0,1
109301,-100,4,1,6,85,0,1
109401,-100,4,1,3,85,0,1
111099,-100,4,1,3,5,0,1
111199,-100,4,1,4,85,0,1
111399,-100,4,1,3,85,0,1
111599,-100,4,1,4,100,0,1
112198,-100,4,1,1,5,0,0
121788,-100,4,1,4,45,0,0
122587,-100,4,1,4,50,0,0
123386,-100,4,1,4,70,0,0
124185,-100,4,1,4,90,0,0
124985,-100,4,1,1,70,0,1
125784,-100,4,1,1,70,0,0
131378,-100,4,1,4,70,0,0
131478,-100,4,1,4,5,0,0
131577,-100,4,1,4,70,0,0
131977,-100,4,1,4,5,0,0
132177,-100,4,1,4,70,0,0
132277,-100,4,1,4,5,0,0
132377,-100,4,1,4,70,0,0
132477,-100,4,1,4,5,0,0
132576,-100,4,1,4,70,0,0
132676,-100,4,1,4,5,0,0
132776,-100,4,1,4,70,0,0
133475,-100,4,1,4,5,0,0
133575,-100,4,1,4,70,0,0
133675,-100,4,1,4,5,0,0
133775,-100,4,1,4,70,0,0
134075,-100,4,1,4,5,0,0
134175,-100,4,1,4,70,0,0
134275,-100,4,1,4,5,0,0
134375,-100,4,1,4,70,0,0
134474,-100,4,1,4,5,0,0
134574,-100,4,1,3,70,0,0
137771,-100,4,1,1,70,0,1
138570,-100,4,1,1,70,0,0
144164,-100,4,1,4,70,0,0
144264,-100,4,1,4,5,0,0
144364,-100,4,1,4,70,0,0
144763,-100,4,1,4,5,0,0
144863,-100,4,1,4,70,0,0
145063,-100,4,1,4,5,0,0
145163,-100,4,1,4,70,0,0
145263,-100,4,1,4,5,0,0
145363,-100,4,1,4,70,0,0
145463,-100,4,1,4,5,0,0
145563,-100,4,1,4,70,0,0
145662,-100,4,1,4,5,0,0
145762,-100,4,1,4,70,0,0
146462,-100,4,1,4,5,0,0
146562,-100,4,1,4,70,0,0
146661,-100,4,1,4,5,0,0
146761,-100,4,1,4,70,0,0
146861,-100,4,1,4,5,0,0
146961,-100,4,1,4,70,0,0
147361,-100,4,1,1,70,0,0
150557,-100,4,1,3,85,0,1
151157,-100,4,1,6,85,0,1
151256,-100,4,1,3,85,0,1
151756,-100,4,1,6,85,0,1
151856,-100,4,1,3,85,0,1
152355,-100,4,1,6,85,0,1
152455,-100,4,1,3,85,0,1
152755,-100,4,1,6,85,0,1
152855,-100,4,1,3,85,0,1
153354,-100,4,1,6,85,0,1
153454,-100,4,1,3,85,0,1
153554,-100,4,1,6,85,0,1
153654,-100,4,1,3,85,0,1
154853,-100,4,1,3,5,0,1
154953,-100,4,1,6,85,0,1
155052,-100,4,1,3,85,0,1
155352,-100,4,1,6,85,0,1
155452,-100,4,1,3,85,0,1
155951,-100,4,1,6,85,0,1
156051,-100,4,1,3,85,0,1
156551,-100,4,1,6,85,0,1
156651,-100,4,1,3,85,0,1
156751,-100,4,1,6,85,0,1
156851,-100,4,1,3,85,0,1
157750,-100,4,1,6,85,0,1
157849,-100,4,1,3,85,0,1
158149,-100,4,1,6,85,0,1
158249,-100,4,1,3,85,0,1
158349,-100,4,1,6,85,0,1
158449,-100,4,1,3,85,0,1
158749,-100,4,1,6,85,0,1
158848,-100,4,1,3,85,0,1
159148,-100,4,1,6,85,0,1
159248,-100,4,1,3,85,0,1
159448,-100,4,1,3,5,0,1
159548,-100,4,1,6,85,0,1
159648,-100,4,1,3,85,0,1
159947,-100,4,1,6,85,0,1
160047,-100,4,1,3,85,0,1
160147,-100,4,1,6,85,0,1
160247,-100,4,1,3,85,0,1
160447,-100,4,1,6,85,0,1
160547,-100,4,1,3,85,0,1
160746,-100,4,1,6,85,0,1
160846,-100,4,1,3,85,0,1
161146,-100,4,1,6,85,0,1
161246,-100,4,1,3,85,0,1
161546,-100,4,1,6,85,0,1
161645,-100,4,1,3,85,0,1
161845,-100,4,1,3,5,0,1
162145,-100,4,1,6,85,0,1
162245,-100,4,1,3,85,0,1
162345,-100,4,1,6,85,0,1
162445,-100,4,1,3,85,0,1
162944,-100,4,1,3,85,0,0
163344,-100,4,1,3,85,0,1
163943,-100,4,1,6,85,0,1
164542,-100,4,1,6,85,0,1
164642,-100,4,1,3,85,0,1
165142,-100,4,1,6,85,0,1
165242,-100,4,1,3,85,0,1
165541,-100,4,1,6,85,0,1
165641,-100,4,1,3,85,0,1
165841,-100,4,1,3,5,0,1
165941,-100,4,1,3,85,0,1
166141,-100,4,1,6,85,0,1
166241,-100,4,1,3,85,0,1
166340,-100,4,1,6,85,0,1
166440,-100,4,1,3,85,0,1
167639,-100,4,1,3,5,0,1
167739,-100,4,1,6,85,0,1
167839,-100,4,1,3,85,0,1
168039,-100,4,1,3,5,0,1
168138,-100,4,1,6,85,0,1
168238,-100,4,1,3,85,0,1
168738,-100,4,1,6,85,0,1
168838,-100,4,1,3,85,0,1
169337,-100,4,1,6,85,0,1
169437,-100,4,1,3,85,0,1
169537,-100,4,1,6,85,0,1
169637,-100,4,1,3,85,0,1
170536,-100,4,1,6,85,0,1
170636,-100,4,1,3,85,0,1
170936,-100,4,1,6,85,0,1
171035,-100,4,1,3,85,0,1
171135,-100,4,1,6,85,0,1
171235,-100,4,1,3,85,0,1
171535,-100,4,1,6,85,0,1
171635,-100,4,1,3,85,0,1
171934,-100,4,1,6,85,0,1
172034,-100,4,1,3,85,0,1
172234,-100,4,1,3,5,0,1
172334,-100,4,1,6,85,0,1
172434,-100,4,1,3,85,0,1
172734,-100,4,1,6,85,0,1
172833,-100,4,1,3,85,0,1
172933,-100,4,1,6,85,0,1
173033,-100,4,1,3,85,0,1
173333,-100,4,1,6,85,0,1
173433,-100,4,1,3,85,0,1
173533,-100,4,1,6,85,0,1
173633,-100,4,1,3,85,0,1
173932,-100,4,1,6,85,0,1
174032,-100,4,1,3,85,0,1
174332,-100,4,1,6,85,0,1
174432,-100,4,1,3,85,0,1
174532,-100,4,1,6,85,0,1
174632,-100,4,1,3,5,0,1
174931,-100,4,1,6,85,0,1
175031,-100,4,1,3,85,0,1
175131,-100,4,1,6,85,0,1
175231,-100,4,1,3,85,0,1
175531,-100,4,1,6,85,0,1
175630,-100,4,1,3,85,0,1
175730,-100,4,1,6,85,0,0
175830,-100,4,1,3,85,0,0
176130,-100,4,1,3,87,0,1
181524,-100,4,1,4,87,0,1
181724,-100,4,1,4,100,0,1
182923,-100,4,1,5,50,0,0

[Colours]
Combo1 : 142,125,240
Combo2 : 92,152,146
Combo3 : 252,225,135
Combo4 : 102,157,124

[HitObjects]
256,16,9907,5,14,3:1:0:0:
362,122,10507,1,2,0:1:0:0:
362,122,10906,1,2,3:1:0:0:
436,56,11306,2,0,P|456:92|432:196,1,150,2|8,3:1|3:1,0:0:0:0:
364,264,12305,1,8,2:1:0:0:
228,120,13104,5,12,3:1:0:0:
121,226,13703,1,2,0:1:0:0:
121,226,14103,1,2,3:1:0:0:
44,160,14502,2,0,P|18:229|44:297,1,150,2|8,3:1|3:1,0:0:0:0:
120,364,15501,1,8,2:1:0:0:
261,222,16300,6,0,L|379:242,1,100,12|8,3:1|3:1,0:0:0:0:
394,204,16900,1,2,0:1:0:0:
394,204,17299,1,2,3:1:0:0:
468,268,17699,2,0,P|494:199|468:130,1,150,2|8,3:1|3:1,0:0:0:0:
396,60,18698,1,8,2:1:0:0:
248,196,19497,6,0,L|129:175,1,100,12|8,3:1|3:1,0:0:0:0:
115,214,20096,1,2,0:1:0:0:
115,214,20496,1,2,3:1:0:0:
44,140,20896,2,0,P|17:208|43:277,1,150,2|8,3:1|3:1,0:0:0:0:
112,348,21894,1,8,2:1:0:0:
184,276,22294,1,0,3:0:0:0:
272,324,22694,6,0,B|292:276|292:276|268:224,1,100,6|0,3:2|3:2,0:0:0:0:
192,172,23493,1,2,1:2:0:0:
272,44,24092,2,0,L|425:71,1,150,0|2,3:2|3:2,0:0:0:0:
504,12,25091,1,2,1:2:0:0:
464,204,25890,6,0,B|417:186|417:186|367:207,1,100,2|0,3:2|3:2,0:0:0:0:
416,296,26689,1,2,1:2:0:0:
272,248,27289,2,0,B|204:280|204:280|136:248,1,150,0|0,3:2|3:2,0:0:0:0:
204,176,28288,1,0,1:2:0:0:
364,56,29087,6,0,B|466:74,2,100,6|0|2,3:2|3:2|1:2,0:0:0:0:
324,88,30086,1,0,3:2:0:0:
248,152,30485,2,0,L|90:124,1,150,0|0,3:2|0:0,0:0:0:0:
28,198,31484,1,2,1:2:0:0:
28,198,31684,1,0,3:2:0:0:
116,316,32283,6,0,B|214:333,2,100,2|0|2,3:2|3:2|1:2,0:0:0:0:
80,351,33282,1,0,3:2:0:0:
12,276,33682,2,0,L|38:128,1,150,0|2,0:2|3:2,0:0:0:0:
124,76,34681,1,2,1:2:0:0:
168,52,34881,2,0,P|216:40|275:63,1,100,0|0,3:2|3:2,0:0:0:0:
304,80,35480,6,0,L|410:61,1,100,6|2,3:2|3:2,0:0:0:0:
473,133,36279,1,2,1:2:0:0:
400,264,36879,2,0,L|252:237,1,150,0|2,3:2|3:2,0:0:0:0:
181,308,37877,1,2,1:2:0:0:
92,128,38677,6,0,B|137:110|137:110|198:134,1,100,2|2,3:2|3:2,0:0:0:0:
255,58,39476,1,2,1:2:0:0:
384,132,40075,2,0,L|357:279,1,150,0|2,3:2|3:2,0:0:0:0:
264,320,41074,1,2,1:2:0:0:
162,334,41474,5,0,3:0:0:0:
116,245,41873,1,0,3:0:0:0:
187,174,42273,1,0,3:0:0:0:
277,220,42672,5,4,0:0:0:0:
420,168,43272,2,0,B|448:100|448:100|420:24,1,150,0|0,3:2|0:0,0:0:0:0:
352,96,44271,1,2,1:2:0:0:
156,140,45070,6,0,B|143:92|143:92|159:44,2,100,2|2|2,3:2|3:2|1:2,0:0:0:0:
188,176,46069,1,0,3:2:0:0:
156,272,46468,2,0,L|317:300,1,150,0|0,3:2|3:2,0:0:0:0:
508,80,48266,5,12,3:1:0:0:
444,156,48666,2,0,P|411:160|380:148,1,50,10|2,3:1|0:1,0:0:0:0:
352,128,49066,2,0,P|320:116|239:142,1,100,10|10,2:1|0:1,0:0:0:0:
168,84,49865,2,0,P|154:131|167:179,1,100,10|8,0:1|3:1,0:0:0:0:
200,216,50464,2,0,P|213:263|200:311,1,100,2|0,0:1|3:1,0:0:0:0:
164,348,51063,1,10,0:1:0:0:
108,264,51463,5,12,3:1:0:0:
20,216,51863,2,0,P|6:264|20:312,2,100,14|10|8,3:1|2:1|0:1,0:0:0:0:
104,164,53061,2,0,P|151:177|199:163,1,100,10|10,0:1|3:1,0:0:0:0:
234,128,53661,2,0,P|281:114|329:128,1,100,2|0,0:1|3:1,0:0:0:0:
364,164,54260,1,10,0:1:0:0:
434,93,54660,5,12,3:1:0:0:
464,188,55059,2,0,P|477:235|463:283,2,100,10|8|10,3:1|2:1|0:1,0:0:0:0:
376,232,56258,2,0,P|329:246|281:232,1,100,10|8,0:1|3:1,0:0:0:0:
245,196,56857,2,0,P|198:182|150:196,1,100,2|0,0:1|0:1,0:0:0:0:
116,232,57457,1,10,0:1:0:0:
45,161,57856,5,14,3:1:0:0:
152,56,58455,2,0,P|199:70|246:56,1,100,2|2,0:1|3:1,0:0:0:0:
337,13,59255,1,2,3:1:0:0:
443,119,59854,1,8,0:0:0:0:
480,152,60054,2,0,P|494:199|480:246,1,100,0|0,2:0|3:0,0:0:0:0:
400,308,60853,2,0,B|332:344|332:276|248:316,1,150,0|4,3:0|3:1,0:0:0:0:
176,88,67446,6,0,L|286:107,1,100,6|0,3:2|3:2,0:0:0:0:
345,34,68245,1,2,1:2:0:0:
472,112,68844,2,0,B|508:192|508:192|472:264,1,150,0|2,3:2|3:2,0:0:0:0:
396,196,69843,1,2,1:2:0:0:
254,337,70642,6,0,L|151:318,1,100,2|2,3:2|3:2,0:0:0:0:
68,372,71442,1,2,1:2:0:0:
48,224,72041,2,0,B|20:168|20:168|56:88,1,150,0|2,0:2|3:2,0:0:0:0:
124,164,73040,1,0,1:2:0:0:
312,96,73839,6,0,B|359:80|359:80|424:104,2,100,6|2|2,3:2|3:2|1:2,0:0:0:0:
268,72,74838,1,0,3:2:0:0:
228,164,75238,2,0,L|257:333,1,150,0|2,3:2|3:2,0:0:0:0:
176,376,76237,1,2,1:2:0:0:
12,264,77036,6,0,L|30:157,1,100,2|2,3:2|3:2,0:0:0:0:
48,68,77835,1,2,1:2:0:0:
164,164,78434,2,0,B|212:140|212:140|314:167,1,150,0|2,3:2|3:2,0:0:0:0:
400,200,79433,1,2,1:2:0:0:
459,118,79833,5,0,3:0:0:0:
403,36,80232,1,0,3:0:0:0:
307,66,80632,1,0,3:0:0:0:
305,165,81031,5,4,0:0:0:0:
368,300,81631,2,0,B|320:324|320:324|218:297,1,150,0|2,3:2|3:2,0:0:0:0:
144,356,82630,1,2,1:2:0:0:
16,204,83429,2,0,L|34:101,1,100,2|2,3:2|3:2,0:0:0:0:
120,52,84228,1,2,1:2:0:0:
208,172,84827,2,0,B|280:196|280:196|354:171,1,150,0|2,3:2|0:0,0:0:0:0:
4,80,86625,5,12,3:1:0:0:
68,156,87025,2,0,P|101:160|132:148,1,50,10|2,3:1|0:1,0:0:0:0:
160,128,87425,2,0,P|192:116|273:142,1,100,10|10,2:1|0:1,0:0:0:0:
344,84,88224,2,0,P|358:131|345:179,1,100,10|8,0:1|3:1,0:0:0:0:
312,216,88823,2,0,P|299:263|312:311,1,100,2|0,0:1|3:1,0:0:0:0:
348,348,89422,1,10,0:1:0:0:
404,264,89822,5,12,3:1:0:0:
492,216,90222,2,0,P|506:264|492:312,2,100,14|10|8,3:1|2:1|0:1,0:0:0:0:
408,164,91420,2,0,P|361:177|313:163,1,100,10|10,0:1|3:1,0:0:0:0:
278,128,92020,2,0,P|231:114|183:128,1,100,2|0,0:1|3:1,0:0:0:0:
148,164,92619,1,10,0:1:0:0:
78,93,93019,5,12,3:1:0:0:
48,188,93418,2,0,P|35:235|49:283,2,100,10|8|10,3:1|2:1|0:1,0:0:0:0:
136,232,94617,2,0,P|183:246|231:232,1,100,10|8,0:1|3:1,0:0:0:0:
267,196,95216,2,0,P|314:182|362:196,1,100,2|0,0:1|0:1,0:0:0:0:
396,232,95816,1,10,0:1:0:0:
467,161,96215,5,14,3:1:0:0:
360,56,96815,2,0,P|313:70|266:56,1,100,2|2,0:1|0:0,0:0:0:0:
175,13,97614,1,2,0:0:0:0:
52,100,98213,2,0,P|37:147|51:194,1,100,8|8,3:1|2:1,0:0:0:0:
20,232,98812,6,0,B|92:200|92:260|168:220,1,150,0|0,3:0|3:0,0:0:0:0:
252,164,99811,2,0,P|288:152|364:176,2,100,4|0|8,0:0|0:0|0:0,0:0:0:0:
300,248,101010,2,0,P|347:263|394:249,1,100,10|8,0:0|0:0,0:0:0:0:
432,212,101609,2,0,P|447:165|433:118,1,100,2|0,0:0|0:0,0:0:0:0:
468,84,102209,1,10,0:0:0:0:
396,16,102608,5,12,3:1:0:0:
324,84,103008,2,0,P|276:98|229:83,2,100,10|10|10,3:1|2:1|0:0,0:0:0:0:
396,156,104207,2,0,P|381:202|395:250,1,100,2|8,0:0|0:0,0:0:0:0:
420,296,104806,2,0,P|373:281|325:295,1,100,2|0,0:0|0:0,0:0:0:0:
290,330,105405,1,10,0:0:0:0:
219,259,105805,5,12,3:1:0:0:
152,332,106205,2,0,P|105:346|57:332,2,100,10|10|10,3:1|2:1|0:0,0:0:0:0:
219,259,107403,2,0,P|233:211|218:164,1,100,8|8,0:0|0:0,0:0:0:0:
180,132,108003,2,0,P|165:84|180:37,1,100,2|0,0:0|0:0,0:0:0:0:
220,8,108602,1,10,0:0:0:0:
284,84,109002,6,8,P|330:69|378:83,1,100,14|8,0:0|0:0,0:0:0:0:
412,120,109601,2,0,P|426:166|412:214,1,100,2|2,0:0|0:0,0:0:0:0:
352,292,110400,1,2,0:0:0:0:
224,212,110999,1,8,0:0:0:0:
188,248,111199,2,0,P|141:262|93:248,1,100,0|0,3:0|3:0,3:0:0:0:
16,316,111998,2,0,B|-40:192|64:192|16:72,1,250,0|0,3:0|0:0,0:0:0:0:
256,192,121788,12,0,124185,3:0:0:0:
156,72,124985,6,0,L|258:53,1,100,4|10,3:1|3:1,0:0:0:0:
332,120,125784,1,10,2:1:0:0:
368,84,125983,2,0,P|400:72|479:97,2,100,0|0|0,3:1|3:1|3:1,0:0:0:0:
332,120,126982,1,10,3:1:0:0:
399,193,127382,2,0,P|331:221|255:181,1,150,8|0,2:1|3:1,0:0:0:0:
224,160,128181,6,0,L|117:178,1,100,12|10,3:1|3:1,0:0:0:0:
52,108,128980,1,10,2:1:0:0:
20,144,129180,2,0,P|33:190|12:248,2,100,0|0|0,3:1|3:1|0:0,0:0:0:0:
52,108,130179,1,10,3:1:0:0:
124,36,130579,2,0,L|277:63,1,150,10|0,2:1|0:1,0:0:0:0:
316,36,131378,6,0,P|362:23|420:44,1,100,6|0,0:1|0:0,0:0:0:0:
360,124,132177,1,2,0:1:0:0:
324,159,132377,2,0,L|342:265,2,100,8|8|0,0:1|0:1|0:1,0:0:0:0:
360,124,133376,1,2,0:1:0:0:
436,188,133775,2,0,P|465:184|504:199,2,50,2|8|2,0:1|0:1|0:1,0:0:0:0:
456,288,134574,6,0,P|472:320|416:336,1,100,0|8,3:1|3:1,0:0:0:0:
380,320,135174,2,0,P|336:308|272:332,1,100,0|0,0:1|3:1,0:0:0:0:
208,256,135973,2,0,P|148:280|64:252,2,150,0|8|0,3:1|3:1|3:1,0:0:0:0:
340,188,137771,6,0,L|321:85,1,100,4|10,3:1|3:1,0:0:0:0:
392,20,138570,1,10,2:1:0:0:
436,44,138770,2,0,P|448:84|428:152,2,100,0|0|0,3:1|3:1|3:1,0:0:0:0:
392,20,139769,1,10,3:1:0:0:
322,89,140168,2,0,L|154:58,1,150,8|0,2:1|3:1,0:0:0:0:
136,96,140967,6,0,B|124:142|124:142|139:204,1,100,6|10,3:1|3:1,0:0:0:0:
208,264,141767,1,8,2:1:0:0:
256,253,141966,2,0,B|302:241|302:241|364:256,2,100,0|0|0,3:1|3:1|3:1,0:0:0:0:
208,264,142965,1,10,3:1:0:0:
112,288,143365,2,0,P|72:304|48:220,1,150,10|0,0:0|3:1,0:0:0:0:
76,188,144164,6,0,P|88:152|72:84,1,100,12|0,0:0|0:0,0:0:0:0:
156,32,144963,1,2,0:0:0:0:
191,67,145163,2,0,L|293:48,1,100,8|8,0:0|0:0,0:0:0:0:
360,120,145962,1,8,0:0:0:0:
400,92,146162,2,0,P|432:88|466:101,2,50,8|2|8,0:0|0:0|0:0,0:0:0:0:
424,188,146961,1,8,0:0:0:0:
472,276,147361,6,0,P|436:288|364:268,1,100,0|8,3:1|3:1,0:0:0:0:
332,252,147960,2,0,P|296:240|224:260,1,100,0|0,0:1|3:1,0:0:0:0:
160,316,148759,2,0,L|130:146,2,150,0|8|0,3:1|3:1|3:2,0:0:0:0:
20,356,150557,5,12,3:1:0:0:
48,260,150957,2,0,P|54:229|44:199,1,50,10|2,3:1|0:1,0:0:0:0:
20,172,151356,2,0,P|8:122|32:64,1,100,10|10,2:1|0:1,0:0:0:0:
108,128,152156,2,0,P|158:116|221:139,1,100,10|10,0:1|3:1,0:0:0:0:
236,168,152755,2,0,P|286:180|349:157,1,100,2|0,0:1|3:1,0:0:0:0:
364,132,153354,1,10,0:1:0:0:
452,80,153754,5,12,3:1:0:0:
456,180,154153,2,0,P|468:228|456:276,2,100,14|10|10,3:1|2:1|0:1,0:0:0:0:
368,228,155352,2,0,P|319:215|271:227,1,100,10|10,0:1|3:1,0:0:0:0:
232,260,155951,2,0,P|183:272|135:260,1,100,2|0,0:1|3:1,0:0:0:0:
96,228,156551,1,10,0:1:0:0:
184,176,156950,5,14,3:1:0:0:
136,88,157350,2,0,P|184:75|232:87,2,100,10|10|10,3:1|2:1|0:1,0:0:0:0:
48,40,158549,2,0,P|36:88|48:136,1,100,10|10,0:1|3:1,0:0:0:0:
84,172,159148,2,0,P|95:220|83:268,1,100,2|2,0:1|0:1,0:0:0:0:
48,304,159747,1,10,0:1:0:0:
132,356,160147,6,0,P|164:344|240:364,1,100,14|8,3:1|3:1,0:0:0:0:
272,332,160746,2,0,P|304:344|380:324,1,100,2|2,0:1|3:1,0:0:0:0:
438,261,161546,1,2,3:1:0:0:
300,208,162145,2,0,P|325:202|356:212,2,50,10|2|8,3:1|0:1|2:1,0:0:0:0:
256,116,162944,1,0,2:1:0:0:
211,207,163344,6,0,P|184:202|157:211,1,50,12|0,3:1|3:1,0:0:0:0:
124,236,163743,2,0,P|72:250|24:232,1,100,10|10,3:1|2:1,0:0:0:0:
76,148,164542,1,10,0:1:0:0:
28,60,164942,2,0,P|75:45|122:59,1,100,10|10,0:1|3:1,0:0:0:0:
160,92,165541,2,0,P|207:106|254:92,1,100,2|0,0:1|3:1,0:0:0:0:
296,60,166141,1,10,0:1:0:0:
356,140,166540,5,12,3:1:0:0:
444,92,166940,2,0,P|458:139|443:186,2,100,14|10|10,3:1|2:1|0:1,0:0:0:0:
356,140,168138,2,0,P|341:187|356:234,1,100,10|10,0:1|3:1,0:0:0:0:
376,280,168738,2,0,P|328:265|281:280,1,100,2|0,0:1|3:1,0:0:0:0:
240,308,169337,1,10,0:1:0:0:
184,224,169737,5,14,3:1:0:0:
100,280,170136,2,0,P|52:294|1:277,2,100,10|10|10,3:1|2:1|0:1,0:0:0:0:
52,192,171335,2,0,P|37:144|52:97,1,100,10|10,0:1|3:1,0:0:0:0:
88,60,171934,2,0,P|135:45|182:59,1,100,2|2,0:1|0:1,0:0:0:0:
216,96,172534,1,10,0:1:0:0:
292,32,172933,5,14,3:1:0:0:
368,96,173333,2,0,P|415:110|462:95,2,100,10|8|8,3:1|2:1|0:1,0:0:0:0:
292,160,174532,2,0,P|306:207|291:254,1,100,0|10,0:0|3:1,0:0:0:0:
264,296,175131,2,0,P|216:310|166:295,1,100,2|0,0:1|3:1,0:0:0:0:
136,256,175730,1,0,2:1:0:0:
48,300,176130,5,6,0:1:0:0:
86,103,176929,1,6,0:1:0:0:
279,137,177728,1,4,0:0:0:0:
241,334,178527,1,4,0:1:0:0:
52,272,179327,5,6,0:1:0:0:
90,75,180126,1,4,0:0:0:0:
283,109,180925,1,4,0:1:0:0:
264,208,181324,5,0,0:1:0:0:
228,240,181524,2,0,P|216:272|232:340,1,100,0|0,2:1|3:1,0:0:0:0:
316,288,182323,2,0,B|388:260|388:320|464:284,1,150,0|4,3:1|0:0,0:0:0:0:
